osu file format v14

[General]
AudioFilename: audio.mp3
AudioLeadIn: 0
PreviewTime: 50341
Countdown: 0
SampleSet: Soft
StackLeniency: 0.7
Mode: 0
LetterboxInBreaks: 0
WidescreenStoryboard: 1
SamplesMatchPlaybackRate: 1

[Editor]
DistanceSpacing: 1.4
BeatDivisor: 4
GridSize: 32
TimelineZoom: 1.9

[Metadata]
Title:Seishun Seminar (TV Size)
TitleUnicode:セイシュンゼミナール (TV Size)
Artist:Study
ArtistUnicode:Study
Creator:realy0_
Version:Hard
Source:ぼくたちは勉強ができない
Tags:Atalanta Toshino Kyoko can't study bokutachi wa benkyou ga dekinai bokuben we cant never learn 古橋文乃 furuhashi fumino 白石晴香 shiraishi haruka 緒方理珠 ogata rizu 富田美憂 tomita miyu 武元うるか takemoto uruka 鈴代紗弓 suzushiro sayumi anime japanese
BeatmapID:2153419
BeatmapSetID:1012167

[Difficulty]
HPDrainRate:4
CircleSize:3.4
OverallDifficulty:5.8
ApproachRate:7.8
SliderMultiplier:1.42
SliderTickRate:1

[Events]
//Background and Video events
0,0,"cropped-1920-1200-1000048.jpg",0,0
Video,50,"bokuben op.mp4"
//Break Periods
//Storyboard Layer 0 (Background)
//Storyboard Layer 1 (Fail)
//Storyboard Layer 2 (Pass)
//Storyboard Layer 3 (Foreground)
//Storyboard Layer 4 (Overlay)
//Storyboard Sound Samples

[TimingPoints]
2230,545.454545454546,4,2,14,50,1,0
2230,-125,4,2,14,50,0,0
2775,-125,4,2,10,40,0,0
3048,-125,4,2,8,25,0,0
3320,-125,4,2,11,50,0,0
3729,-125,4,2,12,45,0,0
4138,-125,4,2,10,40,0,0
4411,-125,4,2,14,50,0,0
4956,-125,4,2,10,40,0,0
5230,-125,4,2,8,25,0,0
5502,-125,4,2,11,50,0,0
5911,-125,4,2,12,45,0,0
6320,-125,4,2,16,55,0,0
6593,-125,4,2,12,60,0,0
7138,-125,4,2,9,35,0,0
7411,-125,4,2,8,30,0,0
7684,-125,4,2,10,55,0,0
8774,-125,4,2,14,60,0,0
9865,-125,4,2,12,50,0,0
10411,-125,4,2,8,40,0,0
10683,-125,4,2,12,45,0,0
10957,-125,4,2,12,50,0,0
11366,-125,4,2,8,30,0,0
11775,-125,4,2,12,45,0,0
12048,-125,4,2,12,40,0,0
12320,-125,4,2,10,30,0,0
12457,-125,4,2,12,30,0,0
12866,-125,4,2,18,40,0,0
13139,-125,4,2,14,55,0,0
13684,-125,4,2,14,50,0,0
14229,-125,4,2,17,55,0,0
14775,-125,4,2,19,60,0,0
15320,555.555555555556,4,2,20,60,1,0
15597,566.037735849057,4,2,20,40,1,8
15880,576.923076923077,4,2,20,40,1,8
16168,588.235294117647,4,2,20,40,1,8
16462,600,4,2,20,40,1,8
16762,612.244897959184,4,2,20,40,1,8
17068,625,4,2,20,40,1,8
17380,638.297872340426,4,2,20,40,1,8
17752,652.173913043478,4,2,20,40,1,0
20117,451.127819548872,4,2,20,40,1,8
20342,-133.333333333333,4,2,1,40,0,8
20568,451.127819548872,4,2,1,65,1,0
20680,-83.3333333333333,4,2,1,65,0,0
36808,-90.9090909090909,4,2,1,55,0,0
44026,-90.9090909090909,4,2,1,65,0,0
44477,-83.3333333333333,4,2,1,65,0,0
45831,-83.3333333333333,4,2,1,70,0,0
47635,-83.3333333333333,4,2,1,75,0,0
51019,-83.3333333333333,4,2,1,65,0,0
51244,-76.9230769230769,4,2,48,85,0,1
51469,-76.9230769230769,4,2,1,85,0,1
53049,-76.9230769230769,4,2,49,85,0,1
53274,-76.9230769230769,4,2,1,85,0,1
54853,-76.9230769230769,4,2,50,85,0,1
55079,-76.9230769230769,4,2,1,85,0,1
56658,-76.9230769230769,4,2,48,85,0,1
56883,-76.9230769230769,4,2,1,85,0,1
58462,-76.9230769230769,4,2,50,85,0,1
58687,-76.9230769230769,4,2,1,85,0,1
59364,-76.9230769230769,4,2,49,85,0,1
59815,-76.9230769230769,4,2,1,85,0,1
60267,-76.9230769230769,4,2,48,85,0,1
60492,-76.9230769230769,4,2,1,85,0,1
61169,-76.9230769230769,4,2,47,85,0,1
61394,-76.9230769230769,4,2,1,85,0,1
62071,-76.9230769230769,4,2,46,85,0,1
62296,-76.9230769230769,4,2,1,85,0,1
62974,-76.9230769230769,4,2,48,85,0,1
63198,-76.9230769230769,4,2,1,85,0,1
63876,-76.9230769230769,4,2,50,85,0,1
64101,-76.9230769230769,4,2,1,85,0,1
64778,-76.9230769230769,4,2,52,85,0,0
65116,-76.9230769230769,4,2,1,85,0,0
65680,-76.9230769230769,4,2,48,85,0,1
65905,-76.9230769230769,4,2,1,85,0,1
67485,-76.9230769230769,4,2,49,85,0,1
67710,-76.9230769230769,4,2,1,85,0,1
69289,-76.9230769230769,4,2,50,85,0,1
69515,-76.9230769230769,4,2,1,85,0,1
71094,-76.9230769230769,4,2,47,85,0,1
71319,-76.9230769230769,4,2,1,85,0,1
72898,-76.9230769230769,4,2,53,85,0,1
73123,-76.9230769230769,4,2,1,85,0,1
73801,-76.9230769230769,4,2,52,85,0,1
74252,-76.9230769230769,4,2,1,85,0,1
74703,-76.9230769230769,4,2,54,85,0,1
74928,-76.9230769230769,4,2,1,85,0,1
75605,-76.9230769230769,4,2,53,85,0,0
75830,-76.9230769230769,4,2,1,85,0,0
76507,-76.9230769230769,4,2,46,85,0,1
76619,-76.9230769230769,4,2,1,85,0,1
77410,-76.9230769230769,4,2,48,85,0,1
77521,-76.9230769230769,4,2,1,85,0,1
78312,-76.9230769230769,4,2,50,85,0,1
78423,-76.9230769230769,4,2,1,85,0,1
79214,-76.9230769230769,4,2,52,85,0,1
79326,-76.9230769230769,4,2,1,85,0,1
79891,-76.9230769230769,4,2,1,85,0,0
80116,-76.9230769230769,4,2,50,85,0,1
80341,-76.9230769230769,4,2,1,85,0,1
80567,-76.9230769230769,4,2,52,85,0,1
80792,-76.9230769230769,4,2,1,85,0,1
81695,-76.9230769230769,4,2,1,75,0,0
82823,-100,4,2,1,75,0,0
85304,-83.3333333333333,4,2,1,75,0,1
86432,-83.3333333333333,4,2,1,85,0,0

[Colours]
Combo1 : 255,128,128
Combo2 : 170,170,255
Combo3 : 160,231,254
Combo4 : 254,175,235

[HitObjects]
86,299,2230,6,0,P|96:233|98:151,1,113.789333333334,2|0,2:0|2:0,2:0:0:0:
52,108,3048,1,0,2:0:0:0:
52,108,3320,2,0,B|37:67|37:67|65:35,2,85.2378666666668,2|2|2,2:0|2:0|2:0,2:0:0:0:
142,105,4411,2,0,B|206:99|182:137|259:129,1,113.789333333334,2|0,2:0|2:0,2:0:0:0:
323,74,5230,1,0,2:0:0:0:
323,74,5502,2,0,P|366:74|398:105,2,85.2378666666668,2|2|2,2:0|2:0|2:0,2:0:0:0:
270,148,6593,6,0,B|278:193|278:193|273:215|273:215|282:260,1,113.789333333334,2|0,2:0|2:0,2:0:0:0:
217,323,7411,1,2,2:0:0:0:
217,323,7684,2,0,B|152:327|116:279|116:279|51:288|35:349,2,227.266266666667,2|2|2,2:0|2:0|2:0,2:0:0:0:
402,355,10411,2,0,P|407:322|408:281,1,56.8946666666668,0|0,2:0|2:0,2:0:0:0:
479,241,10957,6,0,P|469:175|461:132,2,85.2378666666668,2|0|2,2:0|2:0|2:0,2:0:0:0:
408,298,12048,1,2,2:0:0:0:
330,250,12320,1,0,2:0:0:0:
330,250,12457,2,0,L|235:242,1,85.2378666666668,0|2,2:0|2:0,2:0:0:0:
168,291,13139,6,0,B|122:294|122:294|102:305|102:305|55:308,2,113.6852,2|2|2,2:0|2:0|2:0,2:0:0:0:
295,215,14775,1,2,2:0:0:0:
175,132,15320,1,2,2:0:0:0:
256,192,15458,12,2,17752,2:0:0:0:
328,113,20342,6,0,L|366:109,1,26.7581260156632,0|0,3:2|3:2,2:0:0:0:
447,70,20568,5,8,2:0:0:0:
447,70,20680,2,0,P|440:116|438:173,1,85.2482773999024,8|8,2:0|2:0,2:0:0:0:
495,218,21019,1,8,2:0:0:0:
495,218,21131,2,0,P|492:259|463:289,1,85.2482773999024,8|8,2:0|2:0,2:0:0:0:
423,305,21470,5,8,2:0:0:0:
304,257,21695,1,8,2:0:0:0:
222,355,21921,1,8,2:0:0:0:
107,298,22146,1,8,2:0:0:0:
107,298,22259,1,8,2:0:0:0:
107,298,22372,6,0,P|65:300|35:329,2,85.2482773999024,6|8|0,3:2|2:0|3:2,2:0:0:0:
222,355,23049,1,10,2:0:0:0:
325,279,23274,2,0,P|332:233|334:176,1,85.2482773999024,2|8,3:2|2:0,2:0:0:0:
265,143,23613,2,0,B|190:140|223:176|140:171,1,128.061276099854,2|10,3:2|2:0,2:0:0:0:
51,65,24177,6,0,P|97:58|154:56,1,85.2482773999024,2|8,3:2|2:0,2:0:0:0:
212,19,24515,2,0,B|243:49|243:49|281:32,1,85.2482773999024,2|0,2:0|2:0,2:0:0:0:
318,9,24853,1,10,2:0:0:0:
423,95,25079,2,0,P|416:141|414:198,1,85.2482773999024,2|8,3:2|2:0,2:0:0:0:
307,251,25530,1,0,2:0:0:0:
398,340,25755,1,10,2:0:0:0:
398,340,25868,1,0,2:0:0:0:
398,340,25981,6,0,P|440:343|482:349,2,85.2482773999024,6|8|0,3:2|2:0|3:2,2:0:0:0:
305,251,26658,1,10,2:0:0:0:
182,288,26883,2,0,P|140:286|110:257,1,85.2482773999024,2|8,3:2|2:0,2:0:0:0:
87,174,27222,2,0,P|80:220|78:318,1,128.061276099854,0|10,3:2|2:0,2:0:0:0:
192,374,27786,6,0,P|234:371|276:364,1,85.2482773999024,2|8,3:2|2:0,2:0:0:0:
361,369,28124,1,2,2:0:0:0:
361,369,28237,2,0,B|378:331|378:331|348:300,1,85.2482773999024,2|10,3:2|2:0,2:0:0:0:
438,209,28688,6,0,L|441:162,2,42.6241386999512,2|8|10,3:2|2:0|2:0,2:0:0:0:
507,316,29139,1,10,2:0:0:0:
507,316,29252,1,8,2:0:0:0:
507,316,29364,1,0,3:2:0:0:
337,333,29590,6,0,P|295:335|265:364,2,85.2482773999024,6|8|0,3:2|2:0|3:2,2:0:0:0:
428,244,30267,1,10,2:0:0:0:
330,160,30492,2,0,P|323:114|321:57,1,85.2482773999024,2|8,3:2|2:0,2:0:0:0:
247,31,30831,2,0,B|194:26|194:26|170:34|170:34|117:28,1,128.061276099854,2|10,3:2|2:0,2:0:0:0:
43,140,31395,6,0,P|77:116|119:122,1,85.2482773999024,2|8,3:2|2:0,2:0:0:0:
177,184,31733,2,0,B|208:214|208:214|246:197,1,85.2482773999024,2|0,2:0|2:0,2:0:0:0:
284,177,32071,1,10,2:0:0:0:
394,240,32297,2,0,P|401:286|403:343,1,85.2482773999024,2|8,3:2|2:0,2:0:0:0:
286,377,32748,1,0,2:0:0:0:
191,303,32974,1,10,2:0:0:0:
191,303,33086,1,0,2:0:0:0:
191,303,33199,6,0,P|149:306|107:312,2,85.2482773999024,6|8|0,3:2|2:0|3:2,2:0:0:0:
292,225,33876,1,10,2:0:0:0:
411,272,34101,2,0,B|438:305|438:305|417:341,1,85.2482773999024,2|8,3:2|2:0,2:0:0:0:
372,269,34440,2,0,P|382:223|393:126,1,128.061276099854,0|10,3:2|2:0,2:0:0:0:
302,51,35004,6,0,P|259:52|230:81,1,85.2482773999024,2|8,3:2|2:0,2:0:0:0:
226,165,35342,1,2,2:0:0:0:
226,165,35455,2,0,P|228:207|235:249,1,85.2482773999024,2|10,3:2|2:0,2:0:0:0:
151,317,35793,1,0,0:0:0:0:
151,317,35906,6,0,B|121:286|121:286|138:248,1,85.2482773999024,2|10,3:2|2:0,2:0:0:0:
220,274,36244,1,0,3:2:0:0:
220,274,36357,2,0,P|262:277|304:284,1,85.2482773999024,10|0,2:0|3:2,2:0:0:0:
436,214,36808,6,0,B|435:169|415:143|415:143|320:133|363:193|259:183,1,234.432777150269,6|0,3:2|3:2,2:3:0:0:
194,125,37710,1,10,2:0:0:0:
194,125,37823,2,0,P|217:75|203:24,1,78.1442590500895,2|2,3:2|3:2,2:0:0:0:
171,36,38161,2,0,P|132:39|93:45,1,78.1442590500895,10|10,2:0|2:0,2:0:0:0:
71,176,38613,6,0,B|66:223|66:223|73:245|73:245|68:292,2,117.216388575134,2|0|0,3:2|3:2|3:2,2:0:0:0:
159,145,39515,1,10,2:0:0:0:
159,145,39628,2,0,P|194:187|193:240,1,78.1442590500895,10|2,2:0|3:2,2:0:0:0:
231,241,39966,2,0,P|269:244|308:250,1,78.1442590500895,10|2,2:0|3:2,2:0:0:0:
423,317,40417,6,0,P|409:244|451:162,1,156.28851810018,2|2,3:2|3:2,2:0:0:0:
393,91,41094,1,0,2:0:0:0:
393,91,41207,1,0,3:2:0:0:
393,91,41319,2,0,B|296:95|347:42|219:50,1,156.28851810018,10|10,2:0|2:0,2:0:0:0:
185,120,41996,1,8,2:0:0:0:
233,199,42222,6,0,P|254:248|263:313,2,117.216388575134,2|0|2,3:2|3:2|3:2,2:0:0:0:
193,225,43011,1,2,2:0:0:0:
193,225,43124,2,0,P|154:219|115:215,1,78.1442590500895,2|0,3:2|3:2,2:0:0:0:
43,284,43575,2,0,L|9:291,6,19.5649183736335,8|8|8|8|8|8|8,2:0|2:0|2:0|2:0|2:0|2:0|2:0,2:0:0:0:
83,316,44026,6,0,P|125:309|168:305,1,78.1442590500895,6|0,3:2|3:2,2:0:0:0:
236,344,44364,1,10,2:0:0:0:
236,343,44477,2,0,P|277:342|306:312,1,85.2482773999024,0|10,3:2|2:0,2:0:0:0:
434,304,44928,5,10,2:0:0:0:
434,304,45041,2,0,P|428:259|423:216,1,85.2482773999024,10|10,2:0|2:0,2:0:0:0:
490,166,45380,2,0,P|496:121|500:78,1,85.2482773999024,0|10,3:2|2:0,2:0:0:0:
393,9,45831,6,0,B|355:-8|355:-8|324:22,1,85.2482773999024,10|0,2:0|3:2,2:0:0:0:
297,103,46169,1,10,2:0:0:0:
297,103,46282,2,0,P|302:146|307:191,1,85.2482773999024,0|10,3:2|2:0,2:0:0:0:
180,240,46733,6,0,L|133:232,1,42.8129986999512,10|10,2:0|2:0,2:0:0:0:
62,302,47071,2,0,L|69:343,1,42.8129986999512,10|0,2:0|3:2,2:0:0:0:
179,344,47410,1,10,2:0:0:0:
179,344,47522,1,0,3:2:0:0:
179,344,47635,6,0,B|285:348|229:290|370:298,1,170.496554799805,6|0,3:2|3:2,2:0:0:0:
427,346,48312,1,0,3:2:0:0:
508,283,48537,2,0,L|516:246,16,21.3120693499756,8|8|8|8|8|8|8|8|8|8|8|8|8|8|8|8|2,2:0|2:0|2:0|2:0|2:0|2:0|2:0|2:0|2:0|2:0|2:0|2:0|2:0|2:0|2:0|2:0|3:2,2:0:0:0:
500,293,50342,5,2,2:0:0:0:
365,352,51019,5,2,2:0:0:0:
365,352,51131,1,2,2:0:0:0:
365,352,51244,2,0,P|317:344|264:340,1,92.3522991081748,6|8,3:2|2:0,2:0:0:0:
212,284,51583,1,8,2:0:0:0:
212,284,51695,2,0,P|164:292|111:295,1,92.3522991081748,2|8,3:2|2:0,2:0:0:0:
29,173,52146,6,0,B|74:161|74:161|103:200,1,92.3522991081748,2|10,3:2|2:0,2:0:0:0:
22,269,52485,2,0,B|-10:235|-10:235|9:190,1,92.3522991081748,2|2,3:2|3:2,2:0:0:0:
88,215,52823,1,10,2:0:0:0:
188,130,53049,6,0,P|229:131|264:165,1,92.3522991081748,2|8,3:2|2:0,2:0:0:0:
330,217,53387,1,8,2:0:0:0:
330,217,53500,2,0,P|371:216|406:182,2,92.3522991081748,2|10|0,3:2|2:0|3:2,2:0:0:0:
225,276,54177,2,0,L|217:326,1,46.3807478874208,10|0,2:0|3:0,2:0:0:0:
291,361,54402,2,0,P|339:353|392:350,1,92.3522991081748,2|10,2:0|2:0,2:0:0:0:
490,278,54853,5,0,3:2:0:0:
419,159,55079,1,10,2:0:0:0:
419,159,55192,1,8,2:0:0:0:
419,159,55304,2,0,P|427:111|430:58,1,92.3522991081748,2|10,3:2|2:0,2:0:0:0:
297,27,55755,6,0,B|252:15|252:15|223:54,1,92.3522991081748,2|10,3:2|2:0,2:0:0:0:
304,122,56094,2,0,B|336:88|336:88|317:43,1,92.3522991081748,2|2,3:2|3:2,2:0:0:0:
236,67,56432,1,10,2:0:0:0:
205,191,56658,6,0,P|213:239|216:292,1,92.3522991081748,2|8,3:2|2:0,2:0:0:0:
330,360,57109,2,0,P|352:319|390:283,1,92.3522991081748,2|8,3:2|2:0,2:0:0:0:
415,151,57560,2,0,B|357:148|382:176|319:172,1,92.3522991081748,2|8,3:2|2:0,2:0:0:0:
238,65,58011,2,0,L|247:19,3,46.2443489985318,2|0|10|8,3:2|3:2|2:0|2:0,2:0:0:0:
222,6,58462,6,0,P|176:9|130:17,1,92.3522991081748,6|8,3:2|2:0,2:0:0:0:
73,77,58801,1,8,2:0:0:0:
73,77,58913,2,0,B|28:65|28:65|-1:104,1,92.3522991081748,2|8,3:2|2:0,2:0:0:0:
76,206,59364,2,0,B|187:212|126:152|267:160,1,184.704598216349,2|2,3:2|2:0,2:0:0:0:
364,219,60041,1,8,2:0:0:0:
448,98,60267,6,0,B|403:86|403:86|374:125,1,92.3522991081748,2|10,3:2|2:0,2:0:0:0:
455,194,60605,2,0,B|487:160|487:160|468:115,1,92.3522991081748,2|2,2:0|2:0,2:0:0:0:
389,140,60943,1,10,2:0:0:0:
353,263,61169,6,0,P|349:309|342:354,1,92.3522991081748,2|8,3:2|2:0,2:0:0:0:
248,362,61507,1,0,3:2:0:0:
248,362,61620,2,0,B|203:374|203:374|175:337,1,92.3522991081748,2|10,2:0|2:0,2:0:0:0:
95,223,62071,6,0,B|57:219|57:219|39:224|39:224|3:220,2,92.3522991081747,6|12|2,3:2|2:0|3:2,2:0:0:0:
206,158,62748,2,0,L|215:112,1,46.3807478874208,2|8,3:2|2:0,2:0:0:0:
155,53,62974,2,0,P|110:60|82:96,2,92.3522991081748,6|12|2,3:2|2:0|3:2,2:0:0:0:
278,14,63650,1,10,2:0:0:0:
379,94,63876,6,0,B|424:82|424:82|453:121,1,92.3522991081748,6|10,3:2|2:0,2:0:0:0:
372,190,64214,2,0,B|340:156|340:156|359:111,1,92.3522991081748,2|2,2:0|3:2,2:0:0:0:
440,134,64552,1,10,2:0:0:0:
318,261,64778,6,0,B|230:255|266:295|184:291,1,138.733046995596,6|0,3:2|3:0,2:0:0:0:
109,323,65229,2,0,L|101:359,6,23.122174499266,0|0|0|0|0|0|0,3:2|3:0|3:2|3:0|3:2|3:0|3:2,3:0:0:0:
52,261,65680,6,0,P|44:213|40:160,1,92.3522991081748,6|8,3:2|2:0,2:0:0:0:
89,101,66019,1,8,2:0:0:0:
89,101,66131,2,0,P|51:75|40:31,1,92.3522991081748,2|8,3:2|2:0,2:0:0:0:
212,38,66583,6,0,B|257:26|257:26|286:65,1,92.3522991081748,2|10,3:2|2:0,2:0:0:0:
205,134,66921,2,0,B|173:100|173:100|192:55,1,92.3522991081748,2|2,3:2|3:2,2:0:0:0:
271,80,67259,1,10,2:0:0:0:
361,172,67485,6,0,P|402:171|437:137,1,92.3522991081748,2|8,3:2|2:0,2:0:0:0:
415,55,67823,1,8,2:0:0:0:
415,55,67936,2,0,P|444:26|493:26,2,92.3522991081748,2|10|0,3:2|2:0|3:2,2:0:0:0:
479,167,68613,2,0,B|483:241|483:241|500:272|500:272|506:346,1,184.70459821635,10|10,2:0|2:0,2:0:0:0:
378,379,69289,5,0,3:2:0:0:
297,289,69515,1,10,2:0:0:0:
297,289,69628,1,8,2:0:0:0:
297,289,69740,2,0,P|305:241|308:188,1,92.3522991081748,2|10,3:2|2:0,2:0:0:0:
199,111,70192,6,0,B|154:123|154:123|125:84,1,92.3522991081748,2|10,3:2|2:0,2:0:0:0:
206,16,70530,2,0,B|238:50|238:50|219:95,1,92.3522991081748,2|2,3:2|3:2,2:0:0:0:
140,69,70868,1,10,2:0:0:0:
50,174,71094,6,0,P|43:217|39:275,1,92.3522991081748,2|8,3:2|2:0,2:0:0:0:
156,340,71545,2,0,P|197:318|233:280,1,92.3522991081748,2|8,3:2|2:0,2:0:0:0:
355,343,71996,1,2,3:2:0:0:
355,343,72109,1,8,2:0:0:0:
355,343,72222,1,8,2:0:0:0:
454,246,72447,2,0,L|463:200,3,46.2443489985318,2|0|10|8,3:2|3:2|2:0|2:0,2:0:0:0:
431,166,72898,6,0,P|399:198|354:201,1,92.3522991081748,6|8,3:2|2:0,2:0:0:0:
294,142,73237,1,8,2:0:0:0:
294,142,73349,2,0,B|249:130|249:130|220:169,1,92.3522991081748,2|8,3:2|2:0,2:0:0:0:
108,247,73801,2,0,B|102:173|102:173|85:142|85:142|81:68,1,184.70459821635,2|2,3:2|2:0,2:0:0:0:
195,5,74477,1,8,2:0:0:0:
275,128,74703,6,0,B|230:140|230:140|201:101,1,92.3522991081748,2|10,3:2|2:0,2:0:0:0:
282,32,75041,2,0,B|314:66|314:66|295:111,1,92.3522991081748,2|2,2:0|2:0,2:0:0:0:
214,88,75380,1,10,2:0:0:0:
339,198,75605,6,0,P|384:190|430:186,1,92.3522991081748,2|8,3:2|2:0,2:0:0:0:
512,310,76056,2,0,P|466:302|420:298,1,92.3522991081748,0|10,3:0|2:0,2:0:0:0:
282,309,76507,6,0,L|273:355,2,46.1761495540875,6|2|10,3:2|2:0|2:0,2:0:0:0:
225,248,76846,2,0,L|202:100,1,138.733046995595,2|2,2:0|3:2,2:0:0:0:
85,39,77410,6,0,P|62:37|39:31,2,46.1761495540875,6|2|10,3:2|2:0|2:0,2:0:0:0:
125,118,77748,2,0,P|190:149|256:190,1,138.733046995595,2|2,2:0|3:2,2:0:0:0:
354,284,78312,6,0,P|338:300|318:312,2,46.1761495540875,6|2|10,3:2|2:0|2:0,2:0:0:0:
330,207,78650,2,0,P|370:147|369:56,1,138.733046995595,2|2,2:0|3:2,2:0:0:0:
257,28,79214,6,0,L|303:20,2,46.1761495540875,6|2|10,3:2|2:0|2:0,2:0:0:0:
197,85,79552,2,0,L|49:62,1,138.733046995596,2|2,2:0|3:2,2:0:0:0:
18,205,80116,6,0,P|90:164|133:179,1,92.3522991081748,6|10,3:2|2:0,2:0:0:0:
120,177,80455,1,10,2:0:0:0:
204,237,80567,2,0,P|249:241|289:219,1,92.3522991081748,6|8,3:2|2:0,2:0:0:0:
383,135,81019,5,10,2:0:0:0:
503,179,81244,1,10,2:0:0:0:
468,44,81470,1,10,2:0:0:0:
356,141,81695,5,2,3:2:0:0:
147,272,82710,5,0,3:0:0:0:
147,272,82823,2,0,B|117:249|117:249|48:258,2,106.56035,10|10|10,2:0|2:0|2:0,2:0:0:0:
253,214,83725,2,0,P|247:286|251:364,2,142.080466666666,2|2|2,3:2|3:2|3:2,2:0:0:0:
317,71,85079,1,10,2:0:0:0:
317,71,85304,6,0,B|212:65|270:121|137:114,1,170.496554799805,6|10,3:2|2:0,2:0:0:0:
283,254,85981,2,0,P|286:212|308:176,1,85.2482773999024,10|10,2:0|2:0,2:0:0:0:
459,117,86432,5,14,2:0:0:0:
