osu file format v14

[General]
AudioFilename: audio.mp3
AudioLeadIn: 0
PreviewTime: 50341
Countdown: 0
SampleSet: Soft
StackLeniency: 0.3
Mode: 0
LetterboxInBreaks: 0
WidescreenStoryboard: 1
SamplesMatchPlaybackRate: 1

[Editor]
DistanceSpacing: 1.3
BeatDivisor: 2
GridSize: 8
TimelineZoom: 3.199999

[Metadata]
Title:Seishun Seminar (TV Size)
TitleUnicode:セイシュンゼミナール (TV Size)
Artist:Study
ArtistUnicode:Study
Creator:realy0_
Version:Atalanta's Sensei
Source:ぼくたちは勉強ができない
Tags:Atalanta Toshino Kyoko can't study bokutachi wa benkyou ga dekinai bokuben we cant never learn 古橋文乃 furuhashi fumino 白石晴香 shiraishi haruka 緒方理珠 ogata rizu 富田美憂 tomita miyu 武元うるか takemoto uruka 鈴代紗弓 suzushiro sayumi anime japanese
BeatmapID:2177011
BeatmapSetID:1012167

[Difficulty]
HPDrainRate:6
CircleSize:4
OverallDifficulty:8.8
ApproachRate:9.2
SliderMultiplier:3
SliderTickRate:1

[Events]
//Background and Video events
0,0,"cropped-1920-1200-1000048.jpg",0,0
Video,50,"bokuben op.mp4"
//Break Periods
//Storyboard Layer 0 (Background)
//Storyboard Layer 1 (Fail)
//Storyboard Layer 2 (Pass)
//Storyboard Layer 3 (Foreground)
//Storyboard Layer 4 (Overlay)
//Storyboard Sound Samples

[TimingPoints]
2230,545.454545454546,4,2,14,50,1,0
2230,-250,4,2,14,50,0,0
2502,-250,4,2,5,25,0,0
2775,-250,4,2,10,40,0,0
3047,-250,4,2,8,25,0,0
3320,-250,4,2,11,50,0,0
3730,-250,4,2,12,45,0,0
4139,-250,4,2,10,40,0,0
4411,-250,4,2,14,50,0,0
4683,-250,4,2,5,25,0,0
4957,-250,4,2,10,40,0,0
5229,-250,4,2,8,25,0,0
5502,-250,4,2,11,50,0,0
5911,-250,4,2,12,45,0,0
6320,-250,4,2,16,55,0,0
6593,-250,4,2,12,60,0,0
6866,-250,4,2,8,30,0,0
7139,-250,4,2,9,35,0,0
7411,-250,4,2,8,30,0,0
7547,-250,4,2,1,50,0,0
7684,-250,4,2,10,55,0,0
7956,-250,4,2,9,40,0,0
8230,-250,4,2,8,30,0,0
8502,-250,4,2,4,25,0,0
8775,-250,4,2,14,60,0,0
9047,-250,4,2,4,40,0,0
9320,-250,4,2,5,40,0,0
9592,-250,4,2,4,40,0,0
9866,-250,4,2,12,50,0,0
10411,-250,4,2,8,40,0,0
10684,-250,4,2,12,45,0,0
10957,-250,4,2,12,50,0,0
11229,-250,4,2,8,25,0,0
11366,-250,4,2,8,30,0,0
11775,-250,4,2,12,45,0,0
12048,-250,4,2,12,40,0,0
12320,-250,4,2,10,30,0,0
12456,-250,4,2,12,30,0,0
12593,-250,4,2,16,30,0,0
12865,-250,4,2,18,40,0,0
13139,-250,4,2,14,55,0,0
13684,-250,4,2,14,50,0,0
14229,-250,4,2,17,55,0,0
14502,-250,4,2,11,30,0,0
14775,-250,4,2,19,60,0,0
15047,-250,4,2,5,30,0,0
15320,555.555555555556,4,2,20,60,1,0
15597,566.037735849057,4,2,20,40,1,8
15880,576.923076923077,4,2,20,40,1,8
16168,588.235294117647,4,2,20,40,1,8
16462,600,4,2,20,40,1,8
16762,612.244897959184,4,2,20,40,1,8
17068,625,4,2,20,40,1,8
17380,638.297872340426,4,2,20,40,1,8
17752,652.173913043478,4,2,20,40,1,0
20117,451.127819548872,4,2,20,40,1,8
20342,-100,4,2,1,40,0,8
20568,451.127819548872,4,2,1,65,1,0
36808,-166.666666666667,4,2,1,55,0,0
44026,-100,4,2,1,65,0,0
45831,-100,4,2,1,70,0,0
47635,-100,4,2,1,75,0,0
50342,-166.666666666667,4,2,1,65,0,0
51244,-83.3333333333333,4,2,48,85,0,1
51469,-83.3333333333333,4,2,1,85,0,1
53049,-83.3333333333333,4,2,49,85,0,1
53274,-83.3333333333333,4,2,1,85,0,1
54853,-83.3333333333333,4,2,50,85,0,1
54965,-83.3333333333333,4,2,1,85,0,1
56658,-83.3333333333333,4,2,48,85,0,1
56770,-83.3333333333333,4,2,1,85,0,1
58462,-83.3333333333333,4,2,50,85,0,1
58687,-83.3333333333333,4,2,1,85,0,1
59364,-83.3333333333333,4,2,49,85,0,1
59589,-83.3333333333333,4,2,1,85,0,1
60267,-83.3333333333333,4,2,48,85,0,1
60492,-83.3333333333333,4,2,1,85,0,1
61169,-83.3333333333333,4,2,47,85,0,1
61394,-83.3333333333333,4,2,1,85,0,1
62071,-83.3333333333333,4,2,46,85,0,1
62184,-83.3333333333333,4,2,1,85,0,1
62974,-83.3333333333333,4,2,48,85,0,1
63086,-83.3333333333333,4,2,1,85,0,1
63876,-83.3333333333333,4,2,50,85,0,1
63988,-83.3333333333333,4,2,1,85,0,1
64778,-83.3333333333333,4,2,52,85,0,1
64891,-83.3333333333333,4,2,1,85,0,1
65680,-83.3333333333333,4,2,48,85,0,1
65905,-83.3333333333333,4,2,1,85,0,1
67485,-83.3333333333333,4,2,49,85,0,1
67710,-83.3333333333333,4,2,1,85,0,1
69289,-83.3333333333333,4,2,50,85,0,1
69401,-83.3333333333333,4,2,1,85,0,1
71094,-83.3333333333333,4,2,47,85,0,1
71206,-83.3333333333333,4,2,1,85,0,1
72898,-83.3333333333333,4,2,53,85,0,1
73123,-83.3333333333333,4,2,1,85,0,1
73801,-83.3333333333333,4,2,52,85,0,1
74026,-83.3333333333333,4,2,1,85,0,1
74703,-83.3333333333333,4,2,54,85,0,1
74928,-83.3333333333333,4,2,1,85,0,1
75605,-83.3333333333333,4,2,53,85,0,1
75830,-83.3333333333333,4,2,1,85,0,1
76507,-83.3333333333333,4,2,46,85,0,1
76619,-83.3333333333333,4,2,1,85,0,1
77410,-83.3333333333333,4,2,48,85,0,1
77522,-83.3333333333333,4,2,1,85,0,1
78312,-83.3333333333333,4,2,50,85,0,1
78424,-83.3333333333333,4,2,1,85,0,1
79214,-83.3333333333333,4,2,52,85,0,1
79326,-83.3333333333333,4,2,1,85,0,1
80116,-83.3333333333333,4,2,50,85,0,1
80454,-83.3333333333333,4,2,1,85,0,1
80567,-83.3333333333333,4,2,52,85,0,1
80905,-83.3333333333333,4,2,1,85,0,1
81695,-83.3333333333333,4,2,1,75,0,0
82710,-125,4,2,1,75,0,0
82766,-125,4,2,1,65,0,0
82823,-125,4,2,1,75,0,0
83048,-125,4,2,1,65,0,0
83161,-125,4,2,1,75,0,0
83386,-125,4,2,1,65,0,0
83500,-125,4,2,1,75,0,0
83725,-166.666666666667,4,2,1,75,0,0
85191,-166.666666666667,4,2,1,65,0,0
85304,-100,4,2,1,75,0,0
85642,-100,4,2,1,65,0,0
85755,-100,4,2,1,75,0,0
85867,-100,4,2,1,65,0,0
85981,-100,4,2,1,75,0,0
86093,-100,4,2,1,65,0,0
86207,-100,4,2,1,75,0,0
86319,-100,4,2,1,65,0,0
86432,-166.666666666667,4,2,1,85,0,0
86883,-166.666666666667,4,2,1,5,0,0

[Colours]
Combo1 : 255,128,128
Combo2 : 170,170,255
Combo3 : 160,231,254
Combo4 : 254,175,235

[HitObjects]
25,239,2230,6,0,P|50:224|79:220,1,60.1000000000002,2|0,2:0|2:0,2:0:0:0:
130,306,2775,2,0,P|159:305|187:316,1,60.1000000000002,0|0,2:0|2:0,2:0:0:0:
256,376,3320,1,2,2:0:0:0:
376,344,3730,1,2,2:0:0:0:
408,224,4139,1,2,2:0:0:0:
288,296,4411,6,0,P|286:325|289:355,1,60.1000000000002,2|0,2:0|2:0,2:0:0:0:
200,256,4957,2,0,P|198:226|201:196,1,60.1000000000002,0|0,2:0|2:0,2:0:0:0:
144,120,5502,1,2,2:0:0:0:
24,160,5911,1,2,2:0:0:0:
50,37,6320,1,2,2:0:0:0:
144,120,6593,5,2,2:0:0:0:
195,59,6866,1,0,2:0:0:0:
272,71,7139,1,0,2:0:0:0:
340,41,7411,2,0,L|342:11,1,30.16,2|0,2:0|2:0,2:0:0:0:
272,71,7684,2,0,P|282:100|286:130,1,60.1000000000002,2|0,2:0|2:0,2:0:0:0:
230,209,8230,1,0,2:0:0:0:
230,209,8502,1,0,2:0:0:0:
306,271,8775,6,0,P|332:256|361:250,1,60.1000000000002,2|0,2:0|2:0,2:0:0:0:
422,321,9320,2,0,P|451:321|480:330,1,60.1000000000002,0|0,2:0|2:0,2:0:0:0:
317,378,9866,2,0,P|266:346|207:344,1,120.2,2|0,2:0|2:0,2:0:0:0:
136,382,10684,1,0,2:0:0:0:
27,316,10957,6,0,P|18:287|18:257,1,60.1000000000002,2|0,2:0|2:0,2:0:0:0:
35,237,11366,2,0,P|54:196|53:151,1,90.0400000000002,0|2,2:0|2:0,2:0:0:0:
111,97,12048,1,2,2:0:0:0:
76,27,12320,2,0,L|46:22,1,30.16,0|0,2:0|2:0,2:0:0:0:
110,97,12593,2,0,P|136:82|166:77,1,60.1000000000002,0|2,2:0|2:0,2:0:0:0:
291,130,13139,6,0,P|258:82|276:27,2,120.09,2|2|2,2:0|2:0|2:0,2:0:0:0:
368,137,14502,1,0,2:0:0:0:
435,93,14775,2,0,P|442:63|438:34,1,60.1000000000002,2|0,2:0|2:0,2:0:0:0:
362,122,15320,5,2,2:0:0:0:
256,192,15458,12,2,17752,2:0:0:0:
80,256,20342,5,0,3:2:0:0:
72,272,20455,1,0,3:2:0:0:
104,344,20568,5,8,2:0:0:0:
175,312,20680,2,0,P|191:239|162:171,1,150.085,8|8,2:0|2:0,2:0:0:0:
80,128,21019,1,8,2:0:0:0:
144,87,21131,2,0,P|181:87|214:103,1,75.375,8|0,2:0|2:0,2:0:0:0:
320,32,21357,1,8,2:0:0:0:
384,72,21470,6,0,P|421:72|454:56,1,75.375,8|0,2:0|2:0,2:0:0:0:
296,240,21695,2,0,P|277:207|247:186,1,75.375,8|0,2:0|2:0,2:0:0:0:
485,232,21921,2,0,P|465:263|462:300,1,75.375,8|0,2:0|2:0,2:0:0:0:
184,344,22146,1,8,2:0:0:0:
210,275,22259,1,8,2:0:0:0:
290,265,22372,6,0,B|302:300|302:300|290:336,1,75.375,6|0,3:2|2:0,2:0:0:0:
168,200,22598,2,0,L|20:171,1,150.085,8|0,2:0|3:2,2:0:0:0:
40,272,22936,1,0,2:0:0:0:
56,288,23049,2,0,L|129:275,1,75.375,10|0,2:0|2:0,2:0:0:0:
248,168,23274,6,0,B|216:97|280:97|255:23,1,150.085,2|8,3:2|2:0,2:0:0:0:
106,27,23613,2,0,P|138:46|175:54,1,75.375,2|0,3:2|2:0,2:0:0:0:
323,136,23838,1,0,3:2:0:0:
329,128,23951,2,0,P|361:108|397:101,1,75.375,10|0,2:0|2:0,2:0:0:0:
436,295,24177,6,0,P|390:236|319:222,1,150.085,2|8,3:2|2:0,2:0:0:0:
319,376,24515,1,2,2:0:0:0:
336,379,24628,2,0,B|354:341|354:341|346:308,1,75.375,0|0,3:2|2:0,2:0:0:0:
238,272,24853,2,0,B|234:230|234:230|212:205,1,75.375,10|0,2:0|2:0,2:0:0:0:
78,371,25079,6,0,P|141:336|144:264,1,150.085,2|8,3:2|2:0,2:0:0:0:
0,137,25417,2,0,P|2:208|65:243,1,150.085,0|0,3:2|3:2,2:0:0:0:
153,138,25755,2,0,P|126:163|89:169,1,75.375,10|0,2:0|2:0,2:0:0:0:
0,48,25981,6,0,L|74:58,1,75.375,6|0,3:2|2:0,2:0:0:0:
240,104,26207,2,0,P|214:39|274:6,1,150.085,8|0,2:0|3:2,2:0:0:0:
384,120,26545,1,0,2:0:0:0:
375,144,26658,2,0,P|342:159|304:156,1,75.375,10|0,2:0|2:0,2:0:0:0:
240,264,26883,6,0,L|225:190,1,75.375,2|0,3:2|2:0,2:0:0:0:
402,223,27109,1,8,2:0:0:0:
413,236,27222,2,0,L|390:384,1,150.085,0|0,3:2|3:2,2:0:0:0:
305,378,27560,2,0,P|306:340|315:304,1,75.375,10|0,2:0|2:0,2:0:0:0:
93,274,27786,6,0,P|78:202|14:170,1,150.085,2|8,3:2|2:0,2:0:0:0:
3,279,28124,1,2,2:0:0:0:
30,346,28237,2,0,P|102:360|169:329,1,150.085,2|10,3:2|2:0,2:0:0:0:
256,160,28575,1,2,2:0:0:0:
171,241,28688,6,0,P|168:204|176:168,1,75.375,2|8,3:2|2:0,2:0:0:0:
32,72,28913,2,0,P|39:108|36:145,1,75.375,10|0,2:0|3:2,2:0:0:0:
192,64,29139,1,10,2:0:0:0:
264,88,29252,1,8,2:0:0:0:
328,48,29364,1,0,3:2:0:0:
384,104,29477,1,0,3:2:0:0:
456,80,29590,6,0,L|463:5,1,75.375,6|0,3:2|2:0,2:0:0:0:
331,162,29816,1,8,2:0:0:0:
360,184,29928,2,0,L|367:258,1,75.375,0|0,2:0|3:2,2:0:0:0:
217,307,30154,1,0,2:0:0:0:
215,280,30267,2,0,P|241:252|276:243,1,75.375,10|0,2:0|2:0,2:0:0:0:
364,376,30492,5,2,3:2:0:0:
368,360,30605,2,0,P|342:332|307:323,1,75.375,0|8,2:0|2:0,2:0:0:0:
157,369,30831,1,2,3:2:0:0:
160,360,30943,2,0,B|128:344|128:344|88:344,1,75.375,0|0,2:0|3:2,2:0:0:0:
0,184,31169,2,0,B|32:168|32:168|71:168,1,75.375,10|0,2:0|2:0,2:0:0:0:
215,280,31395,6,0,B|191:256|191:256|210:141,1,150.085,2|8,3:2|2:0,2:0:0:0:
128,96,31733,1,2,2:0:0:0:
120,80,31846,2,0,L|112:5,1,75.375,0|0,3:2|2:0,2:0:0:0:
240,64,32071,2,0,L|232:139,1,75.375,10|0,2:0|2:0,2:0:0:0:
376,24,32297,6,0,P|441:56|507:27,1,150.085,2|8,3:2|2:0,2:0:0:0:
424,88,32635,1,0,3:2:0:0:
351,100,32748,5,0,2:0:0:0:
366,137,32861,1,0,3:2:0:0:
401,157,32974,1,10,2:0:0:0:
437,159,33086,1,0,2:0:0:0:
496,202,33199,6,0,P|485:237|466:270,1,75.375,6|0,3:2|2:0,2:0:0:0:
303,368,33425,2,0,P|369:335|439:358,1,150.085,8|0,2:0|3:2,2:0:0:0:
320,256,33763,1,0,2:0:0:0:
304,248,33876,2,0,L|230:262,1,75.375,10|0,2:0|2:0,2:0:0:0:
152,336,34101,6,0,L|78:321,1,75.375,2|0,3:2|2:0,2:0:0:0:
136,112,34327,1,8,2:0:0:0:
151,111,34440,2,0,P|168:183|140:251,1,150.085,0|0,3:2|3:2,2:0:0:0:
16,224,34778,2,0,P|38:194|73:183,1,75.375,10|0,2:0|2:0,2:0:0:0:
167,15,35004,6,0,P|231:55|303:71,1,150.085,2|8,3:2|2:0,2:0:0:0:
440,16,35342,1,2,2:0:0:0:
448,96,35455,2,0,P|384:135|312:151,1,150.085,2|10,3:2|2:0,2:0:0:0:
136,184,35793,1,2,2:0:0:0:
208,215,35906,6,0,P|226:182|231:145,1,75.375,2|0,3:2|2:0,2:0:0:0:
416,288,36131,2,0,P|421:324|439:357,1,75.375,10|0,2:0|3:2,2:0:0:0:
227,362,36357,1,10,2:0:0:0:
243,290,36470,1,8,2:0:0:0:
315,282,36583,1,0,3:2:0:0:
339,210,36695,1,0,3:2:0:0:
283,154,36808,6,0,L|150:178,2,135.076495880127,6|0|0,3:2|3:0|3:2,2:0:0:0:
150,178,37710,1,10,2:0:0:0:
101,232,37823,2,0,L|13:212,1,90.0509972534181,2|2,3:2|3:2,2:0:0:0:
101,232,38161,1,10,2:0:0:0:
19,383,38387,1,10,2:0:0:0:
191,376,38613,6,0,P|207:311|177:252,2,135.076495880127,2|0|0,3:2|3:2|3:2,2:0:0:0:
177,252,39515,1,10,2:0:0:0:
235,198,39628,2,0,P|279:195|322:209,1,90.0509972534181,10|2,2:0|3:2,2:0:0:0:
235,198,39966,1,10,2:0:0:0:
312,320,40192,1,2,3:2:0:0:
440,248,40417,6,0,P|448:203|443:159,1,90.0509972534181,2|0,3:2|3:2,2:0:0:0:
368,144,40755,1,0,2:0:0:0:
360,136,40868,2,0,P|345:93|318:57,1,90.0509972534181,2|0,3:2|2:0,2:0:0:0:
245,81,41207,1,0,3:2:0:0:
234,79,41319,2,0,P|200:49|159:31,1,90.0509972534181,10|0,2:0|3:2,2:0:0:0:
8,152,41771,2,0,B|48:128|48:128|90:138,1,90.0509972534181,10|8,2:0|2:0,2:0:0:0:
144,192,42109,1,8,2:0:0:0:
152,207,42222,6,0,P|149:252|143:297,1,90.0509972534181,2|0,3:2|3:2,2:0:0:0:
168,288,42560,2,0,P|170:332|176:377,1,90.0509972534181,0|0,3:2|2:0,2:0:0:0:
256,320,42898,1,2,3:2:0:0:
272,304,43011,1,2,2:0:0:0:
295,303,43124,2,0,P|306:323|312:345,1,45.224998626709,2|0,3:2|3:2,2:0:0:0:
496,214,43349,2,0,P|490:236|480:256,1,45.224998626709,0|0,3:2|3:2,2:0:0:0:
408,384,43575,5,8,2:0:0:0:
400,371,43650,1,8,2:0:0:0:
395,357,43725,1,8,2:0:0:0:
391,342,43801,1,8,2:0:0:0:
390,327,43876,1,8,2:0:0:0:
392,312,43951,1,8,2:0:0:0:
395,298,44026,6,0,B|419:242|387:194|387:194|346:199,1,150.085,6|0,3:2|3:2,2:0:0:0:
248,240,44364,1,10,2:0:0:0:
375,162,44477,2,0,L|304:184,1,75.375,0|0,3:2|2:0,2:0:0:0:
208,64,44703,2,0,L|279:85,1,75.375,10|0,2:0|2:0,2:0:0:0:
92,180,44928,5,10,2:0:0:0:
160,216,45041,2,0,B|176:184|176:184|165:146,1,75.375,10|0,2:0|3:2,2:0:0:0:
262,340,45267,1,10,2:0:0:0:
194,376,45380,2,0,B|178:344|178:344|188:306,1,75.375,0|0,3:2|3:2,2:0:0:0:
29,303,45605,2,0,P|64:291|101:288,1,75.375,10|0,2:0|2:0,2:0:0:0:
8,96,45831,6,0,P|70:134|144:128,1,150.085,10|0,2:0|3:2,2:0:0:0:
202,74,46169,1,10,2:0:0:0:
95,166,46282,2,0,P|132:164|165:146,1,75.375,0|8,3:2|2:0,2:0:0:0:
290,5,46507,2,0,P|285:42|285:79,1,75.375,10|0,2:0|2:0,2:0:0:0:
404,197,46733,5,10,2:0:0:0:
430,129,46846,2,0,P|394:117|357:113,1,75.375,10|0,2:0|3:2,2:0:0:0:
288,318,47071,1,10,2:0:0:0:
262,250,47184,2,0,P|297:238|334:234,1,75.375,0|0,3:2|3:2,2:0:0:0:
415,354,47410,2,0,B|400:325|400:325|404:282,1,75.375,10|0,2:0|3:2,2:0:0:0:
181,307,47635,6,0,P|125:218|26:251,1,225.46,6|0,3:2|2:0,2:0:0:0:
83,370,48086,2,0,P|98:337|97:299,1,75.375,0|0,3:2|2:0,2:0:0:0:
16,152,48312,2,0,L|8:102,2,50.25,0|0|0,3:2|2:0|2:0,2:0:0:0:
88,192,48537,5,8,2:0:0:0:
92,189,48613,1,8,2:0:0:0:
101,186,48688,1,8,2:0:0:0:
115,184,48763,1,8,2:0:0:0:
135,186,48838,1,8,2:0:0:0:
157,196,48913,1,8,2:0:0:0:
177,217,48989,1,8,2:0:0:0:
210,226,49064,1,8,2:0:0:0:
249,220,49139,1,8,2:0:0:0:
283,189,49214,1,8,2:0:0:0:
293,140,49289,1,8,2:0:0:0:
276,87,49364,1,8,2:0:0:0:
220,65,49440,5,2,3:2:0:0:
220,65,50342,6,0,L|197:68,2,14.9999995422363,2|0|2,2:0|2:0|2:0,2:0:0:0:
220,65,51019,5,2,2:0:0:0:
215,145,51131,1,2,2:0:0:0:
240,56,51244,6,0,B|304:16|368:56|368:56|352:97,1,180.101994506836,6|8,3:2|2:0,2:0:0:0:
416,224,51583,1,8,2:0:0:0:
472,176,51695,2,0,P|467:131|448:90,1,90.4499972534181,2|0,3:2|2:0,2:0:0:0:
304,184,51921,2,0,P|285:224|280:269,1,90.4499972534181,8|0,2:0|2:0,2:0:0:0:
495,375,52146,6,0,P|432:316|346:326,1,180.101994506836,2|10,3:2|2:0,2:0:0:0:
200,384,52485,2,0,B|216:336|216:336|198:300,1,90.4499972534181,2|0,3:2|2:0,2:0:0:0:
109,205,52710,1,2,3:2:0:0:
40,240,52823,2,0,B|22:275|22:275|38:323,1,90.4499972534181,10|0,2:0|2:0,2:0:0:0:
240,144,53049,6,0,B|272:168|272:168|410:148,1,180.101994506836,2|8,3:2|2:0,2:0:0:0:
336,0,53387,1,8,2:0:0:0:
319,0,53500,2,0,P|299:39|297:84,1,90.4499972534181,2|0,3:2|2:0,2:0:0:0:
145,152,53725,6,0,P|78:202|17:146,1,180.101994506836,10|0,2:0|3:2,2:0:0:0:
184,65,54064,1,0,2:0:0:0:
204,67,54177,2,0,P|224:106|226:151,1,90.4499972534181,10|0,2:0|3:2,2:0:0:0:
40,288,54402,2,0,P|63:250|101:226,1,90.4499972534181,2|0,2:0|3:2,2:0:0:0:
313,319,54628,2,0,P|268:317|229:296,1,90.4499972534181,10|0,2:0|2:0,2:0:0:0:
384,160,54853,6,0,B|401:204|401:204|389:245,1,90.4499972534181,0|0,3:2|2:0,2:0:0:0:
132,144,55079,2,0,L|42:134,1,90.4499972534181,10|8,2:0|2:0,2:0:0:0:
0,240,55304,2,0,L|89:230,1,90.4499972534181,2|0,3:2|2:0,2:0:0:0:
168,48,55530,2,0,L|257:38,1,90.4499972534181,10|0,2:0|2:0,2:0:0:0:
300,141,55755,6,0,L|121:121,1,180.101994506836,2|10,3:2|2:0,2:0:0:0:
160,304,56094,2,0,P|181:264|182:220,1,90.4499972534181,2|0,3:2|2:0,2:0:0:0:
88,48,56319,1,2,3:2:0:0:
40,104,56432,2,0,P|41:148|62:187,1,90.4499972534181,10|0,2:0|2:0,2:0:0:0:
0,360,56658,6,0,L|88:344,1,90.4499972534181,2|0,3:2|2:0,2:0:0:0:
261,260,56883,2,0,P|226:233|184:220,1,90.4499972534181,8|0,2:0|2:0,2:0:0:0:
104,352,57109,2,0,P|139:324|181:311,1,90.4499972534181,2|0,3:2|2:0,2:0:0:0:
368,360,57334,2,0,P|374:315|364:272,1,90.4499972534181,8|0,2:0|2:0,2:0:0:0:
416,88,57560,6,0,P|457:104|490:135,1,90.4499972534181,2|0,3:2|2:0,2:0:0:0:
280,368,57786,2,0,L|272:278,1,90.4499972534181,8|0,2:0|3:2,2:0:0:0:
176,112,58011,1,2,3:2:0:0:
112,72,58124,1,0,3:2:0:0:
40,96,58237,1,10,2:0:0:0:
16,168,58349,1,8,2:0:0:0:
64,232,58462,6,0,B|136:176|192:200|192:200|169:234,1,180.101994506836,6|8,3:2|2:0,2:0:0:0:
88,368,58801,1,8,2:0:0:0:
16,384,58913,2,0,P|0:342|6:298,1,90.4499972534181,2|0,3:2|2:0,2:0:0:0:
229,293,59139,2,0,P|188:309|160:344,1,90.4499972534181,8|0,2:0|2:0,2:0:0:0:
192,88,59364,6,0,P|272:126|361:127,1,180.101994506836,2|8,3:2|2:0,2:0:0:0:
480,8,59703,1,0,3:2:0:0:
424,56,59816,2,0,P|379:47|338:29,1,90.4499972534181,2|0,2:0|3:2,2:0:0:0:
424,184,60041,2,0,P|468:175|509:157,1,90.4499972534181,8|0,2:0|2:0,2:0:0:0:
336,384,60267,6,0,B|368:336|368:336|341:216,1,180.101994506836,2|10,3:2|2:0,2:0:0:0:
256,136,60605,2,0,L|263:46,1,90.4499972534181,2|0,2:0|3:2,2:0:0:0:
144,160,60831,1,2,2:0:0:0:
136,176,60943,2,0,L|143:265,1,90.4499972534181,10|0,2:0|2:0,2:0:0:0:
15,39,61169,6,0,P|93:80|174:47,1,180.101994506836,2|8,3:2|2:0,2:0:0:0:
48,160,61507,1,0,3:2:0:0:
38,166,61620,2,0,P|23:208|13:252,1,90.4499972534181,2|0,2:0|3:2,2:0:0:0:
144,288,61846,2,0,P|152:332|166:374,1,90.4499972534181,10|0,2:0|2:0,2:0:0:0:
320,256,62071,5,6,3:2:0:0:
248,224,62184,1,0,2:0:0:0:
328,240,62297,2,0,L|415:218,1,90.4499972534181,12|0,2:0|2:0,2:0:0:0:
96,104,62522,1,2,3:2:0:0:
176,88,62635,2,0,L|263:109,1,90.4499972534181,8|2,2:0|3:2,2:0:0:0:
216,296,62861,1,8,2:0:0:0:
144,280,62974,6,0,B|128:240|128:240|139:194,1,90.4499972534181,6|0,3:2|2:0,2:0:0:0:
0,384,63199,2,0,B|16:344|16:344|4:298,1,90.4499972534181,12|0,2:0|2:0,2:0:0:0:
256,368,63425,5,2,3:2:0:0:
304,304,63537,1,8,2:0:0:0:
376,336,63650,2,0,P|416:356|460:362,1,90.4499972534181,10|0,2:0|3:2,2:0:0:0:
384,176,63876,6,0,B|362:202|362:202|372:257,1,90.4499972534181,6|0,3:2|2:0,2:0:0:0:
176,344,64101,1,10,2:0:0:0:
104,320,64214,1,2,2:0:0:0:
112,240,64327,2,0,P|116:196|106:152,1,90.4499972534181,0|2,3:2|3:2,2:0:0:0:
272,16,64552,2,0,P|262:59|266:104,1,90.4499972534181,10|0,2:0|2:0,2:0:0:0:
16,96,64778,5,6,3:2:0:0:
64,40,64891,2,8,L|71:-4,2,45.224998626709,8|8|8,2:0|2:0|2:0,2:0:0:0:
120,136,65116,5,8,2:0:0:0:
176,80,65229,1,0,3:2:0:0:
248,112,65342,1,0,3:2:0:0:
312,72,65455,1,0,3:2:0:0:
376,112,65567,1,0,3:2:0:0:
359,184,65680,6,0,B|336:224|344:264|344:264|392:280|398:338,1,180.101994506836,6|8,3:2|2:0,2:0:0:0:
184,304,66019,1,8,2:0:0:0:
235,361,66131,2,0,P|278:369|317:347,1,90.4499972534181,2|0,3:2|2:0,2:0:0:0:
511,253,66357,2,0,P|476:224|432:224,1,90.4499972534181,8|0,2:0|2:0,2:0:0:0:
242,224,66583,6,0,P|280:147|246:67,1,180.101994506836,2|10,3:2|2:0,2:0:0:0:
156,26,66921,2,0,P|116:45|72:44,1,90.4499972534181,2|0,3:2|2:0,2:0:0:0:
0,128,67146,1,2,3:2:0:0:
0,200,67259,2,0,P|38:222|82:225,1,90.4499972534181,10|0,2:0|2:0,2:0:0:0:
272,91,67485,6,0,B|202:103|202:103|190:130|190:130|112:144,1,180.101994506836,2|8,3:2|2:0,2:0:0:0:
208,304,67823,1,8,2:0:0:0:
224,304,67936,2,0,P|232:260|221:216,1,90.4499972534181,2|0,3:2|2:0,2:0:0:0:
0,343,68161,6,0,P|80:315|143:374,1,180.101994506836,10|0,2:0|3:2,2:0:0:0:
272,368,68500,1,0,2:0:0:0:
288,360,68613,2,0,P|325:383|369:381,1,90.4499972534181,10|0,2:0|3:2,2:0:0:0:
376,176,68838,2,0,P|336:196|316:236,1,90.4499972534181,0|0,2:0|3:2,2:0:0:0:
491,344,69064,2,0,P|492:299|468:262,1,90.4499972534181,10|0,2:0|2:0,2:0:0:0:
512,92,69289,6,0,B|472:121|472:121|432:113,1,90.4499972534181,0|0,3:2|2:0,2:0:0:0:
272,24,69515,2,0,P|288:65|295:110,1,90.4499972534181,10|8,2:0|2:0,2:0:0:0:
224,168,69740,2,0,P|217:212|201:254,1,90.4499972534181,2|0,3:2|2:0,2:0:0:0:
48,144,69966,2,0,P|31:102|24:57,1,90.4499972534181,10|0,2:0|2:0,2:0:0:0:
95,0,70192,6,0,P|156:60|136:143,1,180.101994506836,2|10,3:2|2:0,2:0:0:0:
32,248,70530,2,0,B|72:224|72:224|114:234,1,90.4499972534181,2|0,3:2|2:0,2:0:0:0:
176,336,70755,1,2,3:2:0:0:
184,352,70868,2,0,B|224:376|224:376|266:365,1,90.4499972534181,10|0,2:0|2:0,2:0:0:0:
328,208,71094,6,0,P|297:238|307:280,1,90.4499972534181,2|0,3:2|2:0,2:0:0:0:
416,368,71319,2,0,P|425:325|395:295,1,90.4499972534181,8|0,2:0|2:0,2:0:0:0:
136,256,71545,2,0,P|180:254|212:224,1,90.4499972534181,2|0,3:2|2:0,2:0:0:0:
400,120,71771,2,0,P|367:90|323:88,1,90.4499972534181,8|0,2:0|2:0,2:0:0:0:
216,336,71996,5,2,3:2:0:0:
288,328,72109,1,8,2:0:0:0:
320,264,72222,2,0,P|298:224|287:181,1,90.4499972534181,8|8,2:0|2:0,2:0:0:0:
64,96,72447,2,0,P|85:56|96:13,1,90.4499972534181,2|0,3:2|3:2,2:0:0:0:
286,19,72673,1,10,2:0:0:0:
323,88,72786,1,8,2:0:0:0:
296,160,72898,6,0,B|209:199|209:127|121:164,1,180.101994506836,6|8,3:2|2:0,2:0:0:0:
62,316,73237,1,8,2:0:0:0:
140,322,73349,2,0,P|165:287|165:242,1,90.4499972534181,2|0,3:2|2:0,2:0:0:0:
9,165,73575,2,0,P|32:202|27:247,1,90.4499972534181,8|0,2:0|2:0,2:0:0:0:
264,256,73801,6,0,P|344:296|432:313,1,180.101994506836,2|8,3:2|2:0,2:0:0:0:
424,128,74139,1,0,3:2:0:0:
368,184,74252,2,0,B|352:224|352:224|357:270,1,90.4499972534181,2|0,2:0|3:2,2:0:0:0:
512,208,74477,2,0,B|517:161|517:161|501:121,1,90.4499972534181,8|0,2:0|2:0,2:0:0:0:
296,344,74703,6,0,L|118:314,1,180.101994506836,2|10,3:2|2:0,2:0:0:0:
40,360,75041,2,0,L|127:339,1,90.4499972534181,2|0,2:0|3:2,2:0:0:0:
240,248,75267,1,2,2:0:0:0:
264,232,75380,2,0,L|351:252,1,90.4499972534181,10|0,2:0|2:0,2:0:0:0:
159,120,75605,6,0,P|138:38|54:35,1,180.101994506836,2|8,3:2|2:0,2:0:0:0:
64,136,75943,2,0,P|85:174|84:219,1,90.4499972534181,0|0,3:0|2:0,2:0:0:0:
168,280,76169,1,0,3:0:0:0:
184,296,76282,2,0,P|183:340|160:378,1,90.4499972534181,10|0,2:0|2:0,2:0:0:0:
0,312,76507,6,0,L|88:293,1,90.4499972534181,6|0,3:2|2:0,2:0:0:0:
167,144,76733,1,10,2:0:0:0:
239,120,76846,1,2,2:0:0:0:
159,120,76958,2,0,L|70:101,1,90.4499972534181,0|8,3:0|2:0,2:0:0:0:
296,0,77184,2,0,P|311:41|313:86,1,90.4499972534181,2|8,3:2|2:0,2:0:0:0:
432,240,77410,6,0,P|434:195|449:153,1,90.4499972534181,6|0,3:2|2:0,2:0:0:0:
288,280,77635,1,10,2:0:0:0:
264,208,77748,1,2,2:0:0:0:
312,272,77861,2,0,P|327:313|329:358,1,90.4499972534181,0|8,3:0|2:0,2:0:0:0:
56,384,78086,1,2,3:2:0:0:
96,320,78199,1,0,3:0:0:0:
168,352,78312,6,0,B|216:368|216:368|251:350,1,90.4499972534181,6|0,3:2|2:0,2:0:0:0:
184,168,78537,1,10,2:0:0:0:
112,200,78650,2,0,B|64:216|64:216|28:198,1,90.4499972534181,2|0,2:0|3:0,2:0:0:0:
24,24,78876,1,8,2:0:0:0:
96,32,78989,2,0,P|112:73|114:118,1,90.4499972534181,2|8,3:2|2:0,2:0:0:0:
240,232,79214,6,0,P|223:273|221:318,1,90.4499972534181,6|0,3:2|2:0,2:0:0:0:
480,328,79440,1,10,2:0:0:0:
512,256,79552,1,2,2:0:0:0:
479,183,79665,2,0,P|441:159|398:168,1,90.4499972534181,0|8,3:0|2:0,2:0:0:0:
320,288,79891,2,0,P|363:297|400:273,1,90.4499972534181,2|0,3:2|3:0,2:0:0:0:
176,72,80116,6,0,B|95:153|148:240|148:240|223:205,1,270.551991760254,6|10,3:2|2:0,2:0:0:0:
198,57,80567,6,0,B|127:69|127:69|67:55|67:55|-18:70|-18:70|28:82,1,270.551991760254,6|0,3:2|3:0,2:0:0:0:
222,41,81019,6,0,L|309:62,1,90.4499972534181,10|0,2:0|2:0,2:0:0:0:
142,249,81244,2,0,L|54:270,1,90.4499972534181,10|0,2:0|2:0,2:0:0:0:
334,153,81470,2,0,L|421:174,1,90.4499972534181,10|0,2:0|2:0,2:0:0:0:
328,256,81695,1,2,3:2:0:0:
328,256,82710,6,0,L|323:226,1,30.416,0|0,3:0|3:0,2:0:0:0:
344,264,82823,2,0,L|360:145,1,120.068,10|0,2:0|2:0,2:0:0:0:
264,144,83161,2,0,L|247:25,1,120.068,10|0,2:0|2:0,2:0:0:0:
264,0,83500,1,10,2:0:0:0:
176,184,83725,6,0,B|196:265|196:265|171:358,2,180.101994506836,2|2|2,3:2|3:2|3:2,2:0:0:0:
176,184,84966,5,0,3:2:0:0:
221,119,85079,2,0,L|215:74,1,45.224998626709,10|0,2:0|2:0,2:0:0:0:
256,8,85304,6,0,B|215:114|311:114|263:224,1,225.46,6|0,3:2|2:0,2:0:0:0:
206,292,85755,2,0,P|170:286|142:261,1,75.375,10|0,2:0|2:0,2:0:0:0:
367,183,85981,2,0,P|379:217|372:254,1,75.375,10|0,2:0|2:0,2:0:0:0:
192,99,86207,2,0,P|216:70|252:58,1,75.375,10|0,2:0|2:0,2:0:0:0:
224,376,86432,6,0,P|241:302|299:351,1,180.101994506836,14|0,2:0|2:0,2:0:0:0:
