osu file format v14

[General]
AudioFilename: audio.mp3
AudioLeadIn: 0
PreviewTime: 51020
Countdown: 0
SampleSet: Soft
StackLeniency: 0.8
Mode: 0
LetterboxInBreaks: 0
WidescreenStoryboard: 1

[Editor]
Bookmarks: 71998
DistanceSpacing: 1.2
BeatDivisor: 4
GridSize: 16
TimelineZoom: 2.299999

[Metadata]
Title:Seishun Seminar (TV Size)
TitleUnicode:セイシュンゼミナール (TV Size)
Artist:Study
ArtistUnicode:Study
Creator:Rexyy-
Version:Normal
Source:ぼくたちは勉強ができない
Tags:Anime
BeatmapID:2019682
BeatmapSetID:952849

[Difficulty]
HPDrainRate:3
CircleSize:3.5
OverallDifficulty:4
ApproachRate:5.8
SliderMultiplier:1.2
SliderTickRate:1

[Events]
//Background and Video events
Video,0,"bokuben op.avi"
0,0,"cropped-1920-1080-1000044.jpg",0,0
//Break Periods
//Storyboard Layer 0 (Background)
//Storyboard Layer 1 (Fail)
//Storyboard Layer 2 (Pass)
//Storyboard Layer 3 (Foreground)
//Storyboard Sound Samples

[TimingPoints]
20109,451.127819548872,4,2,1,50,1,0
20109,-100,4,2,1,50,0,0
20560,451.127819548872,4,2,1,62,1,0
20560,-100,4,2,1,62,0,0
22374,451.127819548872,4,2,1,62,1,0
22374,-100,4,2,1,62,0,0
36810,-114.285714285714,4,2,1,38,0,0
43577,-114.285714285714,4,2,1,50,0,0
44028,-100,4,2,1,67,0,0
47637,-100,4,2,1,68,0,0
51246,-86.9565217391304,4,2,1,75,0,1
80118,-83.3333333333333,4,2,1,75,0,1
80569,-83.3333333333333,4,2,1,75,0,1
81697,-83.3333333333333,4,2,1,75,0,0
82712,-83.3333333333333,4,2,1,55,0,0
82825,-83.3333333333333,4,2,1,63,0,0
83727,-83.3333333333333,4,2,1,63,0,0
86434,-83.3333333333333,4,2,1,67,0,0
86546,-76.9230769230769,4,2,1,5,0,0

[Colours]
Combo1 : 236,79,83
Combo2 : 255,140,198
Combo3 : 81,137,255
Combo4 : 91,91,255

[HitObjects]
351,189,20447,6,0,L|329:263,1,60,8|8,3:2|2:2,3:2:0:0:
269,211,20785,2,0,L|251:268,1,60,8|8,3:2|2:2,3:2:0:0:
187,239,21123,2,0,L|165:313,1,60,8|8,3:2|2:2,3:2:0:0:
76,317,21462,5,8,2:2:0:0:
23,267,21687,1,8,2:2:0:0:
82,225,21913,1,8,2:2:0:0:
26,179,22138,1,8,2:2:0:0:
51,107,22374,6,0,B|112:96|112:96|176:110,1,120,6|0,3:2|3:2,0:0:0:0:
277,202,23276,2,0,L|200:272,2,90,0|2|10,3:2|2:2|2:2,0:0:0:0:
325,156,24178,2,0,P|306:115|265:95,2,90,2|2|10,3:2|2:2|2:2,0:0:0:0:
349,224,25080,1,2,3:2:0:0:
456,107,25757,5,10,2:2:0:0:
456,107,25983,2,0,L|313:100,1,120,6|0,3:2|3:2,0:0:0:0:
308,29,26659,1,10,2:2:0:0:
308,29,26885,2,0,P|263:74|250:143,1,120,2|0,3:2|0:0,0:0:0:0:
236,222,27561,5,10,2:2:0:0:
236,222,27787,2,0,L|109:208,1,120,2|2,3:2|3:2,0:0:0:0:
70,143,28689,1,2,3:2:0:0:
70,143,28915,1,8,2:2:0:0:
70,143,29140,2,0,L|137:94,1,60,8|4,3:2|2:3,0:0:0:0:
282,51,29592,6,0,P|265:113|199:159,1,120,6|0,3:2|3:0,0:0:0:0:
175,240,30494,2,0,L|86:244,2,90,2|2|10,3:2|2:2|2:2,0:0:0:0:
224,256,31396,2,0,P|193:296|139:310,2,90,2|2|10,3:2|2:2|2:2,0:0:0:0:
218,207,32298,2,0,L|320:130,1,120,2|0,3:2|3:2,0:0:0:0:
430,99,32975,5,10,2:2:0:0:
430,99,33201,2,0,P|464:147|434:220,1,120,6|0,3:2|3:2,0:0:0:0:
332,166,33877,1,8,0:0:0:0:
332,166,34103,2,0,P|320:223|377:278,1,120,2|0,3:2|3:0,0:0:0:0:
416,384,34780,1,10,2:2:0:0:
416,384,35005,2,0,P|358:353|298:376,1,120,2|2,3:2|3:2,0:0:0:0:
236,330,35682,1,8,2:2:0:0:
153,298,35907,2,0,L|77:338,1,60,8|2,3:2|2:3,0:0:0:0:
59,252,36358,2,0,L|50:136,1,90,2|4,3:2|2:3,0:0:0:0:
57,125,36810,6,0,P|136:58|246:73,1,210.000002002716,6|2,3:2|2:2,0:0:0:0:
368,96,38163,1,8,2:2:0:0:
404,242,38614,2,0,P|325:309|208:291,1,210.000002002716,2|2,3:2|2:2,0:0:0:0:
99,325,39967,1,8,2:2:0:0:
23,222,40419,6,0,P|4:173|21:119,1,105.000001001358,2|10,3:2|2:2,0:0:0:0:
181,103,41321,1,2,3:2:0:0:
272,16,41772,1,10,2:2:0:0:
385,33,42223,2,0,P|398:89|372:143,1,105.000001001358,2|0,3:2|3:0,0:0:0:0:
339,187,42900,1,2,2:2:0:0:
339,187,43125,2,0,L|241:182,1,79.2000024169922,2|0,2:2|0:0,0:0:0:0:
78,105,44028,6,0,P|79:50|99:9,2,90,6|10|10,3:2|2:2|2:2,0:0:0:0:
147,74,44930,2,0,L|268:78,1,120,2|8,3:2|2:2,0:0:0:0:
328,114,45607,1,10,2:2:0:0:
328,114,45832,2,0,P|292:145|238:164,2,90,6|10|10,3:2|2:2|2:2,0:0:0:0:
377,167,46734,2,0,P|336:208|276:230,1,120,4|4,2:3|2:3,0:0:0:0:
223,275,47411,1,8,2:2:0:0:
223,275,47637,5,6,3:2:0:0:
256,192,47749,12,6,49441,3:2:0:0:
97,179,51246,6,0,P|162:161|226:185,1,138.000002632141,6|2,3:2|3:2,0:0:0:0:
318,245,52148,2,2,P|304:178|308:117,2,103.500001974106,2|2|2,2:2|3:3|2:2,0:0:0:0:
425,285,53050,6,0,P|459:227|453:159,1,138.000002632141,6|2,3:2|3:2,0:0:0:0:
454,67,53727,2,0,L|316:134,1,138.000002632141,10|10,2:2|2:2,0:0:0:0:
261,167,54404,1,2,3:2:0:0:
261,167,54629,1,10,2:2:0:0:
124,89,55080,6,0,L|189:50,2,69.0000013160706,10|2|8,2:2|3:2|2:2,0:0:0:0:
93,166,55757,1,2,3:2:0:0:
147,258,56095,1,2,2:2:0:0:
252,277,56434,1,10,2:2:0:0:
252,277,56659,2,0,P|337:246|362:208,1,138.000002632141,6|2,3:2|3:2,0:0:0:0:
448,128,57561,2,0,P|406:74|340:56,1,138.000002632141,2|8,3:2|2:2,0:0:0:0:
206,52,58464,5,6,3:2:0:0:
64,112,58915,1,2,3:2:0:0:
37,255,59366,2,0,L|112:304,1,69.0000013160706,6|8,3:2|2:2,0:0:0:0:
79,346,59817,2,0,L|154:395,1,69.0000013160706,2|8,3:2|2:2,0:0:0:0:
295,317,60268,5,6,3:2:0:0:
342,235,60607,1,2,3:2:0:0:
378,147,60945,1,10,2:2:0:0:
378,147,61170,2,0,P|315:112|259:67,1,138.000002632141,6|4,3:2|2:3,0:0:0:0:
159,33,61847,1,4,2:3:0:0:
159,33,62073,2,0,P|128:125|120:182,1,138.000002632141,6|2,3:2|3:2,0:0:0:0:
41,212,62749,5,10,0:0:0:0:
41,212,62975,2,0,P|100:247|169:250,1,138.000002632141,6|2,3:2|3:2,0:0:0:0:
207,168,63652,1,10,0:0:0:0:
249,84,63877,6,0,L|336:27,2,103.500001974106,6|2|10,3:2|2:2|2:2,0:0:0:0:
155,125,64780,2,0,B|79:103|79:103|57:192|113:232,1,207.000003948212,14|4,2:2|2:3,0:0:0:0:
168,282,65682,6,0,L|323:266,1,138.000002632141,6|2,3:2|3:2,0:0:0:0:
410,206,66584,1,2,3:2:0:0:
489,111,66922,1,2,3:2:0:0:
386,39,67261,1,10,2:2:0:0:
386,39,67486,6,0,P|320:19|253:33,1,138.000002632141,6|2,3:2|3:2,0:0:0:0:
207,141,68163,2,0,L|320:246,2,138.000002632141,10|10|10,2:2|2:2|2:2,0:0:0:0:
128,64,69516,5,8,2:2:0:0:
64,128,69742,1,2,3:2:0:0:
106,206,69967,1,10,2:2:0:0:
185,232,70193,2,0,L|84:301,2,103.500001974106,2|2|10,3:2|2:2|2:2,0:0:0:0:
224,160,71095,2,0,P|275:205|298:269,1,138.000002632141,6|2,3:2|3:2,0:0:0:0:
222,317,71772,1,8,2:2:0:0:
222,317,71998,2,0,P|278:355|345:362,1,138.000002632141,2|2,2:2|3:2,0:0:0:0:
421,282,72900,5,6,3:2:0:0:
419,171,73351,1,2,3:2:0:0:
377,82,73802,2,0,L|323:134,1,69.0000013160706,6|8,3:2|2:2,0:0:0:0:
280,92,74253,2,0,L|226:144,1,69.0000013160706,2|8,3:2|2:2,0:0:0:0:
105,153,74704,5,6,3:2:0:0:
35,243,75043,1,2,3:2:0:0:
118,316,75381,1,10,2:2:0:0:
118,316,75607,2,0,P|187:328|256:304,1,138.000002632141,0|4,3:3|2:3,0:0:0:0:
341,224,76283,1,4,2:3:0:0:
341,224,76509,6,0,L|338:81,1,138.000002632141,6|8,3:2|0:0,0:0:0:0:
426,17,77411,2,0,L|428:154,1,138.000002632141,6|8,3:2|0:0,0:0:0:0:
359,248,78313,6,0,P|334:313|279:361,1,138.000002632141,6|0,3:2|3:2,0:0:0:0:
264,279,78990,1,10,2:2:0:0:
264,279,79216,2,0,P|285:214|335:166,1,138.000002632141,6|4,3:2|2:3,0:0:0:0:
311,69,80118,6,0,L|160:115,1,143.999995605469,6|6,3:2|3:2,0:0:0:0:
41,182,81020,2,0,L|33:267,2,71.9999978027344,8|8|8,2:2|2:2|2:2,0:0:0:0:
51,102,81697,1,6,3:2:0:0:
210,129,82825,6,0,P|166:163|173:233,2,107.999996704102,6|8|4,2:2|2:3|2:3,0:0:0:0:
289,147,83727,1,2,3:2:0:0:
442,95,85080,5,8,2:2:0:0:
442,95,85306,2,0,P|407:205|306:252,1,215.999993408203,6|8,3:2|2:3,0:0:0:0:
174,220,86208,1,4,2:3:0:0:
174,220,86434,2,0,P|126:180|136:128,1,107.999996704102,6|0,3:2|0:0,0:0:0:0:
