osu file format v14

[General]
AudioFilename: audio.mp3
AudioLeadIn: 0
PreviewTime: 20109
Countdown: 1
SampleSet: Soft
StackLeniency: 0.7
Mode: 0
LetterboxInBreaks: 0
WidescreenStoryboard: 1

[Editor]
DistanceSpacing: 1.5
BeatDivisor: 4
GridSize: 4
TimelineZoom: 2.4

[Metadata]
Title:Seishun Seminar (TV Size)
TitleUnicode:セイシュンゼミナール (TV Size)
Artist:Study
ArtistUnicode:Study
Creator:Nao Tomori
Version:Normal
Source:ぼくたちは勉強ができない
Tags:lasse can't study bokutachi wa benkyou ga dekinai bokuben we cant never learn 古橋文乃 furuhashi fumino 白石晴香 shiraishi haruka 緒方理珠 ogata rizu 富田美憂 tomita miyu 武元うるか takemoto uruka 鈴代紗弓 suzushiro sayumi anime japanese
BeatmapID:1987976
BeatmapSetID:951964

[Difficulty]
HPDrainRate:3
CircleSize:3
OverallDifficulty:4
ApproachRate:5.8
SliderMultiplier:1.2
SliderTickRate:1

[Events]
//Background and Video events
Video,50,"bokuben op.avi"
0,0,"bokuben.jpg",0,0
//Break Periods
//Storyboard Layer 0 (Background)
//Storyboard Layer 1 (Fail)
//Storyboard Layer 2 (Pass)
//Storyboard Layer 3 (Foreground)
//Storyboard Sound Samples

[TimingPoints]
2297,535.714285714286,4,2,1,100,1,0
7654,555.555555555556,4,2,1,100,1,0
8765,545.454545454546,4,2,1,100,1,0
15309,600,4,2,1,100,1,0
20109,451.127819548872,4,2,1,50,1,0
20109,-100,4,2,1,50,0,0
20560,451.127819548872,4,2,1,62,1,0
20560,-100,4,2,1,62,0,0
22374,451.127819548872,4,2,1,62,1,0
22374,-100,4,2,1,62,0,0
36810,-114.285714285714,4,2,1,38,0,0
43577,-114.285714285714,4,2,1,50,0,0
44028,-100,4,2,1,67,0,0
47637,-100,4,2,1,68,0,0
51246,-86.9565217391304,4,2,1,75,0,1
80118,-83.3333333333333,4,2,1,75,0,1
80569,-83.3333333333333,4,2,1,75,0,1
81697,-83.3333333333333,4,2,1,75,0,0
82712,-83.3333333333333,4,2,1,55,0,0
82825,-83.3333333333333,4,2,1,63,0,0
83727,-83.3333333333333,4,2,1,63,0,0
86434,-83.3333333333333,4,2,1,67,0,1
86546,-76.9230769230769,4,2,1,5,0,0

[Colours]
Combo1 : 233,193,242
Combo2 : 249,116,113
Combo3 : 131,186,248
Combo4 : 235,214,158

[HitObjects]
100,281,21462,5,8,2:2:0:0:
62,226,21687,1,8,2:2:0:0:
70,160,21913,1,8,2:2:0:0:
121,118,22138,1,8,2:2:0:0:
185,134,22374,6,0,B|248:145|248:145|325:129,1,120,6|0,3:2|3:2,0:0:0:0:
424,185,23276,2,0,L|447:292,2,90,0|2|10,3:2|2:2|2:2,0:0:0:0:
429,119,24178,2,0,P|471:89|509:89,2,90,2|2|10,3:2|2:2|2:2,0:0:0:0:
376,78,25080,1,2,3:2:0:0:
162,147,25757,5,10,2:2:0:0:
162,147,25983,2,0,L|39:131,1,120,6|0,3:2|3:2,0:0:0:0:
21,69,26659,1,10,2:2:0:0:
21,69,26885,2,0,P|65:43|132:52,1,120,2|0,3:2|0:0,0:0:0:0:
194,33,27561,1,10,2:2:0:0:
194,33,27787,6,0,P|247:49|329:24,1,120,2|2,3:2|3:2,0:0:0:0:
435,74,28689,1,2,3:2:0:0:
460,134,28915,1,8,2:2:0:0:
445,198,29140,2,0,L|359:213,1,60,2|4,3:2|2:3,0:0:0:0:
348,262,29592,6,0,P|296:237|215:251,1,120,6|0,3:2|3:0,0:0:0:0:
127,317,30494,2,0,L|27:312,2,90,2|2|10,3:2|2:2|2:2,0:0:0:0:
181,354,31396,2,0,P|228:375|290:359,2,90,2|2|10,3:2|2:2|2:2,0:0:0:0:
161,290,32298,2,0,L|151:152,1,120,2|0,3:2|3:2,0:0:0:0:
199,123,32975,1,10,2:2:0:0:
199,123,33201,6,0,P|196:56|133:26,1,120,6|0,3:2|3:2,0:0:0:0:
36,82,34103,2,0,P|39:149|102:179,1,120,2|0,3:2|3:0,0:0:0:0:
105,237,34780,1,10,2:2:0:0:
105,237,35005,2,0,L|238:249,1,120,2|2,3:2|3:2,0:0:0:0:
352,278,35907,1,2,3:2:0:0:
378,217,36133,1,8,2:2:0:0:
342,161,36358,2,0,L|343:87,1,60,2|4,3:2|2:3,0:0:0:0:
374,52,36810,6,0,P|327:22|203:106,1,210.000002002716,6|2,3:2|2:2,0:0:0:0:
249,196,38163,1,8,2:2:0:0:
353,147,38614,2,0,L|395:369,1,210.000002002716,2|2,3:2|2:2,0:0:0:0:
481,280,39967,1,8,2:2:0:0:
371,242,40419,6,0,L|256:236,1,105.000001001358,2|10,3:2|2:2,0:0:0:0:
173,305,41321,1,2,3:2:0:0:
65,263,41772,1,10,2:2:0:0:
133,170,42223,2,0,P|154:112|137:50,1,105.000001001358,2|0,3:2|3:0,0:0:0:0:
131,14,42900,1,2,2:2:0:0:
131,14,43125,2,0,P|187:39|245:34,1,105.000001001358,2|8,2:2|2:2,0:0:0:0:
397,2,44028,6,0,P|450:4|499:35,2,90,6|10|10,3:2|2:2|2:2,0:0:0:0:
357,54,44930,2,0,L|375:195,1,120,2|8,3:2|2:2,0:0:0:0:
353,236,45607,1,10,2:2:0:0:
353,236,45832,2,0,L|252:225,2,90,6|10|10,3:2|2:2|2:2,0:0:0:0:
392,289,46734,2,0,P|345:330|271:331,1,120,4|4,2:3|2:3,0:0:0:0:
228,310,47411,1,8,2:2:0:0:
188,256,47637,5,6,3:2:0:0:
256,192,47749,12,6,49441,3:2:0:0:
64,158,51246,6,0,P|140:145|201:186,1,138.000002632141,6|2,3:2|3:2,0:0:0:0:
272,301,52148,1,2,3:2:0:0:
366,238,52486,1,2,3:2:0:0:
473,276,52825,1,10,2:2:0:0:
473,276,53050,6,0,P|488:207|459:118,1,138.000002632141,6|2,3:2|3:2,0:0:0:0:
409,100,53727,2,0,L|267:115,1,138.000002632141,10|10,2:2|2:2,0:0:0:0:
201,86,54404,1,2,3:2:0:0:
201,86,54629,1,10,2:2:0:0:
71,165,55080,6,0,L|62:241,2,69.0000013160706,10|2|8,2:2|3:2|2:2,0:0:0:0:
141,136,55757,1,2,3:2:0:0:
231,205,56095,1,2,2:2:0:0:
334,157,56434,1,10,2:2:0:0:
334,157,56659,2,0,P|363:196|361:298,1,138.000002632141,6|2,3:2|3:2,0:0:0:0:
221,323,57561,2,0,L|82:310,1,138.000002632141,2|8,3:2|2:2,0:0:0:0:
11,176,58464,5,6,3:2:0:0:
117,67,58915,1,2,3:2:0:0:
242,152,59366,2,0,L|339:147,1,69.0000013160706,6|8,3:2|2:2,0:0:0:0:
380,179,59817,2,0,L|464:174,1,69.0000013160706,2|8,3:2|2:2,0:0:0:0:
509,220,60268,5,6,3:2:0:0:
461,323,60607,1,2,3:2:0:0:
350,294,60945,1,10,2:2:0:0:
350,294,61170,2,0,P|293:314|203:298,1,138.000002632141,6|4,3:2|2:3,0:0:0:0:
166,248,61847,1,4,2:3:0:0:
166,248,62073,6,0,L|181:89,1,138.000002632141,6|2,3:2|3:2,0:0:0:0:
128,54,62749,1,10,0:0:0:0:
128,54,62975,2,0,P|164:75|275:69,1,138.000002632141,6|2,3:2|3:2,0:0:0:0:
327,44,63652,1,10,0:0:0:0:
387,89,63877,6,0,L|405:212,2,103.500001974106,6|2|10,3:2|2:2|2:2,0:0:0:0:
435,29,64780,2,0,B|492:47|492:47|509:128|477:200,1,207.000003948212,14|4,2:2|2:3,0:0:0:0:
441,257,65682,6,0,L|280:246,1,138.000002632141,6|2,3:2|3:2,0:0:0:0:
170,319,66584,1,2,3:2:0:0:
70,263,66922,1,2,3:2:0:0:
113,157,67261,1,10,2:2:0:0:
113,157,67486,6,0,P|173:136|243:177,1,138.000002632141,6|2,3:2|3:2,0:0:0:0:
311,179,68163,2,0,L|342:339,2,138.000002632141,10|10|10,2:2|2:2|2:2,0:0:0:0:
356,34,69516,5,8,2:2:0:0:
427,7,69742,1,2,3:2:0:0:
493,42,69967,1,10,2:2:0:0:
459,110,70193,2,0,L|475:232,2,103.500001974106,2|2|10,3:2|2:2|2:2,0:0:0:0:
382,108,71095,2,0,P|353:161|272:181,1,138.000002632141,6|2,3:2|3:2,0:0:0:0:
212,151,71772,1,8,2:2:0:0:
212,151,71998,2,0,P|168:131|73:170,1,138.000002632141,8|2,2:2|3:2,0:0:0:0:
27,295,72900,5,6,3:2:0:0:
157,372,73351,1,2,3:2:0:0:
286,290,73802,2,0,L|383:295,1,69.0000013160706,6|8,3:2|2:2,0:0:0:0:
424,262,74253,2,0,P|455:223|459:173,1,69.0000013160706,2|8,3:2|2:2,0:0:0:0:
409,148,74704,5,6,3:2:0:0:
298,175,75043,1,2,3:2:0:0:
200,116,75381,1,10,2:2:0:0:
200,116,75607,2,0,L|35:134,1,138.000002632141,0|4,3:3|2:3,0:0:0:0:
18,192,76283,1,4,2:3:0:0:
18,192,76509,6,0,P|16:249|19:339,1,138.000002632141,6|8,3:2|0:0,0:0:0:0:
151,256,77411,2,0,P|153:199|150:109,1,138.000002632141,6|8,3:2|0:0,0:0:0:0:
277,34,78313,6,0,P|339:25|418:55,1,138.000002632141,6|0,3:2|3:2,0:0:0:0:
397,130,78990,1,10,2:2:0:0:
397,130,79216,2,0,P|335:139|256:109,1,138.000002632141,6|4,3:2|2:3,0:0:0:0:
111,131,80118,6,0,L|91:275,1,143.999995605469,6|6,3:2|3:2,0:0:0:0:
237,212,81020,2,0,L|246:138,2,71.9999978027344,8|8|8,2:2|2:2|2:2,0:0:0:0:
297,263,81697,1,6,3:2:0:0:
297,263,82825,6,0,P|297:216|322:150,2,107.999996704102,6|8|4,2:2|2:3|2:3,0:0:0:0:
358,312,83727,1,2,3:2:0:0:
358,312,85080,5,8,2:2:0:0:
358,312,85306,2,0,P|276:301|160:375,1,215.999993408203,6|8,3:2|2:3,0:0:0:0:
91,338,86208,1,4,2:3:0:0:
18,369,86434,2,0,L|13:208,1,143.999995605469,6|0,3:2|2:2,0:0:0:0:
