osu file format v14

[General]
AudioFilename: audio.mp3
AudioLeadIn: 0
PreviewTime: 20109
Countdown: 1
SampleSet: Soft
StackLeniency: 0.7
Mode: 0
LetterboxInBreaks: 0
WidescreenStoryboard: 1

[Editor]
DistanceSpacing: 1.5
BeatDivisor: 6
GridSize: 4
TimelineZoom: 2.4

[Metadata]
Title:Seishun Seminar (TV Size)
TitleUnicode:セイシュンゼミナール (TV Size)
Artist:Study
ArtistUnicode:Study
Creator:Nao Tomori
Version:Hard
Source:ぼくたちは勉強ができない
Tags:lasse can't study bokutachi wa benkyou ga dekinai bokuben we cant never learn 古橋文乃 furuhashi fumino 白石晴香 shiraishi haruka 緒方理珠 ogata rizu 富田美憂 tomita miyu 武元うるか takemoto uruka 鈴代紗弓 suzushiro sayumi anime japanese
BeatmapID:1987975
BeatmapSetID:951964

[Difficulty]
HPDrainRate:4.4
CircleSize:3.5
OverallDifficulty:6.5
ApproachRate:7.9
SliderMultiplier:1.55
SliderTickRate:1

[Events]
//Background and Video events
Video,50,"bokuben op.avi"
0,0,"bokuben.jpg",0,0
//Break Periods
//Storyboard Layer 0 (Background)
//Storyboard Layer 1 (Fail)
//Storyboard Layer 2 (Pass)
//Storyboard Layer 3 (Foreground)
//Storyboard Sound Samples

[TimingPoints]
2297,535.714285714286,4,2,1,100,1,0
7654,555.555555555556,4,2,1,100,1,0
8765,545.454545454546,4,2,1,100,1,0
15309,600,4,2,1,100,1,0
20109,451.127819548872,4,2,1,50,1,0
20109,-100,4,2,1,50,0,0
20560,451.127819548872,4,2,1,62,1,0
20560,-100,4,2,1,62,0,0
22374,451.127819548872,4,2,1,62,1,0
22374,-100,4,2,1,62,0,0
36810,-114.285714285714,4,2,1,38,0,0
43577,-114.285714285714,4,2,1,50,0,0
44028,-100,4,2,1,67,0,0
47637,-100,4,2,1,68,0,0
51246,-86.9565217391304,4,2,1,75,0,1
80118,-83.3333333333333,4,2,1,75,0,1
80569,-83.3333333333333,4,2,1,75,0,1
81697,-83.3333333333333,4,2,1,75,0,0
82712,-83.3333333333333,4,2,1,55,0,0
82825,-83.3333333333333,4,2,1,63,0,0
83727,-83.3333333333333,4,2,1,63,0,0
86434,-83.3333333333333,4,2,1,67,0,1
86546,-76.9230769230769,4,2,1,5,0,0

[Colours]
Combo1 : 233,193,242
Combo2 : 249,116,113
Combo3 : 131,186,248
Combo4 : 235,214,158

[HitObjects]
55,116,20560,5,0,3:2:0:0:
55,116,20672,2,0,P|117:122|144:116,1,77.5,8|8,2:2|2:2,0:0:0:0:
207,81,21011,1,0,3:2:0:0:
207,81,21123,2,0,L|295:92,1,77.5,8|8,2:2|2:2,0:0:0:0:
356,53,21462,5,8,2:2:0:0:
445,105,21687,1,8,2:2:0:0:
375,194,21913,1,8,2:2:0:0:
464,246,22138,1,8,2:2:0:0:
464,246,22251,1,8,2:2:0:0:
464,246,22374,6,0,P|442:300|334:320,1,155,6|0,3:2|3:2,0:0:0:0:
257,267,23050,1,10,2:2:0:0:
161,348,23276,2,0,L|59:357,1,77.5,0|8,3:2|2:2,0:0:0:0:
27,294,23614,2,0,P|5:250|12:201,1,77.5,2|0,2:2|3:2,0:0:0:0:
38,148,23952,1,10,2:2:0:0:
160,183,24178,2,0,L|291:178,1,116.25,2|2,3:2|2:2,0:0:0:0:
354,168,24629,2,0,P|372:115|362:74,1,77.5,0|10,3:0|2:2,0:0:0:0:
496,150,25080,2,0,P|464:196|471:306,1,155,2|0,3:2|3:0,0:0:0:0:
391,382,25757,1,10,2:2:0:0:
281,328,25983,6,0,L|112:326,1,155,6|0,3:2|3:2,0:0:0:0:
33,267,26659,1,10,2:2:0:0:
115,191,26885,2,0,P|185:214|273:180,1,155,2|0,3:2|3:0,0:0:0:0:
329,97,27561,1,10,2:2:0:0:
425,155,27787,2,0,L|431:293,1,116.25,2|2,3:2|2:2,0:0:0:0:
371,330,28238,2,0,P|322:357|258:345,1,116.25,2|2,3:2|2:2,0:0:0:0:
194,299,28689,5,2,3:2:0:0:
264,210,28915,1,8,2:2:0:0:
215,102,29140,1,2,3:2:0:0:
145,191,29366,1,4,2:3:0:0:
145,191,29479,1,4,2:3:0:0:
145,191,29592,6,0,P|92:209|-11:167,1,155,6|0,3:2|3:0,0:0:0:0:
79,95,30268,1,10,2:2:0:0:
79,95,30494,2,0,P|136:92|201:56,1,116.25,2|2,3:2|2:2,0:0:0:0:
266,82,30945,2,0,P|301:104|329:143,1,77.5,0|10,3:2|2:2,0:0:0:0:
281,237,31396,2,0,L|181:225,1,77.5,2|8,3:2|2:2,0:0:0:0:
147,282,31734,2,0,L|58:293,1,77.5,2|0,2:2|3:2,0:0:0:0:
12,345,32073,1,10,2:2:0:0:
162,307,32298,2,0,P|225:302|293:370,1,155,2|0,3:2|3:2,0:0:0:0:
391,301,32975,1,10,2:2:0:0:
325,205,33201,6,0,L|312:26,1,155,6|0,3:2|3:2,0:0:0:0:
216,0,33877,1,10,2:2:0:0:
141,78,34103,2,0,P|91:98|32:87,2,116.25,2|0|10,3:2|3:2|2:2,0:0:0:0:
229,152,35005,6,0,P|207:203|205:239,1,77.5,2|8,3:2|2:2,0:0:0:0:
252,290,35343,1,2,2:2:0:0:
252,290,35456,2,0,L|351:274,1,77.5,2|8,3:2|2:2,0:0:0:0:
401,307,35795,1,2,2:2:0:0:
401,307,35907,2,0,P|472:297|503:218,1,155,2|2,3:2|3:2,0:0:0:0:
426,118,36584,1,4,2:3:0:0:
426,118,36697,1,4,2:3:0:0:
426,118,36810,6,0,B|281:93|327:214|144:166,1,271.250002586842,6|2,3:2|2:2,0:0:0:0:
147,154,38163,1,8,2:2:0:0:
35,241,38614,6,0,P|61:294|263:283,1,271.250002586842,2|2,3:2|2:2,0:0:0:0:
264,274,39967,1,10,2:2:0:0:
379,328,40419,6,0,L|395:178,1,135.625001293421,2|10,3:2|2:2,0:0:0:0:
287,42,41321,2,0,L|272:176,1,135.625001293421,2|10,3:2|2:2,0:0:0:0:
156,282,42223,2,0,P|102:310|5:299,1,135.625001293421,0|8,3:2|0:0,0:0:0:0:
0,190,42900,1,2,2:2:0:0:
0,190,43013,1,0,0:0:0:0:
0,190,43125,2,0,L|12:106,1,67.8125006467104,2|0,2:2|2:2,0:0:0:0:
106,46,43577,2,0,L|105:9,5,22.6041668822368,8|8|8|8|8|8,2:2|2:2|2:2|2:2|2:2|2:2,0:0:0:0:
144,62,44028,6,0,P|188:79|259:67,2,116.25,6|10|10,3:2|2:2|2:2,0:0:0:0:
63,143,44930,1,2,3:2:0:0:
63,143,45043,2,0,L|64:243,1,77.5,8|2,2:2|3:2,0:0:0:0:
122,277,45381,2,0,P|135:328|128:373,1,77.5,8|10,2:2|2:2,0:0:0:0:
196,222,45832,6,0,P|247:216|317:244,2,116.25,6|10|10,3:2|2:2|2:2,0:0:0:0:
277,127,46734,1,4,2:3:0:0:
277,127,46847,2,0,P|321:140|381:125,1,77.5,4|8,2:3|2:3,0:0:0:0:
416,74,47186,2,0,L|527:68,1,77.5,4|8,2:3|2:2,0:0:0:0:
367,2,47637,6,0,P|331:49|355:141,1,155,6|0,3:2|3:2,0:0:0:0:
438,224,48313,1,0,3:2:0:0:
343,299,48539,2,0,L|335:341,5,25.8333333333333,8|8|8|8|8|8,2:2|2:2|2:2|2:2|2:2|2:2,0:0:0:0:
299,307,48990,2,0,L|291:349,5,25.8333333333333,8|8|8|4|4|4,2:3|2:3|2:3|2:3|2:3|2:3,0:0:0:0:
261,278,49441,5,6,3:2:0:0:
238,303,51246,6,0,P|216:244|224:196,1,89.1250016999245,6|8,3:2|2:2,0:0:0:0:
287,62,51697,2,0,P|309:121|301:169,1,89.1250016999245,2|8,3:2|2:2,0:0:0:0:
386,263,52148,2,0,L|482:238,1,89.1250016999245,2|8,3:2|2:2,0:0:0:0:
465,330,52486,2,0,L|378:352,1,89.1250016999245,2|0,3:2|3:2,0:0:0:0:
305,310,52825,1,10,2:2:0:0:
196,365,53050,6,0,P|134:349|90:365,1,89.1250016999245,6|8,3:2|2:2,0:0:0:0:
2,287,53501,1,2,3:2:0:0:
84,186,53727,2,0,P|66:118|27:89,1,89.1250016999245,10|0,2:2|3:2,0:0:0:0:
135,18,54178,1,10,2:2:0:0:
135,18,54291,1,0,3:2:0:0:
135,18,54404,2,0,P|202:36|247:17,2,89.1250016999245,2|10|4,3:2|2:2|3:2,0:0:0:0:
271,122,55080,5,10,2:2:0:0:
352,52,55306,2,0,L|464:44,1,89.1250016999245,2|8,3:2|2:2,0:0:0:0:
507,153,55757,2,0,P|525:206|510:252,1,89.1250016999245,2|8,3:2|2:2,0:0:0:0:
442,272,56095,2,0,L|346:261,1,89.1250016999245,2|0,3:2|2:2,0:0:0:0:
285,310,56434,1,10,2:2:0:0:
165,246,56659,6,0,P|108:229|42:246,1,89.1250016999245,6|8,3:2|2:2,0:0:0:0:
7,345,57110,2,0,P|51:346|93:331,1,89.1250016999245,2|10,3:2|2:2,0:0:0:0:
204,374,57561,1,2,3:2:0:0:
301,318,57787,1,10,2:2:0:0:
426,347,58013,2,0,L|448:274,1,59.4166677999497,8|8,2:2|0:0,0:0:0:0:
438,257,58238,2,0,L|453:192,1,59.4166677999497,8|8,2:2|0:0,0:0:0:0:
471,158,58464,6,0,B|391:123|383:208|272:168,1,178.250003399849,6|2,3:2|3:2,0:0:0:0:
193,120,59140,1,8,2:2:0:0:
109,203,59366,2,0,L|-4:213,1,89.1250016999245,6|8,3:2|2:2,0:0:0:0:
137,319,59817,2,0,L|226:312,1,89.1250016999245,2|8,3:2|2:2,0:0:0:0:
354,301,60268,6,0,P|371:236|358:186,1,89.1250016999245,6|8,3:2|2:2,0:0:0:0:
300,164,60607,2,0,P|283:99|296:49,1,89.1250016999245,2|0,3:2|3:2,0:0:0:0:
343,16,60945,1,10,2:2:0:0:
467,37,61170,2,0,P|486:82|486:123,1,89.1250016999245,6|8,3:2|2:2,0:0:0:0:
460,259,61622,1,4,2:3:0:0:
503,366,61847,1,4,2:3:0:0:
442,275,62073,6,0,L|335:263,1,89.1250016999245,6|14,3:2|2:2,0:0:0:0:
258,191,62524,1,2,3:2:0:0:
188,286,62749,1,10,0:0:0:0:
239,175,62975,2,0,P|178:155|126:160,1,89.1250016999245,6|14,3:2|2:2,0:0:0:0:
48,212,63426,1,0,3:2:0:0:
48,212,63539,2,0,L|58:308,1,89.1250016999245,10|0,2:2|3:2,0:0:0:0:
117,353,63877,6,0,P|188:315|285:358,1,178.250003399849,6|0,3:2|3:2,0:0:0:0:
402,283,64554,1,10,2:2:0:0:
310,190,64780,2,0,L|298:88,1,89.1250016999245,14|8,2:2|2:2,0:0:0:0:
394,23,65230,1,8,2:3:0:0:
426,27,65342,1,8,2:3:0:0:
455,44,65455,1,4,2:3:0:0:
476,70,65568,1,4,2:3:0:0:
485,102,65682,6,0,L|326:120,1,133.687502549887,6|8,3:2|2:2,0:0:0:0:
298,171,66133,2,0,P|239:189|193:170,1,89.1250016999245,2|8,3:2|2:2,0:0:0:0:
102,118,66584,2,0,L|90:23,1,89.1250016999245,2|8,3:2|2:2,0:0:0:0:
16,77,66922,2,0,L|27:165,1,89.1250016999245,2|0,3:2|3:2,0:0:0:0:
89,219,67261,1,10,2:2:0:0:
213,174,67486,6,0,L|316:156,1,89.1250016999245,6|8,3:2|2:2,0:0:0:0:
407,233,67937,1,2,3:2:0:0:
345,337,68163,2,0,P|289:360|233:339,1,89.1250016999245,10|0,2:2|3:2,0:0:0:0:
148,287,68614,1,10,2:2:0:0:
148,287,68727,2,0,L|131:182,1,89.1250016999245,0|0,3:2|3:2,0:0:0:0:
195,143,69065,2,0,L|178:50,1,89.1250016999245,10|6,2:2|3:2,0:0:0:0:
292,98,69516,5,8,2:2:0:0:
257,220,69742,1,2,3:2:0:0:
128,214,69967,1,10,2:2:0:0:
69,104,70193,2,0,P|80:50|128:22,1,89.1250016999245,2|8,3:2|2:2,0:0:0:0:
183,61,70531,2,0,L|289:50,1,89.1250016999245,2|0,2:2|2:2,0:0:0:0:
344,96,70870,1,10,2:2:0:0:
448,23,71095,6,0,P|494:88|474:208,1,178.250003399849,6|2,3:2|3:2,0:0:0:0:
409,269,71772,1,8,2:2:0:0:
296,211,71998,2,0,P|248:202|213:206,1,59.4166677999497,8|8,2:2|0:0,0:0:0:0:
205,224,72223,2,0,L|191:328,2,89.1250016999245,8|2|8,2:2|3:2|2:2,0:0:0:0:
150,161,72825,1,8,2:2:0:0:
150,161,72900,6,0,P|92:144|1:222,1,178.250003399849,6|2,3:2|3:2,0:0:0:0:
81,301,73577,1,8,2:2:0:0:
203,257,73802,2,0,L|325:244,1,89.1250016999245,6|8,3:2|2:2,0:0:0:0:
414,189,74253,2,0,P|432:136|413:74,1,89.1250016999245,2|8,3:2|2:2,0:0:0:0:
320,38,74704,6,0,P|298:87|309:143,1,89.1250016999245,6|8,3:2|2:2,0:0:0:0:
220,144,75043,2,0,P|188:100|134:81,1,89.1250016999245,2|0,3:2|3:2,0:0:0:0:
74,97,75381,1,10,2:2:0:0:
131,210,75607,2,0,P|225:186|325:212,1,178.250003399849,2|4,3:2|2:3,0:0:0:0:
391,278,76283,1,4,2:3:0:0:
296,366,76509,6,0,L|194:349,1,89.1250016999245,6|10,3:2|2:2,0:0:0:0:
129,373,76847,2,0,P|74:381|39:369,1,89.1250016999245,2|0,3:2|3:2,0:0:0:0:
23,290,77186,1,8,2:2:0:0:
118,203,77411,6,0,L|126:98,1,89.1250016999245,6|10,3:2|2:2,0:0:0:0:
215,76,77749,2,0,L|208:164,1,89.1250016999245,2|0,3:2|3:2,0:0:0:0:
271,217,78088,1,10,2:2:0:0:
415,177,78313,6,0,P|439:131|431:70,1,89.1250016999245,6|10,3:2|2:2,0:0:0:0:
328,157,78652,1,2,3:2:0:0:
328,157,78764,2,0,P|330:201|352:239,1,89.1250016999245,0|10,3:2|2:2,0:0:0:0:
256,344,79216,6,0,L|157:331,1,89.1250016999245,6|8,3:2|2:2,0:0:0:0:
109,282,79554,1,8,2:2:0:0:
109,282,79667,2,0,L|99:186,1,89.1250016999245,4|4,2:3|2:3,0:0:0:0:
193,62,80118,6,0,L|221:270,1,185.999994323731,6|6,3:2|3:2,0:0:0:0:
417,354,81020,5,8,2:2:0:0:
499,316,81246,1,8,2:2:0:0:
425,262,81471,1,8,2:2:0:0:
343,300,81697,1,6,3:2:0:0:
331,311,82825,6,0,L|181:294,2,139.499995742798,6|8|4,2:2|2:3|2:3,0:0:0:0:
414,247,83727,5,2,3:2:0:0:
414,247,85080,5,8,2:2:0:0:
332,211,85306,6,0,B|219:197|258:273|144:258,1,185.999994323731,6|2,3:2|3:2,0:0:0:0:
66,199,85983,1,8,2:3:0:0:
65,97,86208,1,4,2:3:0:0:
128,6,86434,6,0,B|177:54|177:54|162:103|162:103|180:191,1,185.999994323731,6|0,3:2|2:2,0:0:0:0:
