osu file format v14

[General]
AudioFilename: audio.mp3
AudioLeadIn: 0
PreviewTime: 20109
Countdown: 1
SampleSet: Soft
StackLeniency: 0.7
Mode: 0
LetterboxInBreaks: 0
WidescreenStoryboard: 0

[Editor]
DistanceSpacing: 1.5
BeatDivisor: 6
GridSize: 4
TimelineZoom: 2.4

[Metadata]
Title:Seishun Seminar (TV Size)
TitleUnicode:セイシュンゼミナール (TV Size)
Artist:Study
ArtistUnicode:Study
Creator:Nao Tomori
Version:Expert
Source:ぼくたちは勉強ができない
Tags:lasse can't study bokutachi wa benkyou ga dekinai bokuben we cant never learn 古橋文乃 furuhashi fumino 白石晴香 shiraishi haruka 緒方理珠 ogata rizu 富田美憂 tomita miyu 武元うるか takemoto uruka 鈴代紗弓 suzushiro sayumi anime japanese
BeatmapID:1987908
BeatmapSetID:951964

[Difficulty]
HPDrainRate:5
CircleSize:4.2
OverallDifficulty:8.5
ApproachRate:9.2
SliderMultiplier:2.1
SliderTickRate:1

[Events]
//Background and Video events
Video,50,"bokuben op.avi"
0,0,"bokuben.jpg",0,0
//Break Periods
//Storyboard Layer 0 (Background)
//Storyboard Layer 1 (Fail)
//Storyboard Layer 2 (Pass)
//Storyboard Layer 3 (Foreground)
//Storyboard Sound Samples

[TimingPoints]
2297,535.714285714286,4,2,1,100,1,0
7654,555.555555555556,4,2,1,100,1,0
8765,545.454545454546,4,2,1,100,1,0
15309,600,4,2,1,100,1,0
20109,451.127819548872,4,2,1,50,1,0
20109,-100,4,2,1,50,0,0
20560,451.127819548872,4,2,1,62,1,0
20560,-100,4,2,1,62,0,0
22374,451.127819548872,4,2,1,62,1,0
22374,-100,4,2,1,62,0,0
36810,-133.333333333333,4,2,1,38,0,0
43577,-133.333333333333,4,2,1,50,0,0
44028,-76.9230769230769,4,2,1,67,0,0
47637,-100,4,2,1,68,0,0
51246,-80,4,2,1,75,0,1
80118,-71.4285714285714,4,2,1,75,0,1
80569,-66.6666666666667,4,2,1,75,0,1
81697,-66.6666666666667,4,2,1,75,0,0
82712,-66.6666666666667,4,2,1,55,0,0
82825,-83.3333333333333,4,2,1,63,0,0
83727,-83.3333333333333,4,2,1,63,0,0
86434,-76.9230769230769,4,2,1,67,0,1
86546,-76.9230769230769,4,2,1,5,0,0

[Colours]
Combo1 : 233,193,242
Combo2 : 249,116,113
Combo3 : 131,186,248
Combo4 : 235,214,158

[HitObjects]
71,142,20334,5,0,2:2:0:0:
71,142,20447,1,0,2:2:0:0:
71,142,20560,5,0,3:2:0:0:
134,182,20672,2,0,L|272:155,1,105,8|8,2:2|2:2,2:2:0:0:
420,184,21011,5,0,3:2:0:0:
391,268,21123,2,0,P|342:287|291:281,1,105,8|8,2:2|2:2,2:2:0:0:
89,284,21462,6,0,L|70:333,1,52.5,8|0,2:2|2:2,2:2:0:0:
63,156,21687,2,0,L|29:115,1,52.5,8|0,2:2|2:2,2:2:0:0:
185,196,21913,2,0,L|236:187,1,52.5,8|0,2:2|2:2,2:2:0:0:
414,70,22138,1,8,2:2:0:0:
339,24,22251,1,8,2:2:0:0:
416,106,22374,6,0,B|470:96|470:96|537:112,1,105,6|8,3:2|2:2,2:2:0:0:
466,190,22712,1,8,2:2:0:0:
466,190,22825,1,0,3:2:0:0:
332,109,23050,1,10,2:2:0:0:
247,206,23276,2,0,P|230:265|253:320,1,105,0|8,3:2|2:2,2:2:0:0:
398,315,23614,2,0,P|355:270|296:263,1,105,2|0,2:2|3:2,2:2:0:0:
318,346,23952,1,10,2:2:0:0:
467,261,24178,6,0,L|472:132,1,105,2|8,3:2|2:2,2:2:0:0:
384,81,24516,2,0,L|379:185,1,105,2|0,2:2|3:2,2:2:0:0:
314,247,24855,1,10,2:2:0:0:
159,166,25080,1,2,3:2:0:0:
0,234,25306,1,8,2:2:0:0:
0,234,25419,2,0,P|49:250|100:240,1,105,0|0,3:2|3:2,2:2:0:0:
170,288,25757,1,10,2:2:0:0:
242,108,25983,6,0,L|247:4,1,105,6|8,3:2|2:2,2:2:0:0:
163,49,26321,1,8,2:2:0:0:
163,49,26434,1,0,3:2:0:0:
331,138,26659,1,10,2:2:0:0:
172,207,26885,2,0,L|48:195,1,105,2|8,3:2|2:2,2:2:0:0:
189,299,27223,2,0,L|316:282,1,105,0|0,3:2|3:2,2:2:0:0:
374,341,27561,1,10,2:2:0:0:
508,209,27787,6,0,P|520:150|498:102,1,105,2|8,3:2|2:2,2:2:0:0:
327,148,28125,1,2,2:2:0:0:
327,148,28238,2,0,L|453:160,1,105,2|8,3:2|2:2,2:2:0:0:
257,248,28577,1,2,2:2:0:0:
257,248,28689,2,0,L|383:236,1,105,2|8,3:2|2:2,2:2:0:0:
243,333,29028,1,8,2:2:0:0:
243,333,29140,2,0,L|166:319,1,52.5,2|0,3:2|3:2,2:2:0:0:
32,222,29366,1,4,2:3:0:0:
94,169,29479,1,4,2:3:0:0:
10,246,29592,6,0,L|-22:113,1,105,6|8,3:2|2:2,2:2:0:0:
51,43,29930,2,0,L|75:145,1,105,2|2,2:2|2:2,2:2:0:0:
166,188,30268,1,10,2:2:0:0:
166,188,30381,1,8,2:2:0:0:
166,188,30494,6,0,P|229:203|295:179,1,105,2|8,3:2|2:2,2:2:0:0:
344,121,30832,1,2,2:2:0:0:
344,121,30945,2,0,L|366:253,1,105,0|10,3:2|2:2,2:2:0:0:
413,66,31396,6,0,P|362:34|286:46,1,105,2|8,3:2|2:2,2:2:0:0:
157,145,31734,2,0,P|208:141|251:111,1,105,2|0,2:2|3:2,2:2:0:0:
181,58,32073,1,10,2:2:0:0:
181,58,32186,1,8,2:2:0:0:
157,145,32298,6,0,P|149:211|167:274,1,105,2|8,3:2|2:2,2:2:0:0:
233,299,32637,1,2,3:2:0:0:
233,299,32749,2,0,P|266:294|323:300,1,52.5,0|0,3:2|2:2,2:2:0:0:
354,344,32975,2,0,P|383:348|444:343,1,52.5,10|0,2:2|2:2,2:2:0:0:
502,270,33201,5,6,3:2:0:0:
428,215,33313,1,0,3:2:0:0:
505,250,33426,2,0,L|515:116,1,105,8|0,2:2|3:2,2:2:0:0:
384,36,33877,1,10,2:2:0:0:
384,36,33990,1,8,2:2:0:0:
384,36,34103,1,2,3:2:0:0:
243,148,34328,1,8,2:2:0:0:
174,98,34441,2,0,P|122:79|56:89,1,105,0|0,3:2|3:2,2:2:0:0:
0,140,34780,1,10,2:2:0:0:
81,246,35005,6,0,L|97:363,1,105,2|8,3:2|2:2,2:2:0:0:
168,195,35343,1,2,2:2:0:0:
168,195,35456,2,0,L|184:312,1,105,2|8,3:2|2:2,2:2:0:0:
367,178,35795,5,2,2:2:0:0:
367,178,35907,2,0,L|351:295,1,105,2|8,3:2|2:2,2:2:0:0:
260,115,36246,1,2,2:2:0:0:
260,115,36358,5,2,3:2:0:0:
323,70,36470,1,8,2:3:0:0:
402,71,36583,1,4,2:3:0:0:
464,118,36696,1,4,2:3:0:0:
486,193,36810,6,0,P|434:217|410:218,1,78.7500030040742,6|0,3:2|2:2,2:2:0:0:
277,275,37261,2,0,P|316:281|350:301,1,78.7500030040742,2|0,2:2|2:2,2:2:0:0:
220,350,37712,1,2,2:2:0:0:
220,350,37825,1,2,2:2:0:0:
141,300,38050,1,2,2:2:0:0:
141,300,38163,2,0,L|48:315,1,78.7500030040742,8|0,2:2|2:2,2:2:0:0:
5,202,38614,6,0,P|-9:143|8:106,1,78.7500030040742,2|0,3:2|2:2,2:2:0:0:
62,73,38952,1,8,2:2:0:0:
62,73,39065,1,2,2:2:0:0:
144,119,39291,1,8,2:2:0:0:
214,55,39516,5,2,2:2:0:0:
214,55,39629,1,2,2:2:0:0:
279,110,39855,1,2,2:2:0:0:
279,110,39967,2,0,L|338:99,1,52.5000020027161,8|8,2:2|2:2,2:2:0:0:
356,108,40193,1,2,0:0:0:0:
365,199,40419,6,0,P|410:180|470:189,1,78.7500030040742,2|0,3:2|2:2,2:2:0:0:
304,263,40870,2,0,P|339:280|379:283,1,78.7500030040742,10|0,2:2|2:2,2:2:0:0:
232,219,41321,2,0,L|221:141,1,78.7500030040742,2|0,3:2|2:2,2:2:0:0:
156,304,41772,2,0,L|146:226,1,78.7500030040742,10|0,2:2|2:2,2:2:0:0:
93,364,42223,6,0,P|42:348|12:354,1,78.7500030040742,2|0,3:2|2:2,2:2:0:0:
155,304,42561,2,0,P|194:306|231:292,1,78.7500030040742,8|0,2:2|2:2,2:2:0:0:
304,342,42900,1,2,2:2:0:0:
379,233,43125,2,0,L|357:140,1,78.7500030040742,2|0,2:2|2:2,2:2:0:0:
387,24,43577,5,8,2:2:0:0:
398,29,43652,1,8,2:2:0:0:
409,37,43727,1,8,2:2:0:0:
416,48,43802,1,8,2:2:0:0:
421,60,43877,1,8,2:2:0:0:
423,73,43952,1,8,2:2:0:0:
420,87,44028,6,0,P|351:125|270:107,1,136.499993751526,6|0,3:2|2:2,2:2:0:0:
71,150,44366,2,0,P|138:147|196:183,1,136.499993751526,10|0,2:2|2:2,2:2:0:0:
263,274,44704,2,0,L|269:364,1,68.2499968757631,10|0,2:2|2:2,2:2:0:0:
176,308,44930,5,2,3:2:0:0:
347,240,45043,1,8,2:2:0:0:
365,259,45268,5,2,3:2:0:0:
188,200,45381,1,8,2:2:0:0:
359,135,45607,1,10,2:2:0:0:
141,56,45832,6,0,B|74:43|74:43|-2:72,1,136.499993751526,6|0,3:2|2:2,2:2:0:0:
11,279,46170,2,0,B|78:292|78:292|154:263,1,136.499993751526,10|0,2:2|2:2,2:2:0:0:
80,136,46509,2,0,L|70:203,1,68.2499968757631,10|0,2:2|2:2,2:2:0:0:
151,355,46734,5,4,2:3:0:0:
224,214,46847,1,4,2:3:0:0:
208,191,47073,5,8,2:3:0:0:
330,318,47186,2,0,L|417:304,2,68.2499968757631,4|4|8,2:3|2:3|2:2,2:2:0:0:
487,174,47637,6,0,P|504:109|452:43,1,157.5,6|2,3:2|2:2,2:2:0:0:
315,114,48088,2,0,L|429:121,1,105,0|0,3:2|3:2,2:2:0:0:
246,185,48539,1,8,2:2:0:0:
228,183,48614,1,8,2:2:0:0:
211,182,48689,1,8,2:2:0:0:
193,181,48764,1,8,2:2:0:0:
176,180,48839,1,8,2:2:0:0:
158,179,48914,1,8,2:2:0:0:
144,178,48990,5,8,2:3:0:0:
124,142,49065,1,8,2:3:0:0:
126,102,49140,1,8,2:3:0:0:
148,68,49215,1,4,2:3:0:0:
184,51,49290,1,4,2:3:0:0:
224,55,49365,1,4,2:3:0:0:
257,79,49441,5,6,3:2:0:0:
262,79,51020,5,2,2:2:0:0:
262,79,51133,1,2,2:2:0:0:
207,151,51246,6,0,P|133:188|66:165,1,131.25,6|8,3:2|2:2,2:2:0:0:
130,103,51584,1,8,2:2:0:0:
241,234,51697,2,0,L|372:238,1,131.25,2|8,3:2|2:2,2:2:0:0:
448,194,52035,1,0,3:2:0:0:
396,343,52148,6,0,P|311:328|247:380,1,131.25,2|8,3:2|2:2,2:2:0:0:
61,304,52486,2,0,P|121:326|183:308,1,131.25,2|0,3:2|3:2,2:2:0:0:
284,165,52825,2,0,L|304:59,1,65.625,10|0,2:2|2:2,2:2:0:0:
470,25,53050,6,0,P|501:111|464:179,1,131.25,6|8,3:2|2:2,2:2:0:0:
386,247,53389,1,8,2:2:0:0:
386,247,53501,2,0,L|272:249,1,65.625,2|0,3:2|2:2,2:2:0:0:
168,210,53727,6,0,P|239:202|265:211,1,65.625,10|0,2:2|2:2,2:2:0:0:
181,289,53952,2,0,P|148:289|116:279,1,65.625,0|0,3:2|2:2,2:2:0:0:
11,183,54178,5,10,2:2:0:0:
38,101,54291,1,0,3:2:0:0:
119,130,54404,2,0,L|183:117,1,65.625,2|0,3:2|2:2,2:2:0:0:
268,72,54629,2,0,L|384:87,1,65.625,10|0,2:2|3:2,2:2:0:0:
474,225,54855,6,0,P|417:262|328:228,1,131.25,4|10,3:2|2:2,2:2:0:0:
289,316,55193,1,0,3:2:0:0:
215,261,55306,2,0,L|64:250,1,131.25,2|8,3:2|2:2,2:2:0:0:
286,22,55757,6,0,P|305:70|303:110,1,65.625,2|0,3:2|2:2,2:2:0:0:
145,63,55983,1,8,2:2:0:0:
145,63,56095,2,0,P|177:22|212:4,1,65.625,2|0,3:2|2:2,2:2:0:0:
252,165,56321,1,0,3:2:0:0:
252,165,56434,2,0,P|200:157|167:135,1,65.625,10|0,2:2|2:2,2:2:0:0:
329,224,56659,6,0,L|492:210,1,131.25,6|8,3:2|2:2,2:2:0:0:
301,312,56998,1,8,2:2:0:0:
301,312,57110,2,0,P|232:300|201:311,1,65.625,2|0,3:2|2:2,2:2:0:0:
368,130,57336,2,0,P|400:128|431:117,1,65.625,10|0,2:2|2:2,2:2:0:0:
299,65,57561,6,0,L|273:158,1,65.625,2|0,3:2|2:2,2:2:0:0:
172,16,57787,2,0,L|195:109,1,65.625,10|0,2:2|2:2,2:2:0:0:
109,275,58013,1,8,2:2:0:0:
41,250,58125,1,8,2:2:0:0:
0,191,58238,1,8,2:2:0:0:
3,119,58351,1,8,2:2:0:0:
48,64,58464,6,0,P|96:127|93:190,1,131.25,6|8,3:2|2:2,2:2:0:0:
14,344,58802,1,8,2:2:0:0:
14,344,58915,2,0,P|85:309|156:329,1,131.25,2|8,3:2|2:2,2:2:0:0:
287,372,59253,1,0,3:2:0:0:
350,307,59366,6,0,L|361:215,1,65.625,6|0,3:2|2:2,2:2:0:0:
420,134,59592,1,8,2:2:0:0:
359,80,59704,2,0,P|280:94|226:64,1,131.25,2|0,3:2|3:2,2:2:0:0:
185,145,60043,2,0,L|96:135,1,65.625,8|0,2:2|2:2,2:2:0:0:
236,299,60268,6,0,B|299:279|299:279|368:298,1,131.25,6|8,3:2|2:2,2:2:0:0:
491,204,60607,2,0,P|504:126|468:56,1,131.25,2|0,3:2|3:2,2:2:0:0:
344,150,60945,2,0,L|444:143,1,65.625,10|0,2:2|2:2,2:2:0:0:
286,72,61170,5,6,3:2:0:0:
193,273,61396,1,8,2:2:0:0:
193,273,61509,1,8,2:3:0:0:
193,273,61622,2,0,L|93:265,1,65.625,4|0,2:3|2:2,2:2:0:0:
49,176,61847,2,0,L|115:171,1,65.625,4|0,2:3|2:2,2:2:0:0:
289,89,62073,6,0,P|215:75|180:85,1,65.625,6|0,3:2|2:2,2:2:0:0:
356,173,62298,2,0,L|480:161,1,65.625,14|0,2:2|2:2,2:2:0:0:
298,264,62524,1,2,3:2:0:0:
298,264,62637,2,0,B|343:284|343:284|432:273,1,131.25,10|0,2:2|3:2,2:2:0:0:
135,336,62975,6,0,P|95:288|71:277,1,65.625,6|0,3:2|2:2,2:2:0:0:
204,262,63201,2,0,P|225:203|243:184,1,65.625,14|0,2:2|2:2,2:2:0:0:
86,103,63426,1,0,3:2:0:0:
144,160,63539,2,0,P|73:202|-27:167,1,131.25,10|0,2:2|3:2,2:2:0:0:
214,84,63877,6,0,L|321:91,1,65.625,6|0,3:2|2:2,2:2:0:0:
366,194,64103,1,8,2:2:0:0:
296,245,64216,2,0,P|277:281|281:329,1,65.625,2|0,2:2|3:2,2:2:0:0:
452,197,64441,1,0,2:2:0:0:
452,197,64554,2,0,P|447:164|431:136,1,65.625,10|0,2:2|2:2,2:2:0:0:
214,62,64780,5,14,2:2:0:0:
133,55,64892,1,8,2:2:0:0:
66,99,65005,1,8,2:2:0:0:
39,175,65118,1,8,2:2:0:0:
64,251,65231,5,8,2:3:0:0:
169,197,65343,1,8,2:3:0:0:
145,303,65456,1,4,2:3:0:0:
250,249,65568,1,4,2:3:0:0:
334,355,65682,6,0,B|400:340|400:340|463:353,1,131.25,6|8,3:2|2:2,2:2:0:0:
506,208,66020,1,8,2:2:0:0:
429,156,66133,2,0,L|269:168,1,131.25,2|8,3:2|2:2,2:2:0:0:
140,90,66471,1,0,3:2:0:0:
215,38,66584,6,0,P|227:107|175:188,1,131.25,2|8,3:2|2:2,2:2:0:0:
64,357,66922,2,0,P|40:296|52:233,1,131.25,2|0,3:2|3:2,2:2:0:0:
211,261,67261,2,0,L|106:267,1,65.625,10|0,2:2|2:2,2:2:0:0:
286,335,67486,6,0,P|354:314|426:337,1,131.25,6|8,3:2|2:2,2:2:0:0:
496,284,67825,1,8,2:2:0:0:
419,187,67937,2,0,L|418:101,1,65.625,2|0,3:2|2:2,2:2:0:0:
300,30,68163,1,10,2:2:0:0:
231,81,68276,1,8,2:2:0:0:
154,37,68389,6,0,P|83:30|21:56,1,131.25,0|10,3:2|2:2,2:2:0:0:
159,151,68727,2,0,P|220:172|284:165,1,131.25,0|0,3:2|3:2,2:2:0:0:
92,223,69065,2,10,L|6:232,1,65.625,10|10,2:2|2:2,2:2:0:0:
150,295,69291,5,6,3:2:0:0:
261,81,69516,1,8,2:2:0:0:
300,153,69629,1,8,2:2:0:0:
373,112,69742,2,0,L|462:101,1,65.625,2|0,3:2|2:2,2:2:0:0:
507,200,69967,2,0,L|442:192,1,65.625,10|0,2:2|2:2,2:2:0:0:
309,295,70193,5,2,3:2:0:0:
309,295,70306,2,0,P|256:277|208:281,1,65.625,2|8,2:2|2:2,2:2:0:0:
84,346,70531,1,2,2:2:0:0:
84,346,70644,2,0,P|126:309|146:265,1,65.625,2|0,3:2|2:2,2:2:0:0:
152,125,70870,2,0,P|162:179|190:219,1,65.625,10|0,2:2|2:2,2:2:0:0:
377,355,71095,6,0,L|528:343,1,131.25,6|8,3:2|2:2,2:2:0:0:
327,274,71434,1,8,2:2:0:0:
271,347,71546,2,0,P|216:370|110:323,1,131.25,2|8,3:2|2:2,2:2:0:0:
15,244,71885,1,0,3:2:0:0:
73,193,71998,1,8,2:2:0:0:
148,184,72110,1,8,2:2:0:0:
218,215,72223,1,8,2:2:0:0:
287,247,72336,1,8,2:2:0:0:
363,241,72449,6,0,L|373:150,1,65.625,2|0,3:2|2:2,2:2:0:0:
261,72,72674,1,8,2:2:0:0:
377,146,72787,1,8,2:2:0:0:
267,43,72900,6,0,B|204:35|204:35|118:60,1,131.25,6|8,3:2|2:2,2:2:0:0:
31,163,73238,1,8,2:2:0:0:
31,163,73351,2,0,B|94:171|94:171|180:146,1,131.25,2|8,3:2|2:2,2:2:0:0:
291,199,73689,1,0,3:2:0:0:
223,270,73802,6,0,P|210:323|208:355,1,65.625,6|0,3:2|2:2,2:2:0:0:
386,214,74028,1,8,2:2:0:0:
386,214,74140,1,8,2:2:0:0:
386,214,74253,2,0,P|381:181|371:150,1,65.625,2|0,3:2|2:2,2:2:0:0:
459,114,74479,2,0,P|438:88|414:65,1,65.625,8|0,2:2|2:2,2:2:0:0:
201,59,74704,6,0,P|261:81|339:54,1,131.25,6|8,3:2|2:2,2:2:0:0:
155,157,75043,2,0,L|5:147,1,131.25,2|0,3:2|3:2,2:2:0:0:
204,246,75381,2,0,L|305:231,1,65.625,10|8,2:2|2:2,2:2:0:0:
455,242,75607,5,0,3:3:0:0:
417,313,75719,1,0,3:3:0:0:
347,355,75832,1,8,2:2:0:0:
267,354,75945,1,8,2:2:0:0:
198,311,76058,2,0,L|204:239,1,65.625,4|4,2:3|2:3,2:2:0:0:
51,318,76283,2,0,L|56:383,1,65.625,4|4,2:3|2:3,2:2:0:0:
286,265,76509,6,0,P|291:232|280:173,1,65.625,6|0,3:2|2:2,2:2:0:0:
239,130,76734,1,10,2:2:0:0:
371,286,76847,2,0,P|380:238|355:130,1,131.25,2|0,3:2|3:2,2:2:0:0:
176,28,77186,6,0,L|168:101,1,65.625,8|8,2:2|2:2,2:2:0:0:
93,283,77411,2,0,L|79:218,1,65.625,6|0,3:2|2:2,2:2:0:0:
117,152,77637,1,10,2:2:0:0:
25,340,77749,2,0,L|0:211,1,131.25,2|0,3:2|3:2,2:2:0:0:
227,265,78088,6,0,P|229:302|220:334,1,65.625,10|8,2:2|2:2,2:2:0:0:
366,199,78313,2,0,L|337:119,1,65.625,6|0,3:2|2:2,2:2:0:0:
151,210,78539,2,0,B|220:227|220:227|299:199,1,131.25,10|0,2:2|3:2,2:2:0:0:
115,125,78877,1,2,3:2:0:0:
64,199,78990,2,0,L|67:286,1,65.625,10|8,2:2|2:2,2:2:0:0:
212,138,79216,6,0,L|204:50,1,65.625,6|0,3:2|2:2,2:2:0:0:
377,165,79441,2,0,L|371:230,1,65.625,8|0,2:2|2:2,2:2:0:0:
301,118,79667,1,4,2:3:0:0:
376,78,79780,1,4,2:3:0:0:
451,123,79892,2,0,L|456:57,1,65.625,4|4,2:3|2:3,2:2:0:0:
299,209,80118,6,0,B|398:162|416:250|525:189,1,220.499993270874,6|0,3:2|2:2,2:2:0:0:
225,150,80569,2,0,P|216:236|352:289,1,236.250009012223,6|0,3:2|2:2,2:2:0:0:
447,131,81020,5,8,2:2:0:0:
410,50,81246,1,8,2:2:0:0:
359,123,81471,1,8,2:2:0:0:
86,36,81697,5,6,3:2:0:0:
103,47,82712,5,8,2:3:0:0:
103,47,82768,1,8,2:3:0:0:
103,47,82825,6,0,B|172:52|172:52|208:81|208:81|334:89,2,188.999994232178,6|8|4,2:2|2:3|2:3,2:2:0:0:
360,109,83727,5,2,3:2:0:0:
429,73,84178,1,2,2:2:0:0:
490,124,84629,1,2,2:2:0:0:
421,160,84967,1,2,2:2:0:0:
421,160,85080,1,8,2:2:0:0:
315,94,85306,6,0,P|232:77|82:169,1,251.999992309571,6|2,3:2|3:2,2:2:0:0:
172,198,85983,1,8,2:3:0:0:
132,15,86208,1,4,2:3:0:0:
9,164,86434,2,0,B|60:151|104:176|104:176|168:157|168:157|220:189|281:167,1,272.999987503052,6|0,3:2|2:2,2:2:0:0:
