osu file format v14

[General]
AudioFilename: audio.mp3
AudioLeadIn: 0
PreviewTime: 50272
Countdown: 0
SampleSet: Soft
StackLeniency: 0.7
Mode: 0
LetterboxInBreaks: 0
WidescreenStoryboard: 1

[Editor]
Bookmarks: 46437
DistanceSpacing: 1.4
BeatDivisor: 4
GridSize: 8
TimelineZoom: 1

[Metadata]
Title:Seishun Seminar (TV Size)
TitleUnicode:セイシュンゼミナール (TV Size)
Artist:Study
ArtistUnicode:Study
Creator:Blizs
Version:Just Study
Source:ぼくたちは勉強ができない
Tags:we can't cant never learn bokutachi wa benkyou ga dekinai bokuben opening op 古橋文乃 furuhashi fumino 白石晴香 shiraishi haruka 緒方理珠 ogata rizu 富田美憂 tomita miyu 武元うるか takemoto uruka 鈴代紗弓 suzushiro sayumi anime japanese
BeatmapID:2114994
BeatmapSetID:1009808

[Difficulty]
HPDrainRate:7
CircleSize:4
OverallDifficulty:8.5
ApproachRate:9.3
SliderMultiplier:2.8
SliderTickRate:1

[Events]
//Background and Video events
Video,-894,"OP.avi"
0,0,"OP.jpg",0,0
//Break Periods
//Storyboard Layer 0 (Background)
//Storyboard Layer 1 (Fail)
//Storyboard Layer 2 (Pass)
//Storyboard Layer 3 (Foreground)
//Storyboard Sound Samples

[TimingPoints]
1531,545.454545454546,4,2,1,30,1,0
1531,-285.714285714286,4,2,1,30,0,0
14621,576.923076923077,4,2,1,30,1,0
14621,-285.714285714286,4,2,1,30,0,0
15774,588.235294117647,4,2,1,30,1,0
16656,800,4,2,1,30,1,0
17056,800,4,2,1,30,1,0
18976,451.127819548872,4,2,1,70,1,0
18976,-111.111111111111,4,2,1,70,0,0
21682,451.127819548872,4,2,1,70,1,0
21682,-100,4,2,1,70,0,0
27998,-90.9090909090908,4,2,1,70,0,0
28900,-100,4,2,1,70,0,0
35215,-90.9090909090908,4,2,1,70,0,0
36118,-166.666666666667,4,2,1,60,0,0
42433,-100,4,2,1,30,0,0
42660,-100,4,2,1,40,0,0
42885,-100,4,2,1,50,0,0
43111,-100,4,2,1,60,0,0
43336,-90.9090909090908,4,2,1,70,0,0
46945,-142.857142857143,4,2,1,70,0,0
47848,-125,4,2,1,30,0,0
48073,-125,4,2,1,40,0,0
48299,-125,4,2,1,50,0,0
48524,-125,4,2,1,60,0,0
48749,-333.333333333333,4,2,1,70,0,0
48806,-333.333333333333,4,2,1,30,0,0
50554,-90.9090909090909,4,2,1,80,0,1
61382,-100,4,2,1,90,0,1
64991,-100,4,2,1,80,0,1
75818,-100,4,2,1,90,0,1
81005,-111.111111111111,4,2,1,50,0,0
83036,-166.666666666667,4,2,1,40,0,0
84389,-111.111111111111,4,2,1,70,0,0
84615,-111.111111111111,4,2,1,80,0,0
85291,-111.111111111111,4,2,1,83,0,0
85517,-111.111111111111,4,2,1,87,0,0
85742,-111.111111111111,4,2,1,90,0,0

[Colours]
Combo1 : 219,47,255
Combo2 : 151,174,255
Combo3 : 255,193,132
Combo4 : 235,122,156
Combo5 : 255,191,245

[HitObjects]
97,64,1531,5,2,0:0:0:0:
117,206,1803,1,2,0:0:0:0:
184,79,2076,1,2,0:0:0:0:
56,142,2349,1,2,0:0:0:0:
196,167,2621,2,0,P|214:194|221:212,1,48.9999985046387,2|0,0:0|0:0,0:0:0:0:
241,215,3031,2,0,P|234:246|226:264,1,48.9999985046387,2|0,0:0|0:0,0:0:0:0:
238,281,3440,1,2,0:0:0:0:
407,329,3712,5,2,0:0:0:0:
387,187,3984,1,2,0:0:0:0:
320,314,4257,1,2,0:0:0:0:
448,251,4530,1,2,0:0:0:0:
308,226,4803,2,0,P|290:199|283:181,1,48.9999985046387,2|0,0:0|0:0,0:0:0:0:
263,178,5212,2,0,P|269:146|277:128,1,48.9999985046387,2|0,0:0|0:0,0:0:0:0:
266,112,5621,1,2,0:0:0:0:
97,64,5894,5,2,0:0:0:0:
56,142,6167,1,2,0:0:0:0:
117,206,6440,1,2,0:0:0:0:
53,338,6712,1,0,0:0:0:0:
47,330,6849,1,0,0:0:0:0:
42,323,6985,2,0,L|31:226,1,97.9999970092774,2|0,0:0|0:0,0:0:0:0:
97,64,7803,1,0,0:0:0:0:
202,185,8076,6,0,P|248:201|297:203,2,97.9999970092774,2|0|0,0:0|0:0|0:0,0:0:0:0:
203,186,9712,1,0,0:0:0:0:
142,122,9985,1,0,0:0:0:0:
179,271,10258,6,0,P|173:311|163:362,1,73.4999977569581,2|0,0:0|0:0,0:0:0:0:
454,313,11076,1,0,0:0:0:0:
394,249,11349,2,0,P|389:225|385:201,1,48.9999985046387,2|0,0:0|0:0,0:0:0:0:
368,186,11758,2,0,P|368:173|369:161,1,24.4999992523194,0|2,0:0|0:0,0:0:0:0:
454,313,12167,1,2,0:0:0:0:
435,88,12440,5,2,0:0:0:0:
355,144,12712,1,2,0:0:0:0:
257,153,12985,1,2,0:0:0:0:
167,112,13258,1,2,0:0:0:0:
298,63,13531,1,2,0:0:0:0:
282,161,13803,1,2,0:0:0:0:
219,237,14076,1,2,0:0:0:0:
254,329,14349,1,2,0:0:0:0:
500,260,14621,5,2,0:0:0:0:
410,219,14909,1,2,0:0:0:0:
317,253,15197,1,2,0:0:0:0:
276,343,15486,1,2,0:0:0:0:
282,161,15774,5,2,0:0:0:0:
219,237,16068,1,2,0:0:0:0:
120,246,16362,1,2,0:0:0:0:
44,183,16656,1,2,0:0:0:0:
189,29,17056,1,2,0:0:0:0:
187,39,17122,1,2,0:0:0:0:
185,49,17189,1,2,0:0:0:0:
184,60,17256,1,2,0:0:0:0:
184,60,19652,5,2,0:0:0:0:
184,60,19765,1,2,0:0:0:0:
326,97,19878,1,10,0:0:0:0:
303,183,19991,2,0,P|250:214|188:213,1,125.999996154785,8|8,0:0|0:0,0:0:0:0:
22,75,20329,1,8,0:0:0:0:
88,134,20442,2,0,P|100:196|112:258,1,125.999996154785,8|8,0:0|0:0,0:0:0:0:
252,365,20780,2,0,P|246:334|240:303,1,62.9999980773926,8|0,0:0|0:0,0:0:0:0:
291,121,21006,2,0,P|297:152|303:183,1,62.9999980773926,8|0,0:0|0:0,0:0:0:0:
443,290,21231,2,0,P|437:259|431:228,1,62.9999980773926,8|0,0:0|0:0,0:0:0:0:
451,30,21457,1,8,0:0:0:0:
387,150,21569,1,8,0:0:0:0:
314,34,21682,6,0,P|278:29|245:20,1,70,4|0,3:2|0:0,0:0:0:0:
55,128,21907,2,0,P|124:115|193:103,1,140,8|0,0:0|3:0,0:0:0:0:
451,30,22358,1,8,0:0:0:0:
451,30,22471,1,0,3:0:0:0:
480,123,22584,2,0,P|472:157|466:213,1,70,0|0,3:0|0:0,0:0:0:0:
487,370,22809,1,8,0:0:0:0:
394,337,22923,2,0,P|384:268|368:200,1,140,0|0,3:0|3:0,0:0:0:0:
245,20,23260,2,0,P|279:29|314:34,1,70,8|0,0:0|0:0,0:0:0:0:
192,103,23486,6,0,P|123:115|55:128,1,140,0|8,3:0|0:0,0:0:0:0:
50,340,23824,1,0,3:0:0:0:
128,278,23938,2,0,P|135:244|141:210,1,70,0|0,3:0|0:0,0:0:0:0:
28,74,24163,2,0,P|33:108|40:142,1,70,8|0,0:0|0:0,0:0:0:0:
208,337,24388,2,0,P|246:305|354:326,1,140,0|8,3:0|0:0,0:0:0:0:
495,295,24727,2,0,P|488:329|481:363,1,70,0|0,3:0|0:0,0:0:0:0:
396,179,24952,1,0,3:0:0:0:
396,179,25065,2,0,P|402:213|409:247,1,70,8|0,0:0|0:0,0:0:0:0:
481,131,25291,6,0,P|488:97|495:63,1,70,4|0,3:2|0:0,0:0:0:0:
310,129,25516,2,0,P|241:127|192:79,1,140,8|0,0:0|3:0,0:0:0:0:
57,8,25854,1,0,3:0:0:0:
95,100,25968,2,0,P|102:134|109:169,1,70,8|0,0:0|0:0,0:0:0:0:
35,345,26193,2,0,P|28:311|22:277,1,70,0|0,3:0|0:0,0:0:0:0:
12,180,26418,1,8,0:0:0:0:
119,266,26531,2,0,P|188:278|256:291,1,140,0|0,3:0|3:0,0:0:0:0:
438,296,26869,2,0,P|445:330|451:364,1,70,8|0,0:0|0:0,0:0:0:0:
353,247,27095,6,0,P|394:193|386:120,1,140,0|8,3:0|0:0,0:0:0:0:
308,67,27433,1,0,0:0:0:0:
160,139,27547,2,0,P|229:151|298:165,1,140,0|8,3:0|0:0,0:0:0:0:
438,296,27885,1,0,0:0:0:0:
353,247,27997,2,0,P|319:252|285:259,1,70,0|0,3:0|3:0,0:0:0:0:
81,339,28223,2,0,P|119:346|157:354,1,77.0000023498536,8|0,0:0|3:0,0:0:0:0:
438,296,28448,1,8,3:2:0:0:
437,198,28561,1,8,3:2:0:0:
353,247,28674,1,8,3:0:0:0:
420,176,28787,1,4,3:0:0:0:
391,80,28900,6,0,P|384:46|379:12,1,70,4|0,3:2|0:0,0:0:0:0:
284,176,29125,1,10,0:0:0:0:
284,176,29238,2,0,P|291:142|297:108,1,70,2|0,0:2|3:0,0:0:0:0:
140,166,29463,1,2,0:0:0:0:
139,167,29576,2,0,P|168:148|196:127,1,70,10|0,0:0|0:0,0:0:0:0:
44,57,29802,1,2,3:2:0:0:
43,57,29915,2,0,P|77:64|111:69,1,70,2|8,0:0|0:0,0:0:0:0:
379,12,30140,1,2,0:0:0:0:
379,12,30253,2,0,P|384:46|391:80,1,70,2|2,3:2|0:0,0:0:0:0:
284,176,30478,2,0,P|291:142|297:108,1,70,10|0,0:2|0:0,0:0:0:0:
365,230,30704,6,0,P|311:272|243:266,1,140,0|8,3:0|0:0,0:0:0:0:
143,61,31042,1,0,3:0:0:0:
50,94,31155,2,0,P|43:128|36:162,1,70,0|0,3:0|0:0,0:0:0:0:
227,250,31381,2,0,P|219:215|213:181,1,70,8|0,0:0|0:0,0:0:0:0:
143,61,31606,2,0,P|130:129|116:198,1,140,0|8,3:0|0:0,0:0:0:0:
92,336,31945,2,0,P|126:329|161:323,1,70,0|0,3:0|0:0,0:0:0:0:
296,263,32170,1,0,3:0:0:0:
296,263,32283,2,0,P|261:257|227:249,1,70,8|0,0:0|0:0,0:0:0:0:
363,338,32509,6,0,P|397:329|431:323,1,70,4|0,3:2|0:0,0:0:0:0:
474,218,32734,2,0,P|405:224|352:183,1,140,8|0,0:0|3:0,0:0:0:0:
433,129,33072,1,0,3:0:0:0:
296,263,33185,2,0,P|261:257|227:249,1,70,8|0,0:0|0:0,0:0:0:0:
28,186,33411,2,0,P|35:220|42:254,1,70,0|0,3:0|0:0,0:0:0:0:
172,379,33636,1,8,0:0:0:0:
135,287,33749,2,0,P|121:218|107:149,1,140,0|0,3:0|3:0,0:0:0:0:
4,19,34088,2,0,P|20:50|51:67,1,70,8|0,0:0|0:0,0:0:0:0:
379,22,34313,6,0,P|311:12|256:51,1,140,0|8,3:0|0:0,0:0:0:0:
324,206,34651,1,0,3:0:0:0:
421,201,34764,2,0,P|396:137|334:109,1,140,0|8,3:0|0:0,0:0:0:0:
234,245,35103,1,0,3:0:0:0:
327,281,35215,2,0,P|332:243|324:206,1,77.0000023498536,0|0,3:0|3:0,0:0:0:0:
161,14,35441,2,0,P|156:52|165:89,1,77.0000023498536,8|0,0:0|3:0,0:0:0:0:
234,245,35666,1,8,0:0:0:0:
165,183,35779,1,0,3:0:0:0:
73,196,35892,1,8,3:0:0:0:
24,275,36005,1,4,3:0:0:0:
54,362,36118,6,0,B|107:371|158:361|158:361|190:334|190:334|242:324|295:333,1,251.999992309571,4|0,3:2|0:0,0:0:0:0:
471,356,37020,1,2,0:0:0:0:
471,356,37133,2,0,P|460:307|462:267,1,83.9999974365235,2|0,0:0|0:0,0:0:0:0:
507,193,37471,1,8,0:0:0:0:
369,113,37697,1,2,0:0:0:0:
368,272,37922,6,0,P|362:313|357:355,1,83.9999974365235,8|0,0:0|0:0,0:0:0:0:
255,250,38260,2,0,P|260:292|267:334,1,83.9999974365235,8|0,0:0|0:0,0:0:0:0:
156,297,38599,2,0,P|163:316|171:335,1,41.9999987182618,8|0,0:0|0:0,0:0:0:0:
5,291,38824,1,2,0:0:0:0:
82,239,38937,2,0,P|108:207|117:166,1,83.9999974365235,8|0,0:0|0:0,0:0:0:0:
0,40,39275,1,8,0:0:0:0:
0,40,39388,2,0,P|14:79|45:108,1,83.9999974365235,8|0,0:0|0:0,0:0:0:0:
205,134,39727,6,0,P|211:91|219:34,1,83.9999974365235,2|0,0:0|0:0,0:0:0:0:
244,332,40178,2,0,P|248:291|254:249,1,83.9999974365235,8|0,0:0|0:0,0:0:0:0:
333,169,40516,2,0,P|336:190|339:211,1,41.9999987182618,8|0,0:0|0:0,0:0:0:0:
416,129,40742,2,0,P|421:87|426:45,1,83.9999974365235,8|0,0:0|0:0,0:0:0:0:
336,20,41080,2,0,P|294:37|242:39,1,83.9999974365235,8|0,0:0|0:0,0:0:0:0:
194,109,41418,1,8,0:0:0:0:
180,106,41531,6,0,P|141:90|109:63,1,83.9999974365235,2|0,0:0|0:0,0:0:0:0:
6,172,41869,2,0,P|48:167|90:162,1,83.9999974365235,8|0,0:0|0:0,0:0:0:0:
194,235,42208,2,0,P|173:232|152:230,1,41.9999987182618,8|0,0:0|0:0,0:0:0:0:
1,265,42433,5,8,0:0:0:0:
10,278,42509,1,8,0:0:0:0:
20,294,42584,1,8,0:0:0:0:
26,309,42659,1,8,0:0:0:0:
30,326,42734,1,8,0:0:0:0:
33,344,42809,1,8,0:0:0:0:
35,361,42885,2,0,P|58:357|81:355,2,46.6666666666667,8|8|8,0:0|0:0|0:0,0:0:0:0:
240,240,43110,2,0,P|217:238|194:234,2,46.6666666666667,8|8|8,0:0|0:0|0:0,0:0:0:0:
352,361,43336,6,0,P|414:369|478:309,1,154.000004699707,4|0,3:2|3:0,0:0:0:0:
410,138,43674,2,0,B|379:174|379:174|393:280,1,154.000004699707,8|0,0:0|3:0,0:0:0:0:
502,131,44012,2,0,L|511:54,1,77.0000023498536,8|0,0:0|3:0,0:0:0:0:
347,14,44238,1,8,0:0:0:0:
347,14,44351,2,0,P|384:25|417:43,1,77.0000023498536,8|0,0:0|3:0,0:0:0:0:
239,127,44576,1,8,0:0:0:0:
239,127,44689,2,0,P|273:109|310:99,1,77.0000023498536,8|0,0:0|3:0,0:0:0:0:
89,48,44915,2,0,P|122:65|159:76,1,77.0000023498536,8|0,0:0|3:0,0:0:0:0:
16,168,45140,6,0,L|7:91,1,77.0000023498536,8|0,0:0|3:0,0:0:0:0:
118,244,45366,1,0,3:0:0:0:
118,244,45478,2,0,L|109:167,1,77.0000023498536,8|0,0:0|3:0,0:0:0:0:
220,320,45704,1,0,3:0:0:0:
220,320,45817,2,0,L|211:243,1,77.0000023498536,8|0,0:0|3:0,0:0:0:0:
15,319,46042,1,8,3:0:0:0:
15,318,46155,2,0,P|66:373|141:369,1,154.000004699707,8|8,3:0|3:0,0:0:0:0:
287,234,46494,2,0,P|249:239|211:243,1,77.0000023498536,8|4,3:0|3:0,0:0:0:0:
420,146,46719,2,0,P|458:151|497:155,1,77.0000023498536,8|4,3:0|3:0,0:0:0:0:
287,58,46945,6,0,P|214:67|141:75,1,146.999995513916,4|0,3:2|0:0,0:0:0:0:
69,7,47396,2,0,P|30:36|3:76,1,97.9999970092774,0|0,3:0|0:0,0:0:0:0:
123,308,47847,5,8,0:0:0:0:
139,310,47922,1,8,0:0:0:0:
155,312,47997,1,8,0:0:0:0:
171,314,48072,1,8,0:0:0:0:
188,316,48148,1,8,0:0:0:0:
204,318,48223,1,8,0:0:0:0:
220,320,48298,2,0,P|238:322|257:324,2,37.3333333333333,8|8|8,0:0|0:0|0:0,0:0:0:0:
333,262,48524,2,0,P|344:276|355:291,2,37.3333333333333,8|8|8,0:0|0:0|0:0,0:0:0:0:
448,337,48749,6,0,P|457:260|465:184,1,153.999995300293,4|2,3:2|0:0,0:0:0:0:
466,173,49651,1,2,0:0:0:0:
467,162,49708,1,2,0:0:0:0:
469,151,49764,1,2,0:0:0:0:
483,54,50328,5,2,0:0:0:0:
392,91,50441,1,2,0:0:0:0:
307,40,50554,2,0,P|270:50|232:52,1,77.0000023498536,4|0,3:2|0:0,0:0:0:0:
