osu file format v14

[General]
AudioFilename: audio.mp3
AudioLeadIn: 0
PreviewTime: 54496
Countdown: 0
SampleSet: Normal
StackLeniency: 0.7
Mode: 1
LetterboxInBreaks: 0
WidescreenStoryboard: 0

[Editor]
DistanceSpacing: 1.1
BeatDivisor: 4
GridSize: 32
TimelineZoom: 1.4

[Metadata]
Title:Never Give It Up!! (TV Size)
TitleUnicode:Never Give It Up!! (TV Size)
Artist:Study
ArtistUnicode:Study
Creator:yurishe
Version:Keep It Up!!
Source:ぼくたちは勉強ができない
Tags:roxorotto anime ending ed japanese pop jpop j-pop bokutachi wa benkyou ga dekinai bokuben we never can't cant study learn female vocals Haruka Shiraishi 白石 晴香 Miyu Tomita 富田 美憂 Sayumi Suzushiro 鈴代 紗弓
BeatmapID:3665451
BeatmapSetID:1788939

[Difficulty]
HPDrainRate:6
CircleSize:5
OverallDifficulty:6
ApproachRate:5
SliderMultiplier:1.4
SliderTickRate:1

[Events]
//Background and Video events
0,0,"bground.jpg",0,55
Video,983,"output.mp4"
//Break Periods
//Storyboard Layer 0 (Background)
//Storyboard Layer 1 (Fail)
//Storyboard Layer 2 (Pass)
//Storyboard Layer 3 (Foreground)
//Storyboard Layer 4 (Overlay)
//Storyboard Sound Samples

[TimingPoints]
570,368.098159509202,4,1,0,75,1,0
1214,-100,4,1,0,30,0,0
1674,-100,4,1,0,40,0,0
2042,-100,4,1,0,50,0,0
2410,-100,4,1,0,60,0,0
2778,-100,4,1,0,70,0,0
9772,-125,4,1,0,40,0,0
15201,-125,4,1,0,70,0,0
15569,-125,4,1,0,70,0,0
15751,-123.076923076923,4,1,0,70,0,0
15843,-121.212121212121,4,1,0,70,0,0
15935,-119.402985074627,4,1,0,70,0,0
16027,-117.647058823529,4,1,0,70,0,0
16119,-115.942028985507,4,1,0,70,0,0
16211,-114.285714285714,4,1,0,70,0,0
16303,-112.676056338028,4,1,0,70,0,0
16395,-111.111111111111,4,1,0,70,0,0
16487,-109.58904109589,4,1,0,70,0,0
16579,-108.108108108108,4,1,0,70,0,0
16671,-106.666666666667,4,1,0,70,0,0
16763,-105.263157894737,4,1,0,70,0,0
16855,-103.896103896104,4,1,0,70,0,0
16947,-102.564102564103,4,1,0,70,0,0
17039,-101.26582278481,4,1,0,70,0,0
17131,-100,4,1,0,70,0,0
17223,-98.7654320987654,4,1,0,70,0,0
17315,-97.5609756097561,4,1,0,70,0,0
17407,-96.3855421686747,4,1,0,70,0,0
17499,-95.2380952380952,4,1,0,70,0,0
17591,-94.1176470588235,4,1,0,70,0,0
17683,-93.0232558139535,4,1,0,70,0,0
17775,-91.9540229885057,4,1,0,70,0,0
17867,-90.9090909090909,4,1,0,70,0,0
18146,-100,4,1,0,50,0,0
27254,-104.651162790698,4,1,0,50,0,0
27438,-107.142857142857,4,1,0,50,0,0
27806,-112.5,4,1,0,50,0,0
27990,-115.384615384615,4,1,0,50,0,0
28358,-121.621621621622,4,1,0,50,0,0
28542,-125,4,1,0,50,0,0
28821,-83.3333333333333,4,1,0,70,0,0
29925,-95.2380952380952,4,1,0,60,0,0
40597,-96.551724137931,4,1,0,60,0,0
40689,-97.9020979020979,4,1,0,60,0,0
40781,-99.290780141844,4,1,0,60,0,0
40873,-100.719424460432,4,1,0,60,0,0
40965,-102.189781021898,4,1,0,60,0,0
41057,-103.703703703704,4,1,0,60,0,0
41241,-106.870229007634,4,1,0,60,0,0
41425,-110.236220472441,4,1,0,60,0,0
41517,-112,4,1,0,60,0,0
41609,-113.821138211382,4,1,0,60,0,0
41701,-115.702479338843,4,1,0,60,0,0
41793,-117.647058823529,4,1,0,60,0,0
42073,-117.647058823529,4,1,0,40,0,0
50539,-117.647058823529,4,1,0,70,0,0
52100,-111.111111111111,4,1,0,70,0,0
52284,-108.109100253295,4,1,0,70,0,0
52376,-106.668115469593,4,1,0,70,0,0
52468,-105.265039139293,4,1,0,70,0,0
52560,-103.898394778621,4,1,0,70,0,0
52652,-102.566781597186,4,1,0,70,0,0
52744,-101.268869708745,4,1,0,70,0,0
52836,-100.003395701042,4,1,0,70,0,0
53020,-97.5650157362929,4,1,0,70,0,0
53113,-96.3772621657885,4,1,0,70,0,0
53205,-95.2303961196443,4,1,0,70,0,0
53297,-94.1105039465695,4,1,0,70,0,0
53389,-93.0166450838571,4,1,0,70,0,0
53481,-91.9479221955103,4,1,0,70,0,0
53573,-90.9034787171652,4,1,0,70,0,0
53757,-88.8841940059759,4,1,0,70,0,0
53849,-87.9078236470553,4,1,0,70,0,0
53941,-86.9526705837196,4,1,0,70,0,0
54125,-85.1033087704089,4,1,0,70,0,0
54217,-84.2078174591828,4,1,0,70,0,0
54309,-83.3309753544042,4,1,0,70,0,0
54493,-81.6309560107548,4,1,0,70,0,0
54585,-80.806695019893,4,1,0,70,0,0
54677,-79.9989134273219,4,1,0,70,0,0
54861,-78.4308503555354,4,1,0,70,0,0
54953,-77.6696468602474,4,1,0,70,0,0
55048,-76.9230769230769,4,1,0,90,0,1
55416,-83.3333333333333,4,1,0,90,0,1
66272,-85.1063829787234,4,1,0,90,0,1
66456,-86.9565217391304,4,1,0,90,0,1
66548,-87.9120879120879,4,1,0,90,0,1
66640,-88.8888888888889,4,1,0,90,0,1
66827,-90.9090909090909,4,1,0,70,0,0
77315,-93.0232558139535,4,1,0,70,0,0
77407,-94.1176470588235,4,1,0,70,0,0
77499,-95.2380952380952,4,1,0,70,0,0
77683,-97.5609756097561,4,1,0,70,0,0
77775,-98.7654320987654,4,1,0,70,0,0
77867,-100,4,1,0,70,0,0
77959,-101.26582278481,4,1,0,70,0,0
78051,-102.564102564103,4,1,0,70,0,0
78143,-103.896103896104,4,1,0,70,0,0
78235,-105.263157894737,4,1,0,70,0,0
78419,-108.108108108108,4,1,0,70,0,0
78511,-109.58904109589,4,1,0,70,0,0
78603,-111.111111111111,4,1,0,70,0,0
78882,-111.111111111111,4,1,0,50,0,0
84404,-83.3333333333333,4,1,0,90,0,0
87809,-100,4,1,0,70,0,0
88177,-83.3333333333333,4,1,0,60,0,0
88545,-83.3333333333333,4,1,0,50,0,0
88913,-83.3333333333333,4,1,0,40,0,0
89281,-83.3333333333333,4,1,0,30,0,0

[HitObjects]
256,192,1306,12,0,3330,0:0:0:0:
256,191,3514,5,12,0:0:0:0:
256,185,3698,1,8,0:0:0:0:
256,185,3760,1,8,0:0:0:0:
256,185,3821,1,8,0:0:0:0:
256,185,3882,1,0,0:0:0:0:
256,185,4066,1,0,0:0:0:0:
256,185,4128,1,0,0:0:0:0:
256,185,4189,1,0,0:0:0:0:
256,185,4250,1,8,0:0:0:0:
261,183,4435,1,0,0:0:0:0:
256,191,4527,1,0,0:0:0:0:
258,190,4619,1,8,0:0:0:0:
259,189,4803,1,0,0:0:0:0:
259,189,4987,1,8,0:0:0:0:
259,189,5079,1,8,0:0:0:0:
259,189,5171,1,0,0:0:0:0:
259,189,5263,1,0,0:0:0:0:
259,189,5355,1,8,0:0:0:0:
256,191,5539,1,0,0:0:0:0:
259,189,5723,1,12,0:0:0:0:
259,189,5907,1,0,0:0:0:0:
259,189,5999,1,0,0:0:0:0:
259,189,6091,1,8,0:0:0:0:
259,189,6183,1,8,0:0:0:0:
266,190,6275,1,8,0:0:0:0:
266,190,6367,1,8,0:0:0:0:
266,190,6459,1,0,0:0:0:0:
265,192,6643,1,8,0:0:0:0:
265,192,6704,1,8,0:0:0:0:
265,192,6766,1,8,0:0:0:0:
265,192,6827,1,0,0:0:0:0:
263,193,7011,1,0,0:0:0:0:
263,193,7073,1,0,0:0:0:0:
263,193,7134,1,0,0:0:0:0:
263,193,7195,1,8,0:0:0:0:
266,190,7379,1,8,0:0:0:0:
265,192,7563,1,8,0:0:0:0:
265,192,7747,1,0,0:0:0:0:
265,192,7839,1,0,0:0:0:0:
263,193,7931,1,8,0:0:0:0:
263,193,8116,1,0,0:0:0:0:
266,190,8300,1,8,0:0:0:0:
256,192,8392,1,0,0:0:0:0:
265,192,8484,1,8,0:0:0:0:
265,192,8668,1,12,0:0:0:0:
265,192,8852,1,0,0:0:0:0:
266,187,9036,1,8,0:0:0:0:
271,193,9097,1,8,0:0:0:0:
271,193,9158,1,8,0:0:0:0:
271,193,9220,1,0,0:0:0:0:
278,187,9404,1,4,0:0:0:0:
270,193,9956,1,8,0:0:0:0:
270,193,10140,1,8,0:0:0:0:
270,193,10324,1,0,0:0:0:0:
270,193,10876,1,8,0:0:0:0:
270,193,11060,1,0,0:0:0:0:
270,193,11428,1,8,0:0:0:0:
270,193,11796,1,0,0:0:0:0:
270,193,11981,1,8,0:0:0:0:
270,193,12349,1,4,0:0:0:0:
270,193,12901,1,8,0:0:0:0:
270,193,13085,1,8,0:0:0:0:
270,193,13269,1,0,0:0:0:0:
270,193,13637,1,0,0:0:0:0:
270,193,13821,1,8,0:0:0:0:
270,193,14005,1,0,0:0:0:0:
270,193,14373,1,8,0:0:0:0:
270,193,14741,1,0,0:0:0:0:
270,193,14925,1,8,0:0:0:0:
270,193,15293,1,4,0:0:0:0:
270,199,15662,1,8,0:0:0:0:
276,203,15754,1,0,0:0:0:0:
276,203,15846,1,8,0:0:0:0:
276,203,15938,1,0,0:0:0:0:
276,203,16030,1,8,0:0:0:0:
276,203,16122,1,8,0:0:0:0:
276,203,16214,1,8,0:0:0:0:
276,203,16306,1,8,0:0:0:0:
276,203,16398,1,0,0:0:0:0:
276,203,16490,1,0,0:0:0:0:
276,203,16582,1,0,0:0:0:0:
276,203,16674,1,0,0:0:0:0:
276,203,16766,1,8,0:0:0:0:
276,203,16858,1,8,0:0:0:0:
276,203,16950,1,8,0:0:0:0:
276,203,17042,1,8,0:0:0:0:
276,203,17134,1,8,0:0:0:0:
276,203,17226,1,8,0:0:0:0:
276,203,17318,1,8,0:0:0:0:
276,203,17410,1,8,0:0:0:0:
276,203,17502,1,8,0:0:0:0:
276,203,17594,1,8,0:0:0:0:
276,203,17686,1,0,0:0:0:0:
276,203,17778,1,0,0:0:0:0:
276,203,17870,1,12,0:0:0:0:
276,203,18238,1,4,0:0:0:0:
276,203,18606,1,8,0:0:0:0:
276,203,18882,1,0,0:0:0:0:
276,203,18974,1,8,0:0:0:0:
276,203,19158,1,0,0:0:0:0:
286,203,19250,1,0,0:0:0:0:
276,203,19343,1,8,0:0:0:0:
276,203,19527,1,4,0:0:0:0:
276,203,19895,1,0,0:0:0:0:
276,203,20079,1,8,0:0:0:0:
276,203,20447,1,8,0:0:0:0:
276,203,20631,1,0,0:0:0:0:
276,203,20815,1,8,0:0:0:0:
276,203,21183,1,4,0:0:0:0:
276,203,21551,1,8,0:0:0:0:
276,203,21827,1,0,0:0:0:0:
276,203,21919,1,8,0:0:0:0:
276,203,22103,1,8,0:0:0:0:
276,203,22195,1,8,0:0:0:0:
276,203,22287,1,0,0:0:0:0:
276,203,22471,1,4,0:0:0:0:
276,203,22839,1,0,0:0:0:0:
276,203,23023,1,8,0:0:0:0:
276,203,23208,1,4,0:0:0:0:
271,194,23576,1,0,0:0:0:0:
271,194,23760,1,8,0:0:0:0:
276,203,23852,1,8,0:0:0:0:
271,194,23944,1,0,0:0:0:0:
271,194,24128,1,12,0:0:0:0:
271,194,24312,1,0,0:0:0:0:
271,194,24496,1,8,0:0:0:0:
271,194,24588,1,0,0:0:0:0:
271,194,24680,1,8,0:0:0:0:
271,194,24864,1,12,0:0:0:0:
271,194,25048,1,0,0:0:0:0:
271,194,25232,1,8,0:0:0:0:
281,195,25416,1,8,0:0:0:0:
271,194,25477,1,8,0:0:0:0:
271,194,25539,1,8,0:0:0:0:
271,194,25600,1,4,0:0:0:0:
276,200,25968,1,8,0:0:0:0:
276,200,26152,1,4,0:0:0:0:
276,200,26520,1,0,0:0:0:0:
276,200,26704,1,8,0:0:0:0:
276,200,26889,1,12,0:0:0:0:
276,200,27257,1,0,0:0:0:0:
276,200,27441,1,8,0:0:0:0:
276,200,27993,1,0,0:0:0:0:
276,200,28545,1,8,0:0:0:0:
276,200,28913,1,12,0:0:0:0:
276,200,29097,1,0,0:0:0:0:
276,200,30017,1,4,0:0:0:0:
276,205,30201,1,8,0:0:0:0:
277,205,30263,1,8,0:0:0:0:
277,205,30324,1,8,0:0:0:0:
277,205,30385,1,0,0:0:0:0:
277,205,30569,1,0,0:0:0:0:
277,205,30631,1,0,0:0:0:0:
277,205,30692,1,0,0:0:0:0:
277,205,30754,1,8,0:0:0:0:
280,208,30938,1,8,0:0:0:0:
280,207,31122,1,8,0:0:0:0:
278,210,31306,1,4,0:0:0:0:
278,210,31490,1,8,0:0:0:0:
278,210,31674,1,8,0:0:0:0:
278,210,31766,1,8,0:0:0:0:
280,208,31858,1,8,0:0:0:0:
280,207,32042,1,8,0:0:0:0:
280,207,32134,1,0,0:0:0:0:
278,210,32226,1,8,0:0:0:0:
278,210,32410,1,0,0:0:0:0:
278,210,32594,1,12,0:0:0:0:
280,207,32962,1,4,0:0:0:0:
276,205,33146,1,8,0:0:0:0:
277,205,33208,1,8,0:0:0:0:
277,205,33269,1,8,0:0:0:0:
277,205,33330,1,0,0:0:0:0:
277,205,33514,1,0,0:0:0:0:
277,205,33576,1,0,0:0:0:0:
277,205,33637,1,0,0:0:0:0:
277,205,33698,1,8,0:0:0:0:
276,205,34066,1,0,0:0:0:0:
277,205,34250,1,12,0:0:0:0:
277,205,34435,1,8,0:0:0:0:
277,205,34527,1,8,0:0:0:0:
277,205,34619,1,8,0:0:0:0:
277,205,34711,1,8,0:0:0:0:
276,205,34803,1,0,0:0:0:0:
276,205,34987,1,4,0:0:0:0:
279,209,35171,1,0,0:0:0:0:
277,205,35355,1,8,0:0:0:0:
277,205,35539,1,8,0:0:0:0:
277,205,35631,1,0,0:0:0:0:
276,205,35723,1,8,0:0:0:0:
276,205,35907,1,4,0:0:0:0:
277,205,36275,1,8,0:0:0:0:
277,205,36459,1,0,0:0:0:0:
277,205,36643,1,12,0:0:0:0:
277,205,37011,1,8,0:0:0:0:
277,205,37379,1,4,0:0:0:0:
277,205,37655,1,8,0:0:0:0:
277,205,37747,1,0,0:0:0:0:
277,205,37931,1,8,0:0:0:0:
273,201,38023,1,8,0:0:0:0:
277,205,38116,1,8,0:0:0:0:
273,201,38392,1,8,0:0:0:0:
275,200,38484,1,8,0:0:0:0:
272,195,38668,1,4,0:0:0:0:
271,195,39036,1,0,0:0:0:0:
265,195,39128,1,8,0:0:0:0:
271,195,39220,1,8,0:0:0:0:
271,195,39404,1,0,0:0:0:0:
272,195,39588,1,8,0:0:0:0:
265,195,39680,1,8,0:0:0:0:
264,194,39772,1,8,0:0:0:0:
264,194,39864,1,8,0:0:0:0:
264,194,39956,1,0,0:0:0:0:
265,195,40140,1,12,0:0:0:0:
266,197,40508,1,8,0:0:0:0:
266,197,40600,1,0,0:0:0:0:
263,187,40692,1,8,0:0:0:0:
263,187,40784,1,8,0:0:0:0:
260,187,40876,1,8,0:0:0:0:
260,187,40968,1,8,0:0:0:0:
263,187,41060,1,0,0:0:0:0:
263,187,41244,1,8,0:0:0:0:
263,187,41428,1,0,0:0:0:0:
263,187,41520,1,0,0:0:0:0:
263,187,41612,1,8,0:0:0:0:
263,187,41704,1,8,0:0:0:0:
263,187,41796,1,0,0:0:0:0:
263,187,42165,1,8,0:0:0:0:
263,187,42349,1,0,0:0:0:0:
263,187,42717,1,8,0:0:0:0:
263,187,42901,1,8,0:0:0:0:
263,187,43085,1,0,0:0:0:0:
263,187,43269,1,0,0:0:0:0:
263,187,43637,1,8,0:0:0:0:
263,187,44005,1,0,0:0:0:0:
263,187,44189,1,0,0:0:0:0:
263,187,44373,1,8,0:0:0:0:
263,187,44557,1,8,0:0:0:0:
263,187,44741,1,0,0:0:0:0:
263,187,45109,1,8,0:0:0:0:
263,187,45293,1,8,0:0:0:0:
263,187,45662,1,0,0:0:0:0:
263,187,45846,1,8,0:0:0:0:
263,187,46030,1,0,0:0:0:0:
263,187,46214,1,0,0:0:0:0:
263,187,46398,1,8,0:0:0:0:
263,187,46582,1,0,0:0:0:0:
263,187,46950,1,8,0:0:0:0:
263,187,47318,1,8,0:0:0:0:
263,187,47502,1,8,0:0:0:0:
263,187,47686,1,0,0:0:0:0:
263,187,47870,1,8,0:0:0:0:
263,187,48054,1,0,0:0:0:0:
263,187,48422,1,8,0:0:0:0:
263,187,48545,1,8,0:0:0:0:
263,187,48668,1,8,0:0:0:0:
263,187,48790,1,0,0:0:0:0:
263,187,48913,1,0,0:0:0:0:
263,187,49036,1,8,0:0:0:0:
263,187,49158,1,0,0:0:0:0:
258,193,49343,1,0,0:0:0:0:
258,193,49527,1,8,0:0:0:0:
259,192,49711,1,8,0:0:0:0:
263,187,49803,1,0,0:0:0:0:
259,192,49895,1,8,0:0:0:0:
258,189,50079,1,0,0:0:0:0:
258,189,50140,1,0,0:0:0:0:
258,193,50201,1,0,0:0:0:0:
258,193,50263,1,8,0:0:0:0:
258,193,50447,1,8,0:0:0:0:
249,202,50631,1,0,0:0:0:0:
249,202,50692,1,0,0:0:0:0:
249,202,50754,1,0,0:0:0:0:
249,201,50815,1,8,0:0:0:0:
258,193,50999,1,8,0:0:0:0:
258,193,51183,1,8,0:0:0:0:
258,193,51244,1,8,0:0:0:0:
258,193,51306,1,8,0:0:0:0:
256,200,51367,1,0,0:0:0:0:
256,200,51551,1,8,0:0:0:0:
256,200,51735,1,8,0:0:0:0:
256,200,51796,1,8,0:0:0:0:
257,200,51858,1,8,0:0:0:0:
265,196,51919,1,0,0:0:0:0:
265,195,52103,1,12,0:0:0:0:
258,193,52287,1,0,0:0:0:0:
256,200,52379,1,0,0:0:0:0:
256,200,52471,1,8,0:0:0:0:
256,200,52563,1,8,0:0:0:0:
256,200,52655,1,0,0:0:0:0:
256,200,52747,1,0,0:0:0:0:
257,200,52839,1,12,0:0:0:0:
265,195,53023,1,0,0:0:0:0:
265,195,53116,1,0,0:0:0:0:
261,198,53208,1,8,0:0:0:0:
261,198,53300,1,8,0:0:0:0:
261,198,53392,1,8,0:0:0:0:
261,198,53484,1,0,0:0:0:0:
261,198,53576,1,12,0:0:0:0:
261,198,53760,1,0,0:0:0:0:
261,198,53852,1,0,0:0:0:0:
265,195,53944,1,12,0:0:0:0:
265,195,54128,1,0,0:0:0:0:
261,198,54220,1,0,0:0:0:0:
261,198,54312,1,12,0:0:0:0:
261,198,54496,1,0,0:0:0:0:
261,198,54588,1,0,0:0:0:0:
261,198,54680,1,12,0:0:0:0:
261,198,54864,1,8,0:0:0:0:
265,195,54956,1,8,0:0:0:0:
265,195,55048,1,4,0:0:0:0:
261,198,55416,1,8,0:0:0:0:
255,192,55508,1,8,0:0:0:0:
261,198,55600,1,0,0:0:0:0:
257,192,55692,1,0,0:0:0:0:
261,198,55784,1,8,0:0:0:0:
265,195,55968,1,0,0:0:0:0:
261,198,56152,1,8,0:0:0:0:
261,198,56244,1,8,0:0:0:0:
261,198,56336,1,0,0:0:0:0:
261,198,56520,1,0,0:0:0:0:
261,198,56612,1,0,0:0:0:0:
261,198,56704,1,8,0:0:0:0:
259,192,56796,1,8,0:0:0:0:
265,195,56889,1,0,0:0:0:0:
259,192,56981,1,8,0:0:0:0:
259,192,57073,1,0,0:0:0:0:
259,192,57165,1,8,0:0:0:0:
259,192,57257,1,0,0:0:0:0:
261,198,57441,1,0,0:0:0:0:
261,198,57625,1,8,0:0:0:0:
261,198,57717,1,8,0:0:0:0:
261,199,57809,1,0,0:0:0:0:
261,199,57993,1,0,0:0:0:0:
261,199,58177,1,8,0:0:0:0:
261,198,58361,1,8,0:0:0:0:
261,198,58453,1,8,0:0:0:0:
261,198,58545,1,0,0:0:0:0:
261,199,58637,1,0,0:0:0:0:
261,198,58729,1,8,0:0:0:0:
261,199,58913,1,8,0:0:0:0:
260,206,59005,1,0,0:0:0:0:
261,199,59097,1,8,0:0:0:0:
261,199,59281,1,8,0:0:0:0:
261,198,59373,1,8,0:0:0:0:
261,198,59465,1,0,0:0:0:0:
261,198,59649,1,0,0:0:0:0:
261,198,59741,1,0,0:0:0:0:
261,199,59833,1,8,0:0:0:0:
261,199,59925,1,8,0:0:0:0:
261,199,60017,1,8,0:0:0:0:
261,199,60109,1,0,0:0:0:0:
261,199,60201,1,8,0:0:0:0:
261,198,60569,1,8,0:0:0:0:
261,198,60662,1,8,0:0:0:0:
261,198,60754,1,0,0:0:0:0:
257,193,60846,1,8,0:0:0:0:
261,199,60938,1,0,0:0:0:0:
261,199,61122,1,0,0:0:0:0:
261,198,61306,1,8,0:0:0:0:
261,198,61398,1,8,0:0:0:0:
261,198,61490,1,8,0:0:0:0:
257,193,61582,1,8,0:0:0:0:
261,198,61674,1,0,0:0:0:0:
261,199,61858,1,8,0:0:0:0:
261,199,62042,1,8,0:0:0:0:
261,199,62134,1,0,0:0:0:0:
261,198,62226,1,8,0:0:0:0:
261,198,62318,1,8,0:0:0:0:
261,198,62410,1,0,0:0:0:0:
261,198,62502,1,0,0:0:0:0:
261,198,62594,1,8,0:0:0:0:
261,198,62686,1,8,0:0:0:0:
261,199,62778,1,0,0:0:0:0:
261,199,62962,1,0,0:0:0:0:
261,199,63054,1,0,0:0:0:0:
261,199,63146,1,8,0:0:0:0:
262,208,63330,1,0,0:0:0:0:
262,206,63514,1,8,0:0:0:0:
262,206,63606,1,0,0:0:0:0:
262,205,63698,1,0,0:0:0:0:
262,204,63790,1,0,0:0:0:0:
262,204,63882,1,8,0:0:0:0:
265,207,64066,1,0,0:0:0:0:
262,208,64250,1,8,0:0:0:0:
262,208,64343,1,8,0:0:0:0:
262,206,64435,1,0,0:0:0:0:
263,197,64527,1,8,0:0:0:0:
262,206,64619,1,0,0:0:0:0:
262,204,64803,1,0,0:0:0:0:
262,204,64895,1,8,0:0:0:0:
257,206,64987,1,0,0:0:0:0:
262,208,65171,1,8,0:0:0:0:
262,208,65263,1,8,0:0:0:0:
262,208,65355,1,0,0:0:0:0:
262,206,65539,1,8,0:0:0:0:
262,206,65631,1,8,0:0:0:0:
262,204,65723,1,0,0:0:0:0:
262,204,65815,1,8,0:0:0:0:
262,204,65907,1,8,0:0:0:0:
257,206,65999,1,8,0:0:0:0:
262,208,66091,1,0,0:0:0:0:
262,208,66275,1,8,0:0:0:0:
262,206,66459,1,0,0:0:0:0:
262,206,66551,1,8,0:0:0:0:
262,206,66643,1,0,0:0:0:0:
262,204,66827,1,0,0:0:0:0:
257,206,67011,1,8,0:0:0:0:
262,208,67073,1,8,0:0:0:0:
262,208,67134,1,8,0:0:0:0:
262,208,67195,1,0,0:0:0:0:
262,206,67379,1,8,0:0:0:0:
262,206,67441,1,8,0:0:0:0:
262,206,67502,1,8,0:0:0:0:
262,206,67563,1,0,0:0:0:0:
264,201,67931,1,8,0:0:0:0:
264,201,68023,1,8,0:0:0:0:
264,201,68116,1,0,0:0:0:0:
264,201,68208,1,0,0:0:0:0:
264,201,68300,1,8,0:0:0:0:
264,201,68484,1,8,0:0:0:0:
264,201,68576,1,8,0:0:0:0:
264,201,68668,1,0,0:0:0:0:
264,201,68852,1,8,0:0:0:0:
264,201,68944,1,8,0:0:0:0:
264,201,69036,1,0,0:0:0:0:
264,201,69220,1,0,0:0:0:0:
264,201,69404,1,8,0:0:0:0:
264,201,69496,1,0,0:0:0:0:
264,201,69588,1,8,0:0:0:0:
264,201,69680,1,8,0:0:0:0:
264,201,69772,1,0,0:0:0:0:
264,201,69956,1,8,0:0:0:0:
264,201,70017,1,8,0:0:0:0:
264,201,70079,1,8,0:0:0:0:
264,201,70140,1,0,0:0:0:0:
264,201,70324,1,8,0:0:0:0:
264,201,70385,1,8,0:0:0:0:
264,201,70447,1,8,0:0:0:0:
264,201,70508,1,0,0:0:0:0:
261,204,70876,1,8,0:0:0:0:
261,204,70968,1,0,0:0:0:0:
261,204,71060,1,8,0:0:0:0:
261,204,71244,1,8,0:0:0:0:
264,201,71336,1,0,0:0:0:0:
261,204,71428,1,8,0:0:0:0:
264,201,71520,1,0,0:0:0:0:
261,204,71612,1,0,0:0:0:0:
261,204,71796,1,8,0:0:0:0:
261,204,71889,1,8,0:0:0:0:
261,204,71981,1,0,0:0:0:0:
261,204,72165,1,8,0:0:0:0:
261,204,72349,1,8,0:0:0:0:
261,204,72441,1,8,0:0:0:0:
264,201,72533,1,0,0:0:0:0:
261,204,72625,1,0,0:0:0:0:
261,204,72717,1,8,0:0:0:0:
264,201,72901,1,0,0:0:0:0:
264,201,72962,1,0,0:0:0:0:
264,201,73024,1,0,0:0:0:0:
264,201,73085,1,8,0:0:0:0:
264,201,73269,1,0,0:0:0:0:
264,201,73330,1,0,0:0:0:0:
264,201,73392,1,0,0:0:0:0:
264,201,73453,1,8,0:0:0:0:
267,199,73637,1,0,0:0:0:0:
264,201,73821,1,8,0:0:0:0:
264,201,73913,1,0,0:0:0:0:
264,201,74005,1,0,0:0:0:0:
264,201,74097,1,0,0:0:0:0:
264,201,74189,1,8,0:0:0:0:
264,201,74373,1,8,0:0:0:0:
264,201,74465,1,0,0:0:0:0:
267,199,74557,1,8,0:0:0:0:
264,201,74741,1,8,0:0:0:0:
264,201,74833,1,0,0:0:0:0:
264,201,74925,1,8,0:0:0:0:
264,201,75109,1,0,0:0:0:0:
264,201,75293,1,8,0:0:0:0:
264,201,75385,1,0,0:0:0:0:
264,201,75477,1,8,0:0:0:0:
267,199,75569,1,0,0:0:0:0:
264,201,75662,1,8,0:0:0:0:
264,201,75846,1,8,0:0:0:0:
264,201,75907,1,8,0:0:0:0:
264,201,75969,1,8,0:0:0:0:
264,201,76030,1,0,0:0:0:0:
264,201,76214,1,0,0:0:0:0:
264,201,76275,1,0,0:0:0:0:
264,201,76337,1,0,0:0:0:0:
264,201,76398,1,8,0:0:0:0:
264,201,76766,1,8,0:0:0:0:
258,197,76858,1,8,0:0:0:0:
258,197,76950,1,8,0:0:0:0:
258,197,77042,1,8,0:0:0:0:
258,197,77134,1,0,0:0:0:0:
258,196,77318,1,8,0:0:0:0:
258,196,77410,1,8,0:0:0:0:
258,196,77502,1,0,0:0:0:0:
258,196,77686,1,0,0:0:0:0:
258,196,77778,1,0,0:0:0:0:
258,197,77870,1,8,0:0:0:0:
258,197,77962,1,8,0:0:0:0:
258,197,78054,1,0,0:0:0:0:
258,197,78146,1,8,0:0:0:0:
258,196,78238,1,0,0:0:0:0:
258,196,78422,1,8,0:0:0:0:
258,196,78514,1,0,0:0:0:0:
258,196,78606,1,12,0:0:0:0:
258,197,78974,1,8,0:0:0:0:
258,196,79343,1,0,0:0:0:0:
258,196,79527,1,8,0:0:0:0:
258,196,79895,1,0,0:0:0:0:
258,197,80079,1,8,0:0:0:0:
258,196,80447,1,0,0:0:0:0:
258,196,80631,1,8,0:0:0:0:
258,197,80999,1,8,0:0:0:0:
258,196,81183,1,0,0:0:0:0:
258,196,81367,1,0,0:0:0:0:
258,196,81551,1,12,0:0:0:0:
258,197,81919,1,8,0:0:0:0:
258,196,82287,1,0,0:0:0:0:
258,196,82471,1,8,0:0:0:0:
258,197,82839,1,0,0:0:0:0:
258,196,83023,1,8,0:0:0:0:
258,196,83392,1,0,0:0:0:0:
258,197,83576,1,8,0:0:0:0:
258,196,83944,1,8,0:0:0:0:
258,196,84128,1,0,0:0:0:0:
258,197,84496,1,12,0:0:0:0:
258,196,85048,1,12,0:0:0:0:
258,196,85600,1,4,0:0:0:0:
258,196,86152,1,4,0:0:0:0:
258,196,86704,1,12,0:0:0:0:
258,196,86889,1,0,0:0:0:0:
258,196,87073,1,12,0:0:0:0:
258,196,87257,1,0,0:0:0:0:
258,196,87441,1,4,0:0:0:0:
256,192,87625,12,0,89465,0:0:0:0:
