osu file format v14

[General]
AudioFilename: audio.mp3
AudioLeadIn: 0
PreviewTime: 54521
Countdown: 0
SampleSet: Normal
StackLeniency: 0.7
Mode: 1
LetterboxInBreaks: 0
WidescreenStoryboard: 0

[Editor]
Bookmarks: 3447,9337,18171,29951,41730,54981,66760
DistanceSpacing: 1.7
BeatDivisor: 4
GridSize: 4
TimelineZoom: 2.4

[Metadata]
Title:Never Give It Up!! (TV Size)
TitleUnicode:Never Give It Up!! (TV Size)
Artist:Study
ArtistUnicode:Study
Creator:komasy
Version:Oni
Source:ぼくたちは勉強ができない
Tags:Japanese Female Vocal J-POP POP Anime ED Ending Bokutachi wa Benkyou ga Dekinai We Never Learn We can't Study ぼくべん BokuBen 古橋文乃 Furuhashi Fumino 白石晴香 Shiraishi Haruka 緒方理珠 Ogata Rizu 富田美憂 Tomita Miyu 武元うるか Takemoto Uruka 鈴代紗弓 Suzushiro Sayumi セイシュンゼミナール Seishun Seminar SVWC-70411 SVWC-70412 SVWC-70413
BeatmapID:2267140
BeatmapSetID:1083742

[Difficulty]
HPDrainRate:6
CircleSize:5
OverallDifficulty:5
ApproachRate:6
SliderMultiplier:1.4
SliderTickRate:1

[Events]
//Background and Video events
0,0,"47179-Bokuben-PC-Wallpaper.jpg",0,40
Video,0,"bg.mp4"
//Break Periods
//Storyboard Layer 0 (Background)
//Storyboard Layer 1 (Fail)
//Storyboard Layer 2 (Pass)
//Storyboard Layer 3 (Foreground)
//Storyboard Layer 4 (Overlay)
//Storyboard Sound Samples

[TimingPoints]
3448,368.098159509202,4,1,0,60,1,0
18079,-111.111111111111,4,1,0,50,0,0
28386,-125,4,1,0,40,0,0
28754,-125,4,1,0,60,0,0
29859,-100,4,1,0,60,0,0
41361,-103.092783505155,4,1,0,60,0,0
41453,-105.263157894737,4,1,0,60,0,0
41545,-107.52688172043,4,1,0,60,0,0
41730,-111.111111111111,4,1,0,50,0,0
50472,-105.263157894737,4,1,0,50,0,0
51944,-100,4,1,0,70,0,0
54981,-100,4,1,0,80,0,1
66760,-100,4,1,0,80,0,0
78632,-100,4,1,0,40,0,0
80012,-125,4,1,0,40,0,0
84337,-100,4,1,0,70,0,0
84889,-97.0873786407767,4,1,0,70,0,0
85441,-94.3396226415094,4,1,0,70,0,0
85901,-91.743119266055,4,1,0,70,0,0
85994,-89.2857142857143,4,1,0,70,0,0
86546,-86.9565217391304,4,1,0,70,0,0
86914,-83.3333333333333,4,1,0,70,0,0
87282,-80,4,1,0,70,0,0
87420,-76.9230769230769,4,1,0,40,0,0

[HitObjects]
352,96,3447,5,8,0:0:0:0:
352,96,3632,1,8,0:0:0:0:
352,96,3724,1,8,0:0:0:0:
352,96,3816,1,8,0:0:0:0:
352,96,4184,1,8,0:0:0:0:
352,96,4368,1,8,0:0:0:0:
352,96,4736,1,8,0:0:0:0:
352,96,4920,1,8,0:0:0:0:
352,96,5288,1,8,0:0:0:0:
352,96,5472,1,8,0:0:0:0:
352,288,5656,1,12,0:0:0:0:
352,96,6024,1,8,0:0:0:0:
352,96,6392,1,8,0:0:0:0:
352,96,6576,1,8,0:0:0:0:
352,96,6668,1,8,0:0:0:0:
352,96,6760,1,8,0:0:0:0:
352,96,7128,1,8,0:0:0:0:
352,96,7313,1,8,0:0:0:0:
352,96,7681,1,8,0:0:0:0:
352,96,7865,1,8,0:0:0:0:
352,96,8233,1,8,0:0:0:0:
352,96,8417,1,8,0:0:0:0:
352,288,8601,1,12,0:0:0:0:
352,96,8969,1,8,0:0:0:0:
352,96,9061,1,8,0:0:0:0:
352,96,9153,1,8,0:0:0:0:
160,96,9337,1,0,0:0:0:0:
352,96,9889,1,8,0:0:0:0:
352,96,10073,1,8,0:0:0:0:
160,96,10257,1,0,0:0:0:0:
352,96,10809,1,8,0:0:0:0:
160,96,10994,1,0,0:0:0:0:
352,96,11362,1,8,0:0:0:0:
160,96,11730,1,0,0:0:0:0:
352,96,11914,1,8,0:0:0:0:
160,96,12282,1,0,0:0:0:0:
352,96,12834,1,8,0:0:0:0:
352,96,13018,1,8,0:0:0:0:
160,96,13202,1,0,0:0:0:0:
160,96,13570,1,0,0:0:0:0:
352,96,13754,1,8,0:0:0:0:
160,96,13938,1,0,0:0:0:0:
352,96,14306,1,8,0:0:0:0:
160,96,14674,1,0,0:0:0:0:
352,96,14859,1,8,0:0:0:0:
160,96,15227,1,0,0:0:0:0:
352,96,15595,1,8,0:0:0:0:
352,96,15779,1,8,0:0:0:0:
352,96,15963,1,8,0:0:0:0:
352,96,16147,1,8,0:0:0:0:
352,96,16239,1,8,0:0:0:0:
352,96,16331,1,8,0:0:0:0:
352,96,16515,1,8,0:0:0:0:
171,215,16699,2,0,L|212:212,10,35
352,288,17803,5,12,0:0:0:0:
160,96,18171,5,0,0:0:0:0:
352,96,18908,1,8,0:0:0:0:
160,96,19460,1,0,0:0:0:0:
352,96,20380,1,8,0:0:0:0:
160,96,20564,1,0,0:0:0:0:
352,96,20748,1,8,0:0:0:0:
160,96,21116,1,0,0:0:0:0:
352,96,21852,1,8,0:0:0:0:
160,96,22221,1,0,0:0:0:0:
160,96,22405,1,0,0:0:0:0:
160,96,23141,1,0,0:0:0:0:
160,96,23509,1,0,0:0:0:0:
352,96,23693,1,8,0:0:0:0:
160,96,24061,1,0,0:0:0:0:
352,96,24429,1,8,0:0:0:0:
160,96,24797,1,0,0:0:0:0:
352,96,25165,1,8,0:0:0:0:
352,96,25349,1,8,0:0:0:0:
352,96,25441,1,8,0:0:0:0:
160,96,25533,1,0,0:0:0:0:
352,96,25901,1,8,0:0:0:0:
160,96,26086,1,0,0:0:0:0:
352,96,26454,1,8,0:0:0:0:
160,96,26638,1,0,0:0:0:0:
160,288,26822,1,4,0:0:0:0:
160,96,28846,1,0,0:0:0:0:
352,96,29030,1,8,0:0:0:0:
160,96,29951,1,0,0:0:0:0:
352,96,30135,1,8,0:0:0:0:
352,96,30227,1,8,0:0:0:0:
352,96,30319,1,8,0:0:0:0:
160,96,30503,1,0,0:0:0:0:
352,96,30687,1,8,0:0:0:0:
352,96,31055,1,8,0:0:0:0:
160,96,31239,1,0,0:0:0:0:
352,96,31607,1,8,0:0:0:0:
352,96,31791,1,8,0:0:0:0:
160,96,31975,1,0,0:0:0:0:
352,96,32159,1,8,0:0:0:0:
352,96,32251,1,8,0:0:0:0:
160,96,32343,1,0,0:0:0:0:
352,288,32527,1,12,0:0:0:0:
160,96,32895,1,0,0:0:0:0:
352,96,33079,1,8,0:0:0:0:
352,96,33171,1,8,0:0:0:0:
352,96,33263,1,8,0:0:0:0:
160,96,33447,1,0,0:0:0:0:
352,96,33632,1,8,0:0:0:0:
352,96,34000,1,8,0:0:0:0:
160,96,34184,1,0,0:0:0:0:
160,96,34552,1,0,0:0:0:0:
160,96,34644,1,0,0:0:0:0:
352,96,34736,1,8,0:0:0:0:
160,96,34920,1,0,0:0:0:0:
295,255,35288,1,0,0:0:0:0:
352,288,35472,1,12,0:0:0:0:
160,288,35840,1,4,0:0:0:0:
352,96,36208,1,8,0:0:0:0:
160,288,36576,1,4,0:0:0:0:
352,96,36944,1,8,0:0:0:0:
160,288,37313,1,4,0:0:0:0:
160,96,37589,1,0,0:0:0:0:
352,96,37681,1,8,0:0:0:0:
160,288,37865,1,4,0:0:0:0:
160,96,38233,1,0,0:0:0:0:
352,96,38325,1,8,0:0:0:0:
352,96,38417,1,8,0:0:0:0:
160,288,38601,1,4,0:0:0:0:
352,96,38969,1,8,0:0:0:0:
160,96,39061,1,0,0:0:0:0:
352,96,39153,1,8,0:0:0:0:
352,96,39337,1,8,0:0:0:0:
352,96,39521,1,8,0:0:0:0:
352,96,39705,1,8,0:0:0:0:
352,96,39797,1,8,0:0:0:0:
160,96,39889,1,0,0:0:0:0:
352,288,40073,1,12,0:0:0:0:
352,96,40625,1,8,0:0:0:0:
352,96,40994,1,8,0:0:0:0:
297,173,41178,1,0,0:0:0:0:
352,96,41362,1,8,0:0:0:0:
352,96,41454,1,8,0:0:0:0:
352,96,41546,1,8,0:0:0:0:
160,288,41730,1,4,0:0:0:0:
352,96,42098,1,8,0:0:0:0:
160,96,42282,1,0,0:0:0:0:
352,96,42650,1,8,0:0:0:0:
160,96,43018,1,0,0:0:0:0:
160,96,43202,1,0,0:0:0:0:
160,96,43570,1,0,0:0:0:0:
352,96,43754,1,8,0:0:0:0:
352,96,43846,1,8,0:0:0:0:
352,96,43938,1,8,0:0:0:0:
160,96,44122,1,0,0:0:0:0:
352,96,44306,1,8,0:0:0:0:
160,96,44674,1,0,0:0:0:0:
352,96,45043,1,8,0:0:0:0:
160,96,45227,1,0,0:0:0:0:
352,96,45595,1,8,0:0:0:0:
352,96,45779,1,8,0:0:0:0:
160,96,45963,1,0,0:0:0:0:
160,96,46147,1,0,0:0:0:0:
160,96,46515,1,0,0:0:0:0:
352,96,46699,1,8,0:0:0:0:
352,96,46791,1,8,0:0:0:0:
352,96,46883,1,8,0:0:0:0:
352,96,47251,1,8,0:0:0:0:
352,96,47435,1,8,0:0:0:0:
160,96,47619,1,0,0:0:0:0:
352,96,47803,1,8,0:0:0:0:
160,96,47987,1,0,0:0:0:0:
352,96,48355,1,8,0:0:0:0:
352,96,48724,1,8,0:0:0:0:
160,96,48908,1,0,0:0:0:0:
160,96,49092,1,0,0:0:0:0:
352,96,49276,1,8,0:0:0:0:
160,96,49460,1,0,0:0:0:0:
352,96,49828,1,8,0:0:0:0:
352,96,50012,1,8,0:0:0:0:
352,96,50104,1,8,0:0:0:0:
160,96,50196,1,0,0:0:0:0:
352,96,50380,1,8,0:0:0:0:
160,96,50564,1,0,0:0:0:0:
160,96,50656,1,0,0:0:0:0:
352,96,50748,1,8,0:0:0:0:
352,96,50932,1,8,0:0:0:0:
160,96,51116,1,0,0:0:0:0:
160,96,51208,1,0,0:0:0:0:
352,96,51300,1,8,0:0:0:0:
160,96,51668,1,0,0:0:0:0:
160,96,51760,1,0,0:0:0:0:
352,96,51852,1,8,0:0:0:0:
160,96,52036,1,0,0:0:0:0:
352,96,52221,1,8,0:0:0:0:
352,96,52313,1,8,0:0:0:0:
352,96,52405,1,8,0:0:0:0:
160,96,52773,1,0,0:0:0:0:
352,96,52957,1,8,0:0:0:0:
352,96,53141,1,8,0:0:0:0:
352,96,53233,1,8,0:0:0:0:
352,96,53325,1,8,0:0:0:0:
160,96,53509,1,0,0:0:0:0:
160,96,53877,1,0,0:0:0:0:
352,96,54061,1,8,0:0:0:0:
160,96,54245,1,0,0:0:0:0:
160,96,54337,1,0,0:0:0:0:
352,96,54429,1,8,0:0:0:0:
160,96,54613,1,0,0:0:0:0:
352,96,54705,1,8,0:0:0:0:
352,96,54797,1,8,0:0:0:0:
352,96,54889,1,8,0:0:0:0:
160,96,54981,5,0,0:0:0:0:
352,96,55349,1,8,0:0:0:0:
352,96,55533,1,8,0:0:0:0:
160,96,55717,1,0,0:0:0:0:
160,96,55901,1,0,0:0:0:0:
352,96,56086,1,8,0:0:0:0:
160,96,56454,1,0,0:0:0:0:
160,96,56638,1,0,0:0:0:0:
352,96,56822,1,8,0:0:0:0:
160,96,57006,1,0,0:0:0:0:
160,96,57098,1,0,0:0:0:0:
352,96,57190,1,8,0:0:0:0:
160,96,57374,1,0,0:0:0:0:
352,96,57558,1,8,0:0:0:0:
160,96,57926,5,0,0:0:0:0:
352,96,58294,1,8,0:0:0:0:
352,96,58478,1,8,0:0:0:0:
352,96,58570,1,8,0:0:0:0:
160,96,58662,1,0,0:0:0:0:
160,96,58846,1,0,0:0:0:0:
352,96,59030,1,8,0:0:0:0:
160,96,59214,1,0,0:0:0:0:
160,96,59582,1,0,0:0:0:0:
352,96,59767,1,8,0:0:0:0:
160,96,59951,1,0,0:0:0:0:
160,96,60043,1,0,0:0:0:0:
352,96,60135,1,8,0:0:0:0:
456,156,60319,1,0,0:0:0:0:
352,96,60503,1,8,0:0:0:0:
352,96,60687,1,8,0:0:0:0:
160,96,60871,1,0,0:0:0:0:
352,96,61239,1,8,0:0:0:0:
352,96,61423,1,8,0:0:0:0:
160,96,61607,1,0,0:0:0:0:
261,100,61791,1,0,0:0:0:0:
352,96,61975,1,8,0:0:0:0:
367,99,62159,1,8,0:0:0:0:
406,117,62251,1,8,0:0:0:0:
160,96,62343,1,0,0:0:0:0:
160,96,62527,1,0,0:0:0:0:
352,96,62711,1,8,0:0:0:0:
160,96,62895,1,0,0:0:0:0:
160,96,62987,1,0,0:0:0:0:
352,96,63079,1,8,0:0:0:0:
160,96,63263,1,0,0:0:0:0:
352,96,63447,1,8,0:0:0:0:
160,96,63816,5,0,0:0:0:0:
352,96,64184,1,8,0:0:0:0:
352,96,64368,1,8,0:0:0:0:
352,96,64460,1,8,0:0:0:0:
160,96,64552,1,0,0:0:0:0:
160,96,64736,1,0,0:0:0:0:
352,96,64920,1,8,0:0:0:0:
160,96,65104,1,0,0:0:0:0:
160,96,65472,1,0,0:0:0:0:
352,96,65656,1,8,0:0:0:0:
160,96,65840,1,0,0:0:0:0:
160,96,65932,1,0,0:0:0:0:
352,96,66024,1,8,0:0:0:0:
160,96,66208,1,0,0:0:0:0:
352,96,66392,1,8,0:0:0:0:
352,96,66576,1,8,0:0:0:0:
160,96,66760,1,0,0:0:0:0:
265,120,66944,1,8,0:0:0:0:
329,135,67036,1,8,0:0:0:0:
160,96,67128,1,0,0:0:0:0:
352,96,67313,1,8,0:0:0:0:
160,96,67497,1,0,0:0:0:0:
160,96,67865,1,0,0:0:0:0:
352,96,68049,1,8,0:0:0:0:
160,96,68233,1,0,0:0:0:0:
352,96,68417,1,8,0:0:0:0:
352,96,68509,1,8,0:0:0:0:
160,96,68601,1,0,0:0:0:0:
352,288,68969,1,12,0:0:0:0:
160,96,69337,1,0,0:0:0:0:
352,96,69521,1,8,0:0:0:0:
160,96,69705,1,0,0:0:0:0:
352,96,69889,1,8,0:0:0:0:
352,96,69981,1,8,0:0:0:0:
160,96,70073,1,0,0:0:0:0:
352,96,70257,1,8,0:0:0:0:
160,96,70441,1,0,0:0:0:0:
160,96,70809,1,0,0:0:0:0:
160,96,70994,1,0,0:0:0:0:
352,96,71178,1,8,0:0:0:0:
352,96,71270,1,8,0:0:0:0:
160,96,71362,1,0,0:0:0:0:
352,96,71546,1,0,0:0:0:0:
352,288,71914,1,12,0:0:0:0:
160,96,72282,1,0,0:0:0:0:
160,96,72466,1,0,0:0:0:0:
352,96,72650,1,8,0:0:0:0:
160,96,72834,1,0,0:0:0:0:
160,96,72926,1,0,0:0:0:0:
352,96,73018,1,8,0:0:0:0:
160,96,73202,1,0,0:0:0:0:
352,96,73386,1,8,0:0:0:0:
352,96,73754,1,8,0:0:0:0:
160,96,73938,1,0,0:0:0:0:
352,96,74122,1,8,0:0:0:0:
160,96,74306,1,0,0:0:0:0:
160,96,74398,1,0,0:0:0:0:
352,96,74490,1,8,0:0:0:0:
352,288,74859,1,12,0:0:0:0:
352,96,75227,1,8,0:0:0:0:
160,96,75411,1,0,0:0:0:0:
352,96,75595,1,8,0:0:0:0:
160,96,75779,1,0,0:0:0:0:
160,96,75871,1,0,0:0:0:0:
352,96,75963,1,8,0:0:0:0:
160,96,76147,1,0,0:0:0:0:
352,96,76331,1,8,0:0:0:0:
160,96,76699,1,0,0:0:0:0:
352,96,77067,1,8,0:0:0:0:
352,96,77435,1,8,0:0:0:0:
352,96,77619,1,8,0:0:0:0:
352,96,77711,1,8,0:0:0:0:
160,96,77803,1,0,0:0:0:0:
160,96,77987,1,0,0:0:0:0:
352,96,78171,1,8,0:0:0:0:
352,96,78355,1,8,0:0:0:0:
352,96,78447,1,8,0:0:0:0:
160,96,78540,1,0,0:0:0:0:
256,192,78724,12,0,81116,0:0:0:0:
256,192,81484,12,0,84061,0:0:0:0:
352,288,84429,5,12,0:0:0:0:
352,288,84981,1,12,0:0:0:0:
352,288,85533,1,12,0:0:0:0:
352,288,86086,1,12,0:0:0:0:
352,288,86638,1,12,0:0:0:0:
352,288,87006,1,12,0:0:0:0:
352,288,87374,1,12,0:0:0:0:
256,192,87466,12,12,88846,0:0:0:0:
