osu file format v14

[General]
AudioFilename: audio.mp3
AudioLeadIn: 0
PreviewTime: 54521
Countdown: 0
SampleSet: Normal
StackLeniency: 0.7
Mode: 1
LetterboxInBreaks: 0
WidescreenStoryboard: 0

[Editor]
Bookmarks: 3447,9337,18171,29951,41730,54981,66760
DistanceSpacing: 1.7
BeatDivisor: 2
GridSize: 4
TimelineZoom: 1.3

[Metadata]
Title:Never Give It Up!! (TV Size)
TitleUnicode:Never Give It Up!! (TV Size)
Artist:Study
ArtistUnicode:Study
Creator:komasy
Version:Futsuu
Source:ぼくたちは勉強ができない
Tags:Japanese Female Vocal J-POP POP Anime ED Ending Bokutachi wa Benkyou ga Dekinai We Never Learn We can't Study ぼくべん BokuBen 古橋文乃 Furuhashi Fumino 白石晴香 Shiraishi Haruka 緒方理珠 Ogata Rizu 富田美憂 Tomita Miyu 武元うるか Takemoto Uruka 鈴代紗弓 Suzushiro Sayumi セイシュンゼミナール Seishun Seminar SVWC-70411 SVWC-70412 SVWC-70413
BeatmapID:2268124
BeatmapSetID:1083742

[Difficulty]
HPDrainRate:7
CircleSize:4
OverallDifficulty:4
ApproachRate:7
SliderMultiplier:1.4
SliderTickRate:1

[Events]
//Background and Video events
0,0,"47179-Bokuben-PC-Wallpaper.jpg",0,40
Video,0,"bg.mp4"
//Break Periods
//Storyboard Layer 0 (Background)
//Storyboard Layer 1 (Fail)
//Storyboard Layer 2 (Pass)
//Storyboard Layer 3 (Foreground)
//Storyboard Layer 4 (Overlay)
//Storyboard Sound Samples

[TimingPoints]
3448,368.098159509202,4,1,0,60,1,0
18079,-100,4,1,0,50,0,0
28386,-100,4,1,0,40,0,0
28754,-100,4,1,0,60,0,0
41730,-100,4,1,0,50,0,0
51944,-100,4,1,0,70,0,0
54981,-100,4,1,0,80,0,1
66760,-100,4,1,0,80,0,0
78632,-100,4,1,0,40,0,0
84337,-100,4,1,0,70,0,0
87420,-100,4,1,0,40,0,0

[HitObjects]
352,96,3447,5,8,0:0:0:0:
352,96,4184,1,8,0:0:0:0:
352,96,4368,1,8,0:0:0:0:
352,96,4920,1,8,0:0:0:0:
352,96,5288,1,8,0:0:0:0:
352,288,5656,1,12,0:0:0:0:
352,96,6392,1,8,0:0:0:0:
352,96,7128,1,8,0:0:0:0:
352,96,7313,1,8,0:0:0:0:
352,96,7865,1,8,0:0:0:0:
352,96,8233,1,8,0:0:0:0:
352,288,8601,1,12,0:0:0:0:
160,96,9337,1,0,0:0:0:0:
352,96,10073,1,8,0:0:0:0:
352,96,10809,1,8,0:0:0:0:
352,96,11362,1,8,0:0:0:0:
160,96,11730,1,0,0:0:0:0:
352,96,11914,1,8,0:0:0:0:
160,96,12282,1,0,0:0:0:0:
352,96,13018,1,8,0:0:0:0:
352,96,13754,1,8,0:0:0:0:
352,96,14306,1,8,0:0:0:0:
160,96,14674,1,0,0:0:0:0:
352,96,14859,1,8,0:0:0:0:
160,96,15227,1,0,0:0:0:0:
352,96,15595,1,8,0:0:0:0:
352,96,15779,1,8,0:0:0:0:
352,96,15963,1,8,0:0:0:0:
352,96,16331,1,8,0:0:0:0:
295,199,16699,2,0,L|367:190,5,70
352,288,17803,5,12,0:0:0:0:
160,96,18171,5,0,0:0:0:0:
352,96,18908,1,8,0:0:0:0:
160,96,19460,1,0,0:0:0:0:
352,96,20380,1,8,0:0:0:0:
160,96,20564,1,0,0:0:0:0:
352,96,20748,1,8,0:0:0:0:
160,96,21116,1,0,0:0:0:0:
352,96,21852,1,8,0:0:0:0:
160,96,22221,1,0,0:0:0:0:
160,96,22405,1,0,0:0:0:0:
160,96,23141,1,0,0:0:0:0:
160,96,23509,1,0,0:0:0:0:
352,96,23693,1,8,0:0:0:0:
160,96,24061,1,0,0:0:0:0:
160,96,24797,1,0,0:0:0:0:
352,96,25165,1,8,0:0:0:0:
160,96,25533,1,0,0:0:0:0:
352,96,25901,1,8,0:0:0:0:
160,96,26086,1,0,0:0:0:0:
352,96,26454,1,8,0:0:0:0:
160,288,26822,1,4,0:0:0:0:
160,96,28846,1,0,0:0:0:0:
352,96,29030,1,8,0:0:0:0:
160,96,29951,1,0,0:0:0:0:
160,96,30319,1,0,0:0:0:0:
352,96,30687,1,8,0:0:0:0:
160,96,31055,1,0,0:0:0:0:
352,96,31239,1,8,0:0:0:0:
352,96,31607,1,8,0:0:0:0:
160,96,31791,1,0,0:0:0:0:
352,96,32527,1,8,0:0:0:0:
160,96,32895,1,0,0:0:0:0:
160,96,33263,1,0,0:0:0:0:
352,96,33632,1,8,0:0:0:0:
160,96,34000,1,0,0:0:0:0:
352,96,34184,1,8,0:0:0:0:
352,96,34552,1,8,0:0:0:0:
352,96,34736,1,8,0:0:0:0:
160,96,34920,1,0,0:0:0:0:
352,96,35472,1,8,0:0:0:0:
160,288,35840,1,4,0:0:0:0:
160,288,36576,1,4,0:0:0:0:
352,96,36944,1,8,0:0:0:0:
160,288,37313,1,4,0:0:0:0:
160,288,37865,1,4,0:0:0:0:
352,96,38233,1,8,0:0:0:0:
160,288,38601,1,4,0:0:0:0:
352,96,38969,1,8,0:0:0:0:
352,96,39153,1,8,0:0:0:0:
352,96,39521,1,8,0:0:0:0:
160,96,39889,1,0,0:0:0:0:
352,288,40073,1,12,0:0:0:0:
352,96,40625,1,8,0:0:0:0:
352,96,40994,1,8,0:0:0:0:
352,96,41362,1,8,0:0:0:0:
160,288,41730,1,4,0:0:0:0:
352,96,42098,1,8,0:0:0:0:
160,96,42282,1,0,0:0:0:0:
160,96,43018,1,0,0:0:0:0:
160,96,43202,1,0,0:0:0:0:
352,96,43570,1,8,0:0:0:0:
352,96,43938,1,8,0:0:0:0:
352,96,44306,1,8,0:0:0:0:
160,96,44674,1,0,0:0:0:0:
352,96,45043,1,8,0:0:0:0:
160,96,45227,1,0,0:0:0:0:
352,96,45595,1,8,0:0:0:0:
160,96,45963,1,0,0:0:0:0:
160,96,46147,1,0,0:0:0:0:
160,96,46515,1,0,0:0:0:0:
352,96,47251,1,8,0:0:0:0:
297,159,47435,1,8,0:0:0:0:
160,96,47619,1,0,0:0:0:0:
160,96,47987,1,0,0:0:0:0:
352,96,48724,1,8,0:0:0:0:
160,96,48908,1,0,0:0:0:0:
160,96,49092,1,0,0:0:0:0:
160,96,49460,1,0,0:0:0:0:
352,96,50196,1,8,0:0:0:0:
352,96,50380,1,8,0:0:0:0:
160,96,50564,1,0,0:0:0:0:
160,96,50932,1,0,0:0:0:0:
352,96,51300,1,8,0:0:0:0:
160,96,51668,1,0,0:0:0:0:
352,96,51852,1,8,0:0:0:0:
160,96,52036,1,0,0:0:0:0:
160,96,52773,1,0,0:0:0:0:
352,96,53141,1,8,0:0:0:0:
160,96,53509,1,0,0:0:0:0:
160,96,53877,1,0,0:0:0:0:
352,96,54061,1,8,0:0:0:0:
160,96,54245,1,0,0:0:0:0:
352,96,54613,1,8,0:0:0:0:
160,288,54981,5,4,0:0:0:0:
352,96,55349,1,8,0:0:0:0:
352,96,55533,1,8,0:0:0:0:
160,96,55717,1,0,0:0:0:0:
352,96,56086,1,8,0:0:0:0:
160,96,56454,1,0,0:0:0:0:
160,96,56638,1,0,0:0:0:0:
160,96,56822,1,0,0:0:0:0:
352,96,57190,1,8,0:0:0:0:
352,96,57558,1,8,0:0:0:0:
160,96,57926,5,0,0:0:0:0:
352,96,58294,1,8,0:0:0:0:
352,96,58478,1,8,0:0:0:0:
352,96,58846,1,8,0:0:0:0:
160,96,59214,1,0,0:0:0:0:
160,96,59582,1,0,0:0:0:0:
160,96,59767,1,0,0:0:0:0:
352,96,60135,1,8,0:0:0:0:
160,96,60871,1,0,0:0:0:0:
352,96,61239,1,8,0:0:0:0:
352,96,61423,1,8,0:0:0:0:
160,96,61607,1,0,0:0:0:0:
352,96,61975,1,8,0:0:0:0:
160,96,62343,1,0,0:0:0:0:
160,96,62527,1,0,0:0:0:0:
160,96,62711,1,0,0:0:0:0:
352,96,63079,1,8,0:0:0:0:
352,96,63447,1,8,0:0:0:0:
160,96,63816,5,0,0:0:0:0:
352,96,64184,1,8,0:0:0:0:
352,96,64368,1,8,0:0:0:0:
160,96,64736,1,0,0:0:0:0:
352,96,65104,1,8,0:0:0:0:
160,96,65472,1,0,0:0:0:0:
160,96,65656,1,0,0:0:0:0:
352,96,66024,1,8,0:0:0:0:
160,96,66760,1,0,0:0:0:0:
160,96,67128,1,0,0:0:0:0:
160,96,67497,1,0,0:0:0:0:
160,96,67865,1,0,0:0:0:0:
160,96,68233,1,0,0:0:0:0:
352,96,68417,1,8,0:0:0:0:
160,96,68601,1,0,0:0:0:0:
352,288,68969,1,12,0:0:0:0:
160,96,69705,1,0,0:0:0:0:
160,96,70073,1,0,0:0:0:0:
160,96,70441,1,0,0:0:0:0:
160,96,70809,1,0,0:0:0:0:
352,96,71178,1,8,0:0:0:0:
160,96,71362,1,0,0:0:0:0:
160,96,71546,1,0,0:0:0:0:
352,288,71914,1,12,0:0:0:0:
352,96,72650,1,8,0:0:0:0:
352,96,73018,1,8,0:0:0:0:
352,96,73386,1,8,0:0:0:0:
352,96,73754,1,8,0:0:0:0:
352,96,74122,1,8,0:0:0:0:
160,96,74306,1,0,0:0:0:0:
352,96,74490,1,8,0:0:0:0:
352,288,74859,1,12,0:0:0:0:
352,96,75595,1,8,0:0:0:0:
352,96,75963,1,8,0:0:0:0:
352,96,76331,1,8,0:0:0:0:
160,96,76699,1,0,0:0:0:0:
352,96,77067,1,8,0:0:0:0:
352,96,77435,1,8,0:0:0:0:
352,96,77619,1,8,0:0:0:0:
160,96,77803,1,0,0:0:0:0:
160,96,78171,1,0,0:0:0:0:
352,96,78355,1,8,0:0:0:0:
352,96,78540,1,8,0:0:0:0:
256,192,78724,12,0,81116,0:0:0:0:
256,192,81484,12,0,84061,0:0:0:0:
352,288,84429,5,12,0:0:0:0:
352,288,84981,1,12,0:0:0:0:
352,288,85533,1,12,0:0:0:0:
352,288,86086,1,12,0:0:0:0:
352,288,86638,1,12,0:0:0:0:
352,288,87006,1,12,0:0:0:0:
352,288,87374,1,12,0:0:0:0:
256,192,87558,12,12,88846,0:0:0:0:
