osu file format v14

[General]
AudioFilename: audio.mp3
AudioLeadIn: 0
PreviewTime: 54104
Countdown: 0
SampleSet: Soft
StackLeniency: 0.7
Mode: 0
LetterboxInBreaks: 0
WidescreenStoryboard: 1

[Editor]
DistanceSpacing: 0.7
BeatDivisor: 4
GridSize: 32
TimelineZoom: 1

[Metadata]
Title:Kankei Houteishiki
TitleUnicode:関係≧方程式
Artist:Study
ArtistUnicode:Study
Creator:dkblaze
Version:Shizuku's Hard
Source:ぼくたちは勉強ができない!
Tags:We can't study bokutachi wa benkyou ga dekinai bokuben cant never learn S2 Season 2 anime japanese ED ending Shizuku- 古橋文乃 furuhashi fumino 白石晴香 shiraishi haruka 緒方理珠 ogata rizu 富田美憂 tomita miyu 武元うるか takemoto uruka 鈴代紗弓 suzushiro sayumi 桐須真冬 kirisu mafuyu Lynn 小美浪あすみ kominami asumi 朝日奈丸佳 asahina madoka
BeatmapID:2371555
BeatmapSetID:1123312

[Difficulty]
HPDrainRate:5
CircleSize:3.5
OverallDifficulty:6.6
ApproachRate:7.5
SliderMultiplier:1.4
SliderTickRate:1

[Events]
//Background and Video events
0,0,"BG.jpg",0,0
//Break Periods
2,24412,35172
2,89554,95172
2,178525,182627
//Storyboard Layer 0 (Background)
//Storyboard Layer 1 (Fail)
//Storyboard Layer 2 (Pass)
//Storyboard Layer 3 (Foreground)
//Storyboard Layer 4 (Overlay)
//Storyboard Sound Samples

[TimingPoints]
212,428.571428571429,4,2,2,50,1,0
212,-166.666666666667,4,2,2,60,0,0
6212,-111.111111111111,4,2,2,60,0,0
6962,-111.111111111111,4,2,2,60,0,0
7069,-100,4,2,2,60,0,0
7176,-100,4,2,3,60,0,0
13926,-100,4,2,2,60,0,0
14033,-100,4,2,3,60,0,0
19390,-100,4,2,3,5,0,0
19497,-83.3333333333333,4,2,2,60,0,0
20783,-100,4,2,2,70,0,0
24212,-166.666666666667,4,2,2,50,0,0
35354,-250,4,2,2,60,0,0
36212,-125,4,2,2,60,0,0
37497,-83.3333333333333,4,2,2,60,0,0
37819,-125,4,2,2,5,0,0
37926,-125,4,2,2,65,0,0
42319,-125,4,2,2,65,0,0
42426,-125,4,2,2,65,0,0
44783,-100,4,2,2,65,0,0
46819,-125,4,2,2,65,0,0
46926,-100,4,2,2,65,0,0
51640,-100,4,2,2,65,0,0
54533,-100,4,2,2,5,0,0
54640,-100,4,2,2,65,0,0
54961,-100,4,2,2,5,0,0
55069,-83.3333333333333,4,2,2,75,0,1
55176,-83.3333333333333,4,2,3,75,0,1
56890,-83.3333333333333,4,2,3,75,0,1
56997,-83.3333333333333,4,2,3,75,0,1
61926,-83.3333333333333,4,2,2,75,0,1
62033,-83.3333333333333,4,2,3,75,0,1
65354,-83.3333333333333,4,2,2,75,0,1
66319,-83.3333333333333,4,2,2,75,0,1
66426,-83.3333333333333,4,2,2,75,0,1
67069,-83.3333333333333,4,2,3,75,0,1
68783,-83.3333333333333,4,2,2,75,0,1
68890,-83.3333333333333,4,2,3,75,0,1
70604,-83.3333333333333,4,2,3,75,0,1
70712,-83.3333333333333,4,2,3,75,0,1
77783,-83.3333333333333,4,2,2,75,0,1
78319,-83.3333333333333,4,2,2,75,0,1
78426,-83.3333333333333,4,2,2,75,0,1
82497,-100,4,2,2,70,0,0
89354,-125,4,2,2,60,0,0
96212,-125,4,2,2,50,0,0
101354,-125,4,2,2,60,0,0
103069,-125,4,2,2,65,0,0
107462,-125,4,2,2,65,0,0
107569,-125,4,2,2,65,0,0
109926,-100,4,2,2,65,0,0
111962,-125,4,2,2,65,0,0
112069,-100,4,2,2,65,0,0
115069,-100,4,2,2,65,0,0
116783,-100,4,2,2,65,0,0
119675,-100,4,2,2,5,0,0
119783,-100,4,2,2,65,0,0
120104,-100,4,2,2,5,0,0
120212,-83.3333333333333,4,2,2,75,0,1
120319,-83.3333333333333,4,2,3,75,0,1
122033,-83.3333333333333,4,2,3,75,0,1
122140,-83.3333333333333,4,2,3,75,0,1
127069,-83.3333333333333,4,2,2,75,0,1
127176,-83.3333333333333,4,2,3,75,0,1
130497,-83.3333333333333,4,2,2,75,0,1
131462,-83.3333333333333,4,2,2,75,0,1
131569,-83.3333333333333,4,2,2,75,0,1
132212,-83.3333333333333,4,2,2,75,0,1
132319,-83.3333333333333,4,2,3,75,0,1
133926,-83.3333333333333,4,2,2,75,0,1
134033,-83.3333333333333,4,2,3,75,0,1
135747,-83.3333333333333,4,2,3,75,0,1
135854,-83.3333333333333,4,2,3,75,0,1
140783,-83.3333333333333,4,2,2,75,0,1
140890,-83.3333333333333,4,2,3,75,0,1
142926,-83.3333333333333,4,2,2,75,0,1
143462,-83.3333333333333,4,2,2,75,0,1
143569,-83.3333333333333,4,2,2,75,0,1
146033,-83.3333333333333,4,2,2,75,0,1
146140,-83.3333333333333,4,2,2,75,0,1
147640,-100,4,2,2,70,0,0
147747,-100,4,2,3,70,0,0
154497,-100,4,2,2,70,0,0
154604,-100,4,2,3,70,0,0
159212,-100,4,2,3,70,0,0
159640,-100,4,2,2,70,0,0
161354,-100,4,2,2,70,0,0
170247,-100,4,2,2,70,0,0
170354,-100,4,2,2,70,0,0
177668,428.571428571429,4,2,2,50,1,0
177668,-166.666666666667,4,2,2,50,0,0
178525,-166.666666666667,4,2,2,40,0,0
179635,428.571428571429,4,2,2,40,1,0
179635,-166.666666666667,4,2,2,40,0,0
181760,428.571428571429,4,2,2,40,1,0
181760,-166.666666666667,4,2,2,40,0,0
183452,428.571428571429,4,2,2,60,1,0
183666,-125,4,2,2,60,0,0
184283,428.571428571429,4,2,2,60,1,0
184283,-125,4,2,2,60,0,0
184604,-125,4,2,2,60,0,0
184712,-125,4,2,2,60,0,0
185354,428.571428571429,4,2,2,75,1,0
185354,-83.3333333333333,4,2,3,75,0,1
185461,-83.3333333333333,4,2,3,75,0,1
188782,-83.3333333333333,4,2,2,75,0,1
189746,-83.3333333333333,4,2,2,75,0,1
189853,-83.3333333333333,4,2,2,75,0,1
192211,-83.3333333333333,4,2,2,75,0,1
192318,-83.3333333333333,4,2,3,75,0,1
194032,-83.3333333333333,4,2,3,75,0,1
194139,-83.3333333333333,4,2,3,75,0,1
199068,-83.3333333333333,4,2,2,75,0,1
199175,-83.3333333333333,4,2,3,75,0,1
201211,-83.3333333333333,4,2,2,75,0,1
205925,-90.9090909090909,4,2,2,70,0,0
206032,-90.9090909090909,4,2,3,70,0,0
211496,-90.9090909090909,4,2,3,70,0,0
211818,-83.3333333333333,4,2,3,70,0,0
211925,-90.9090909090909,4,2,2,70,0,0
212782,-90.9090909090909,4,2,2,70,0,0
212889,-100,4,2,3,70,0,0
213425,-83.3333333333333,4,2,3,70,0,0
214068,-90.9090909090909,4,2,3,70,0,0
217496,-83.3333333333333,4,2,3,70,0,0
217818,-83.3333333333333,4,2,3,5,0,0
217925,-90.9090909090909,4,2,2,70,0,0
222211,-90.9090909090909,4,2,2,5,0,0

[Colours]
Combo1 : 164,122,239
Combo2 : 250,88,113
Combo3 : 91,122,247
Combo4 : 238,166,128
Combo5 : 250,175,248

[HitObjects]
393,339,6212,6,0,L|404:245,1,94.4999971160889,6|8,3:2|0:0,0:0:0:0:
418,239,6640,2,0,L|425:176,1,62.9999980773926,8|4,0:0|0:3,0:0:0:0:
345,17,7069,6,0,B|308:49|308:49|335:135,1,140,6|8,3:2|0:0,0:0:0:0:
260,207,7712,1,2,0:0:0:0:
260,207,7819,1,2,0:3:0:0:
260,207,7926,2,0,L|237:140,1,70,2|2,3:0|0:0,0:0:0:0:
188,20,8354,1,8,0:0:0:0:
122,99,8569,1,2,0:0:0:0:
52,0,8783,6,0,P|36:31|31:65,1,70,2|2,3:0|0:0,0:0:0:0:
158,179,9212,2,0,P|152:144|137:113,1,70,8|2,0:0|0:0,0:0:0:0:
11,260,9640,2,0,P|77:247|132:288,1,140,0|8,3:0|0:0,0:0:0:0:
184,364,10283,1,2,0:0:0:0:
256,288,10497,6,0,L|232:149,1,140,2|8,3:0|0:0,0:0:0:0:
299,6,11140,1,2,0:0:0:0:
299,6,11247,1,2,0:3:0:0:
299,6,11354,2,0,B|345:20|345:20|314:106,1,140,2|8,3:0|0:0,0:0:0:0:
379,246,11997,5,2,0:0:0:0:
383,238,12104,1,2,0:3:0:0:
387,232,12212,2,0,B|399:198|399:198|390:165,1,70,2|2,3:0|0:0,0:0:0:0:
474,304,12640,2,0,B|462:338|462:338|470:370,1,70,8|2,0:0|0:0,0:0:0:0:
341,327,13069,1,0,3:0:0:0:
257,362,13283,1,2,0:0:0:0:
185,248,13497,2,0,L|172:316,1,70,8|8,0:0|0:0,0:0:0:0:
166,325,13819,1,8,0:0:0:0:
160,334,13926,6,0,B|95:350|95:288|29:309,1,140,6|8,3:2|0:0,0:0:0:0:
104,209,14569,1,2,0:0:0:0:
57,67,14783,2,0,P|45:100|41:134,1,70,0|2,3:0|0:0,0:0:0:0:
191,169,15212,2,0,P|202:135|206:101,1,70,8|2,0:0|0:0,0:0:0:0:
268,228,15640,6,0,L|336:214,1,70,2|2,3:0|0:0,0:0:0:0:
458,315,16069,2,0,L|389:301,1,70,8|2,0:0|0:0,0:0:0:0:
418,150,16497,2,0,L|432:219,1,70,0|2,3:0|0:0,0:0:0:0:
302,316,16926,2,0,L|315:384,1,70,8|2,0:0|0:0,0:0:0:0:
188,272,17354,6,0,B|142:263|142:263|99:284|99:284|54:277,1,140,2|8,3:0|0:0,0:0:0:0:
0,130,17997,2,0,P|65:129|85:192,1,140,2|2,0:0|0:0,0:0:0:0:
205,101,18640,2,0,L|191:32,1,70,8|2,0:0|0:0,0:0:0:0:
351,46,19069,6,0,L|330:148,1,105,2|0,3:0|0:0,0:0:0:0:
340,166,19497,2,0,P|376:146|417:149,1,83.9999974365235,14|2,3:2|3:2,0:0:0:0:
480,253,19926,2,0,P|407:292|324:285,1,167.999994873047,0|0,3:0|3:0,0:0:0:0:
222,225,20569,5,2,0:0:0:0:
222,225,20676,1,2,0:0:0:0:
222,225,20783,2,0,L|210:157,1,70,6|0,3:2|0:0,0:0:0:0:
124,168,21212,2,0,L|136:236,1,70,2|0,3:2|0:0,0:0:0:0:
176,329,21640,2,0,P|121:288|54:302,1,140,0|0,3:0|3:0,0:0:0:0:
104,377,22283,1,2,0:0:0:0:
222,225,22497,6,0,L|210:157,1,70,0|2,3:0|0:0,0:0:0:0:
319,289,22926,2,0,L|307:357,1,70,0|2,3:0|0:0,0:0:0:0:
436,246,23354,1,2,3:2:0:0:
384,156,23569,1,2,0:0:0:0:
474,33,23783,2,0,L|462:101,1,70,2|2,3:2|0:0,0:0:0:0:
384,156,24212,5,2,0:0:0:0:
261,98,35997,5,2,0:0:0:0:
314,167,36212,2,0,P|345:122|341:67,1,112,2|2,0:0|0:0,0:0:0:0:
231,203,37069,6,0,L|241:257,1,56,2|0,0:0|0:0,0:0:0:0:
378,366,37497,6,0,P|337:321|279:335,1,125.999996154785,8|0,3:3|0:0,0:0:0:0:
270,345,37926,2,0,L|214:336,1,56,6|2,3:2|0:0,0:0:0:0:
107,384,38354,1,0,3:0:0:0:
106,383,38569,2,0,P|76:336|78:281,1,112,2|0,0:0|0:0,0:0:0:0:
118,200,39212,2,0,L|62:191,1,56,0|2,3:0|0:0,0:0:0:0:
27,34,39640,5,2,3:2:0:0:
27,34,39854,2,0,L|83:25,1,56,2|0,0:0|3:0,0:0:0:0:
195,37,40283,2,0,B|179:105|179:105|204:138,1,112,2|0,0:0|0:0,0:0:0:0:
327,76,40926,2,0,L|271:85,1,56,0|2,3:0|0:0,0:0:0:0:
173,208,41354,5,2,3:2:0:0:
173,208,41569,2,0,L|117:199,1,56,2|0,0:0|3:0,0:0:0:0:
76,283,41997,2,0,L|186:300,1,112,2|2,0:0|0:0,0:0:0:0:
297,211,42640,1,2,3:2:0:0:
297,211,42854,6,0,B|272:244|272:244|282:313,1,112,2|2,0:0|0:0,0:0:0:0:
378,333,43497,2,0,L|369:277,1,56,2|2,3:2|0:0,0:0:0:0:
496,190,43926,2,0,P|442:199|396:169,1,112,2|0,3:2|3:0,0:0:0:0:
331,34,44569,5,2,0:0:0:0:
331,34,44676,1,2,0:0:0:0:
331,34,44783,2,0,L|317:102,1,70,6|2,3:2|0:0,0:0:0:0:
247,160,45212,2,0,L|253:194,3,35,10|8|10|8,0:0|0:0|0:0|0:0,0:0:0:0:
256,211,45640,2,0,L|187:224,1,70,6|2,3:2|0:0,0:0:0:0:
106,290,46069,1,2,3:2:0:0:
87,192,46283,1,10,0:3:0:0:
30,332,46497,6,0,P|80:377|147:368,1,140,6|8,3:2|0:0,0:0:0:0:
187,223,47140,1,0,0:0:0:0:
250,350,47354,2,0,L|264:282,1,70,2|0,3:2|0:0,0:0:0:0:
170,138,47783,2,0,L|184:206,1,70,8|2,0:0|0:0,0:0:0:0:
311,181,48212,6,0,L|297:113,1,70,2|2,3:2|0:0,0:0:0:0:
406,14,48640,2,0,L|399:48,3,35,10|8|10|8,0:0|0:0|0:0|0:0,0:0:0:0:
406,64,49069,2,0,P|440:67|473:56,1,70,6|2,3:2|0:0,0:0:0:0:
512,183,49497,2,0,P|477:179|444:190,1,70,10|6,0:0|0:3,0:0:0:0:
402,304,49926,6,0,P|333:292|263:281,2,140,2|10|2,3:2|0:0|3:2,0:0:0:0:
351,185,50997,1,0,0:0:0:0:
398,48,51212,2,0,P|408:81|404:115,1,70,14|0,0:0|3:0,0:0:0:0:
272,142,51640,6,0,B|192:125|218:184|139:163,1,140,14|0,3:2|3:0,0:0:0:0:
14,98,52283,1,8,3:2:0:0:
33,248,52497,2,0,P|47:216|47:181,1,70,8|8,3:2|3:2,0:0:0:0:
154,96,52926,2,0,P|139:127|139:162,1,70,8|8,3:2|3:2,0:0:0:0:
264,281,53354,5,10,0:0:0:0:
264,281,54212,6,0,L|366:260,1,105,2|0,0:0|0:0,0:0:0:0:
382,267,54640,2,0,P|411:225|407:174,1,105,10|0,3:3|0:0,0:0:0:0:
414,154,55069,6,0,L|331:137,1,83.9999974365235,6|0,3:2|0:0,0:0:0:0:
188,12,55497,2,0,B|228:66|228:66|225:117|193:159,1,167.999994873047,8|0,0:0|3:0,0:0:0:0:
45,106,56140,2,0,L|128:89,1,83.9999974365235,2|8,0:0|0:0,0:0:0:0:
241,250,56569,6,0,P|179:197|100:217,1,167.999994873047,2|2,0:0|0:0,0:0:0:0:
45,316,57212,1,8,0:0:0:0:
5,166,57426,1,2,0:0:0:0:
161,288,57640,2,0,L|325:253,1,167.999994873047,0|8,3:0|0:0,0:0:0:0:
463,235,58283,5,2,0:0:0:0:
463,235,58390,1,2,0:3:0:0:
463,235,58497,1,2,3:0:0:0:
292,169,58712,1,2,0:0:0:0:
430,53,58926,2,0,P|409:89|402:130,1,83.9999974365235,8|2,0:0|0:0,0:0:0:0:
463,235,59354,5,0,3:0:0:0:
378,339,59569,2,0,P|368:298|359:257,1,83.9999974365235,2|8,0:0|0:0,0:0:0:0:
263,91,59997,5,2,0:0:0:0:
263,91,60104,1,2,0:3:0:0:
263,91,60212,2,0,P|284:127|291:168,1,83.9999974365235,2|2,3:0|0:0,0:0:0:0:
359,257,60640,1,8,0:0:0:0:
248,358,60854,2,0,P|169:376|108:324,1,167.999994873047,2|2,0:0|0:0,0:0:0:0:
37,224,61497,2,0,P|58:188|65:147,1,83.9999974365235,8|8,0:0|0:0,0:0:0:0:
56,127,61819,1,8,0:0:0:0:
45,108,61926,6,0,P|86:98|126:89,1,83.9999974365235,6|0,3:2|0:0,0:0:0:0:
199,14,62354,2,0,P|240:24|280:33,1,83.9999974365235,8|2,0:0|0:0,0:0:0:0:
396,28,62783,2,0,P|376:113|358:193,1,167.999994873047,0|8,3:0|0:0,0:0:0:0:
272,248,63426,5,2,0:0:0:0:
272,248,63533,1,2,0:3:0:0:
272,248,63640,2,0,P|282:289|291:329,1,83.9999974365235,2|2,3:0|0:0,0:0:0:0:
358,191,64069,1,8,0:0:0:0:
227,147,64283,1,2,0:0:0:0:
128,284,64497,2,0,P|191:232|271:247,1,167.999994873047,0|8,3:0|0:0,0:0:0:0:
338,110,65140,5,2,0:0:0:0:
338,110,65247,1,2,0:3:0:0:
338,110,65354,2,0,P|347:150|357:191,1,83.9999974365235,6|2,3:2|0:0,0:0:0:0:
389,291,65783,1,10,3:2:0:0:
472,162,65997,2,0,P|418:101|337:109,1,167.999994873047,6|2,3:2|3:2,0:0:0:0:
252,170,66640,1,10,0:0:0:0:
156,129,66854,1,2,3:2:0:0:
106,286,67069,6,0,P|96:245|87:205,1,83.9999974365235,2|2,3:0|0:0,0:0:0:0:
274,265,67497,2,0,P|264:306|255:346,1,83.9999974365235,8|2,0:0|0:0,0:0:0:0:
186,239,67926,5,0,3:0:0:0:
373,299,68140,1,8,0:0:0:0:
373,299,68247,1,8,0:0:0:0:
373,299,68354,2,0,P|393:294|413:289,2,41.9999987182618,8|8|4,0:0|0:3|0:3,0:0:0:0:
484,353,68783,6,0,P|503:316|503:274,1,83.9999974365235,6|0,3:2|0:0,0:0:0:0:
434,146,69212,2,0,B|388:184|388:184|413:289,1,167.999994873047,8|0,0:0|3:0,0:0:0:0:
293,346,69854,2,0,L|273:264,1,83.9999974365235,2|8,0:0|0:0,0:0:0:0:
113,243,70283,6,0,B|211:218|178:287|272:264,1,167.999994873047,2|2,0:0|0:0,0:0:0:0:
267,99,70926,2,0,L|247:181,1,83.9999974365235,8|2,0:0|0:0,0:0:0:0:
112,242,71354,2,0,P|54:186|62:105,1,167.999994873047,0|8,3:0|0:0,0:0:0:0:
184,13,71997,5,2,0:0:0:0:
184,13,72104,1,2,0:3:0:0:
184,13,72212,2,0,L|164:95,1,83.9999974365235,2|2,3:0|0:0,0:0:0:0:
286,180,72640,2,0,L|266:98,1,83.9999974365235,8|2,0:0|0:0,0:0:0:0:
367,46,73069,1,0,3:0:0:0:
458,129,73283,2,0,L|478:47,1,83.9999974365235,2|8,0:0|0:0,0:0:0:0:
399,216,73712,5,2,0:0:0:0:
399,216,73819,1,2,0:3:0:0:
399,216,73926,2,0,L|419:298,1,83.9999974365235,2|2,3:0|0:0,0:0:0:0:
301,356,74354,2,0,B|249:317|249:317|196:327|171:379,1,167.999994873047,8|0,0:0|3:0,0:0:0:0:
8,335,74997,1,2,0:0:0:0:
107,271,75212,2,0,P|117:230|104:191,1,83.9999974365235,8|2,0:0|0:0,0:0:0:0:
94,172,75533,1,2,0:3:0:0:
81,154,75640,6,0,P|122:143|163:133,1,83.9999974365235,2|2,3:0|0:0,0:0:0:0:
129,17,76069,2,0,P|88:27|47:38,1,83.9999974365235,8|2,0:0|0:0,0:0:0:0:
222,210,76497,6,0,B|259:155|259:155|238:55,1,167.999994873047,0|8,3:0|0:0,0:0:0:0:
347,136,77140,1,2,0:0:0:0:
458,30,77354,6,0,P|447:71|437:112,1,83.9999974365235,2|2,3:0|0:0,0:0:0:0:
495,260,77783,1,10,0:0:0:0:
495,260,77997,2,0,P|431:210|351:226,1,167.999994873047,6|2,3:2|3:2,0:0:0:0:
319,311,78640,1,10,0:3:0:0:
222,210,78854,6,0,P|200:292|180:374,1,167.999994873047,6|2,3:2|3:2,0:0:0:0:
12,316,79497,1,10,0:0:0:0:
12,316,79712,2,0,B|106:332|71:267|170:283,1,167.999994873047,6|2,3:2|3:2,0:0:0:0:
278,81,80354,5,10,0:0:0:0:
277,81,80569,2,0,P|212:129|221:209,1,167.999994873047,6|0,3:2|3:0,0:0:0:0:
319,311,81212,2,0,P|359:301|400:290,1,83.9999974365235,12|0,0:0|0:0,0:0:0:0:
443,182,81640,2,0,B|397:177|366:153|366:153|354:189|313:216,1,167.999994873047,2|6,3:2|3:3,0:0:0:0:
312,216,82497,6,0,P|261:172|193:180,1,140,6|10,3:2|0:0,0:0:0:0:
101,291,83140,1,2,3:2:0:0:
85,282,83247,1,2,0:0:0:0:
70,272,83354,2,0,P|77:237|83:203,1,70,2|0,0:0|3:0,0:0:0:0:
179,110,83783,2,0,P|185:144|193:178,1,70,10|2,0:0|3:2,0:0:0:0:
312,215,84212,6,0,P|299:283|285:352,1,140,2|10,3:2|0:0,0:0:0:0:
421,382,84854,1,6,3:2:0:0:
421,382,84962,1,2,0:3:0:0:
421,382,85069,2,0,P|413:347|407:313,1,70,2|0,0:0|3:0,0:0:0:0:
480,252,85497,2,0,P|487:217|493:183,1,70,10|0,0:0|0:0,0:0:0:0:
425,78,85926,6,0,B|396:116|347:116|347:116|305:87,1,140,2|8,3:2|0:0,0:0:0:0:
166,26,86569,2,0,P|181:94|196:162,1,140,6|2,3:2|3:2,0:0:0:0:
299,215,87212,2,0,P|291:249|284:284,1,70,10|0,0:0|3:0,0:0:0:0:
288,300,87533,1,2,0:0:0:0:
293,316,87640,2,0,P|259:307|225:317,1,70,6|2,3:2|0:0,0:0:0:0:
212,329,87962,1,8,0:0:0:0:
199,341,88069,2,0,P|165:349|131:339,1,70,10|8,0:0|0:3,0:0:0:0:
5,292,88497,5,2,3:2:0:0:
94,232,88712,1,4,0:3:0:0:
94,232,88819,1,4,0:3:0:0:
94,232,88926,2,0,L|79:163,1,70,10|0,0:3|3:0,0:0:0:0:
61,71,89354,5,6,3:2:0:0:
188,331,95997,5,2,0:0:0:0:
188,331,96212,2,0,B|232:298|232:298|283:322,1,112,2|2,3:2|0:0,0:0:0:0:
366,363,96854,1,2,3:2:0:0:
449,318,97069,1,10,0:0:0:0:
328,207,97497,1,0,0:0:0:0:
423,111,97712,5,2,0:0:0:0:
422,111,97926,2,0,P|415:138|409:165,1,56,2|2,3:2|0:0,0:0:0:0:
328,207,98354,2,0,P|334:234|340:261,1,56,2|2,0:0|3:2,0:0:0:0:
243,184,98783,2,0,B|200:218|200:218|144:202,1,112,8|2,0:0|0:0,0:0:0:0:
163,16,99426,5,2,0:0:0:0:
163,16,99640,2,0,P|171:71|179:126,1,112,2|0,3:2|0:0,0:0:0:0:
54,172,100283,1,2,3:2:0:0:
54,172,100497,2,0,P|45:228|37:283,1,112,10|0,0:0|0:0,0:0:0:0:
174,356,101140,1,2,0:0:0:0:
120,282,101354,5,2,3:2:0:0:
200,180,101569,2,0,P|195:208|191:235,1,56,8|2,3:2|0:0,0:0:0:0:
291,168,101997,1,4,0:3:0:0:
291,168,102212,2,0,P|281:224|273:278,1,112,6|8,3:3|3:2,0:0:0:0:
253,366,102854,1,2,0:0:0:0:
371,310,103069,6,0,P|327:276|272:278,1,112,6|0,3:2|3:0,0:0:0:0:
190,234,103712,1,2,0:0:0:0:
263,188,103926,2,0,P|254:133|244:78,1,112,0|0,3:0|3:0,0:0:0:0:
132,25,104569,5,2,0:0:0:0:
122,35,104676,1,2,0:0:0:0:
113,46,104783,2,0,P|58:40|13:71,1,112,2|0,3:2|3:0,0:0:0:0:
36,157,105426,2,0,P|90:162|135:131,1,112,2|0,0:0|0:0,0:0:0:0:
190,235,106069,2,0,L|186:262,3,28,2|2|2|2,3:2|0:0|0:0|0:0,0:0:0:0:
184,276,106497,5,2,3:2:0:0:
268,356,106712,2,0,L|284:245,1,112,2|2,0:0|0:0,0:0:0:0:
243,77,107569,2,0,L|298:68,1,56,2|2,0:0|3:2,0:0:0:0:
380,106,107997,2,0,P|402:55|393:0,2,112,2|2|2,0:0|0:0|0:0,0:0:0:0:
446,167,109069,2,0,P|423:217|432:272,1,112,2|0,3:2|3:0,0:0:0:0:
501,352,109712,5,2,0:0:0:0:
501,352,109819,1,2,0:0:0:0:
501,352,109926,2,0,P|466:358|432:366,1,70,6|2,3:2|0:0,0:0:0:0:
283,245,110354,2,0,L|276:279,3,35,10|8|10|8,0:0|0:0|0:0|0:0,0:0:0:0:
280,296,110783,2,0,P|245:302|211:310,1,70,6|2,3:2|3:2,0:0:0:0:
155,371,111212,2,0,P|120:363|86:357,1,70,10|10,0:3|0:3,0:0:0:0:
14,200,111640,6,0,P|82:187|137:227,1,140,6|8,3:2|0:0,0:0:0:0:
280,296,112283,1,2,0:0:0:0:
283,278,112390,1,2,0:0:0:0:
286,260,112497,2,0,L|296:190,1,70,2|0,3:2|0:0,0:0:0:0:
181,43,112926,2,0,L|191:112,1,70,8|2,0:0|0:0,0:0:0:0:
296,190,113354,6,0,L|285:120,1,70,2|2,3:2|0:0,0:0:0:0:
125,195,113783,2,0,L|118:229,3,35,10|8|10|8,0:0|0:0|0:0|0:0,0:0:0:0:
128,243,114212,2,0,P|162:246|195:235,1,70,6|2,3:2|0:0,0:0:0:0:
280,296,114640,2,0,P|276:331|287:364,1,70,10|10,3:2|0:0,0:0:0:0:
434,212,115069,6,0,P|365:200|295:189,2,140,2|10|2,3:2|0:0|3:2,0:0:0:0:
490,142,116140,1,0,0:0:0:0:
418,32,116354,2,0,P|408:65|412:99,1,70,14|0,3:2|3:0,0:0:0:0:
295,189,116783,6,0,B|215:172|241:231|162:210,1,140,14|0,3:2|3:0,0:0:0:0:
138,10,117426,1,8,3:2:0:0:
185,138,117640,2,0,P|199:106|199:71,1,70,8|8,3:2|3:2,0:0:0:0:
58,50,118069,2,0,P|43:81|43:116,1,70,8|10,3:2|3:2,0:0:0:0:
94,265,118497,1,10,3:2:0:0:
94,265,119354,6,0,B|135:279|135:279|147:297|147:297|184:311,1,105,2|0,0:0|0:0,0:0:0:0:
200,317,119783,2,0,P|229:275|225:224,1,105,10|0,3:3|0:0,0:0:0:0:
239,212,120212,6,0,L|322:229,1,83.9999974365235,6|0,3:2|0:0,0:0:0:0:
441,307,120640,2,0,P|492:243|475:164,1,167.999994873047,8|0,0:0|3:0,0:0:0:0:
358,60,121283,2,0,L|375:143,1,83.9999974365235,2|8,0:0|0:0,0:0:0:0:
239,212,121712,6,0,P|177:159|98:179,1,167.999994873047,2|2,0:0|0:0,0:0:0:0:
0,119,122354,1,8,0:0:0:0:
84,79,122569,1,2,0:0:0:0:
5,259,122783,2,0,B|50:221|50:221|156:248,1,167.999994873047,0|8,3:0|0:0,0:0:0:0:
265,352,123426,5,2,0:0:0:0:
265,352,123533,1,2,0:3:0:0:
265,352,123640,1,2,3:0:0:0:
239,212,123854,1,2,0:0:0:0:
374,277,124069,2,0,P|415:277|454:262,1,83.9999974365235,8|2,0:0|0:0,0:0:0:0:
483,127,124497,5,0,3:0:0:0:
398,186,124712,2,0,P|388:145|379:104,1,83.9999974365235,2|8,0:0|0:0,0:0:0:0:
244,3,125140,5,2,0:0:0:0:
244,3,125247,1,2,0:3:0:0:
244,3,125354,2,0,P|254:43|251:84,1,83.9999974365235,2|2,3:0|0:0,0:0:0:0:
156,166,125783,1,8,0:0:0:0:
148,329,125997,2,0,P|217:374|299:366,1,167.999994873047,2|2,0:0|0:0,0:0:0:0:
408,288,126640,2,0,P|372:267|331:260,1,83.9999974365235,8|2,0:0|0:0,0:0:0:0:
312,270,126962,1,2,0:3:0:0:
292,278,127069,6,0,P|251:268|211:259,1,83.9999974365235,6|2,3:2|0:0,0:0:0:0:
58,332,127497,2,0,P|99:342|139:351,1,83.9999974365235,8|2,0:0|0:0,0:0:0:0:
210,258,127926,2,0,P|191:176|172:94,1,167.999994873047,0|8,3:0|0:0,0:0:0:0:
62,86,128569,5,2,0:0:0:0:
62,86,128676,1,2,0:3:0:0:
62,86,128783,2,0,P|72:127|81:167,1,83.9999974365235,2|2,3:0|0:0,0:0:0:0:
210,258,129212,1,8,0:0:0:0:
243,163,129426,1,2,0:0:0:0:
317,231,129640,2,0,P|381:181|461:200,1,167.999994873047,0|8,3:0|0:0,0:0:0:0:
419,355,130283,5,2,0:0:0:0:
419,355,130390,1,2,0:3:0:0:
419,355,130497,2,0,P|410:315|400:274,1,83.9999974365235,6|2,3:2|3:2,0:0:0:0:
461,200,130926,1,10,3:2:0:0:
317,231,131140,2,0,P|252:280|172:261,1,167.999994873047,6|2,3:2|3:2,0:0:0:0:
86,204,131783,1,10,0:0:0:0:
55,317,131997,1,2,3:2:0:0:
86,204,132212,6,0,P|95:163|105:122,1,83.9999974365235,2|2,3:0|0:0,0:0:0:0:
29,4,132640,2,0,P|19:45|10:85,1,83.9999974365235,8|8,0:0|0:0,0:0:0:0:
86,204,133069,1,0,3:0:0:0:
137,40,133283,1,0,0:0:0:0:
137,40,133390,1,8,0:0:0:0:
137,40,133497,2,0,P|157:35|177:30,2,41.9999987182618,0|8|4,3:0|0:0|0:3,0:0:0:0:
244,87,133926,6,0,P|263:50|263:8,1,83.9999974365235,6|0,3:2|0:0,0:0:0:0:
424,150,134354,2,0,B|329:123|329:123|319:155|282:171,1,167.999994873047,8|0,0:0|3:0,0:0:0:0:
343,305,134997,2,0,L|363:223,1,83.9999974365235,2|8,0:0|0:0,0:0:0:0:
244,87,135426,6,0,L|204:251,1,167.999994873047,2|2,0:0|0:0,0:0:0:0:
175,377,136069,2,0,P|140:355|99:356,1,83.9999974365235,8|2,0:0|0:0,0:0:0:0:
66,200,136497,2,0,P|122:258|203:250,1,167.999994873047,0|8,3:0|0:0,0:0:0:0:
175,87,137140,5,2,0:0:0:0:
175,87,137247,1,2,0:3:0:0:
175,87,137354,2,0,L|155:169,1,83.9999974365235,2|2,3:0|0:0,0:0:0:0:
281,315,137783,2,0,L|301:233,1,83.9999974365235,8|2,0:0|0:0,0:0:0:0:
330,116,138212,1,0,3:0:0:0:
447,209,138426,2,0,L|467:127,1,83.9999974365235,2|8,0:0|0:0,0:0:0:0:
349,34,138854,5,2,0:0:0:0:
349,34,138962,1,2,0:3:0:0:
349,34,139069,2,0,L|329:116,1,83.9999974365235,2|2,3:0|0:0,0:0:0:0:
345,228,139497,2,0,B|313:189|263:207|263:207|245:244|203:250,1,167.999994873047,8|0,0:0|3:0,0:0:0:0:
35,235,140140,1,2,0:0:0:0:
114,369,140354,2,0,P|124:328|111:289,1,83.9999974365235,8|2,0:0|0:0,0:0:0:0:
116,268,140676,5,2,0:3:0:0:
122,248,140783,2,0,P|130:206|138:165,1,83.9999974365235,6|2,3:2|0:0,0:0:0:0:
72,23,141212,2,0,P|64:64|55:105,1,83.9999974365235,8|2,0:0|0:0,0:0:0:0:
122,248,141640,2,0,B|177:211|177:211|277:232,1,167.999994873047,0|8,3:0|0:0,0:0:0:0:
352,173,142283,1,2,0:0:0:0:
409,299,142497,6,0,P|418:258|429:217,1,83.9999974365235,2|2,3:0|0:0,0:0:0:0:
404,70,142926,1,10,0:0:0:0:
404,70,143140,2,0,P|340:120|260:104,1,167.999994873047,6|2,3:2|3:2,0:0:0:0:
158,53,143783,1,10,0:0:0:0:
226,191,143997,6,0,P|204:273|184:355,1,167.999994873047,6|2,3:2|3:2,0:0:0:0:
395,289,144640,1,10,0:3:0:0:
395,289,144854,2,0,B|332:276|332:276|292:298|292:298|235:287,1,167.999994873047,6|2,3:2|3:2,0:0:0:0:
92,361,145497,5,10,0:0:0:0:
92,361,145712,2,0,P|27:313|36:233,1,167.999994873047,6|0,3:2|3:0,0:0:0:0:
144,212,146354,2,0,P|184:202|225:191,1,83.9999974365235,12|4,3:3|0:3,0:0:0:0:
404,70,146783,2,0,B|358:56|358:56|300:88|323:159,1,167.999994873047,2|2,3:2|3:2,0:0:0:0:
322,158,147640,6,0,B|404:143|379:191|457:175,1,140,6|8,3:2|0:0,0:0:0:0:
448,22,148283,1,2,0:0:0:0:
448,22,148390,1,2,0:3:0:0:
448,22,148497,2,0,L|430:90,1,70,2|2,3:0|0:0,0:0:0:0:
456,175,148926,1,8,0:0:0:0:
391,260,149140,1,2,0:0:0:0:
480,371,149354,6,0,P|449:355|414:350,1,70,2|2,3:0|0:0,0:0:0:0:
310,269,149783,2,0,P|344:263|375:248,1,70,8|2,0:0|0:0,0:0:0:0:
232,150,150212,2,0,P|221:219|211:288,1,140,0|8,3:0|0:0,0:0:0:0:
181,366,150854,1,2,0:0:0:0:
0,294,151069,6,0,B|50:265|50:265|127:292,1,140,2|8,3:0|0:0,0:0:0:0:
232,150,151712,1,2,0:0:0:0:
232,150,151819,1,2,0:3:0:0:
232,150,151926,2,0,B|182:179|182:179|104:151,1,140,2|8,3:0|0:0,0:0:0:0:
157,3,152569,5,2,0:0:0:0:
161,11,152676,1,2,0:3:0:0:
165,17,152783,2,0,B|177:51|177:51|168:84,1,70,2|2,3:0|0:0,0:0:0:0:
227,216,153212,2,0,B|219:184|219:184|231:150,1,70,8|2,0:0|0:0,0:0:0:0:
345,104,153640,1,0,3:0:0:0:
330,188,153854,1,2,0:0:0:0:
314,272,154069,2,0,L|301:340,1,70,12|2,0:0|0:0,0:0:0:0:
313,358,154390,1,2,0:3:0:0:
321,373,154497,6,0,B|386:389|386:327|452:348,1,140,6|8,3:2|0:0,0:0:0:0:
490,274,155140,1,2,0:0:0:0:
444,204,155354,2,0,P|409:199|376:187,1,70,0|2,3:0|0:0,0:0:0:0:
305,128,155783,1,8,0:0:0:0:
289,37,155997,1,2,0:0:0:0:
196,31,156212,6,0,P|185:65|181:99,1,70,2|2,3:0|0:0,0:0:0:0:
224,182,156640,2,0,L|210:251,1,70,8|2,0:0|0:0,0:0:0:0:
90,292,157069,2,0,L|104:223,1,70,0|2,3:0|0:0,0:0:0:0:
232,264,157497,2,0,L|218:333,1,70,8|2,0:0|0:0,0:0:0:0:
321,373,157926,6,0,P|379:337|448:342,1,140,2|8,3:0|0:0,0:0:0:0:
512,236,158569,2,0,P|447:237|427:174,1,140,2|2,0:0|0:0,0:0:0:0:
351,46,159212,2,0,L|337:115,1,70,12|2,0:0|0:0,0:0:0:0:
307,226,159640,5,10,3:2:0:0:
205,138,159854,1,8,0:0:0:0:
205,138,159962,1,8,0:0:0:0:
205,138,160069,2,0,L|170:145,2,35,0|8|4,3:0|0:3|0:3,0:0:0:0:
71,76,160497,2,0,L|64:111,3,35,10|2|2|10,3:2|0:0|3:2|0:0,0:0:0:0:
54,124,160926,2,0,L|47:159,3,35,10|10|6|6,3:2|0:3|0:3|0:3,0:0:0:0:
39,174,161354,5,4,3:2:0:0:
39,174,161783,2,0,P|51:206|58:240,1,70,10|0,0:0|3:0,0:0:0:0:
135,343,162212,2,0,P|141:308|154:276,1,70,2|0,3:2|3:0,0:0:0:0:
238,239,162640,2,0,L|307:225,1,70,10|0,0:0|0:0,0:0:0:0:
399,311,163069,6,0,L|427:173,1,140,2|10,3:2|0:0,0:0:0:0:
351,45,163712,1,2,0:0:0:0:
351,45,163819,1,2,0:0:0:0:
351,45,163926,2,0,L|337:114,1,70,2|0,3:2|3:0,0:0:0:0:
238,239,164354,2,0,L|224:170,1,70,10|0,0:0|3:0,0:0:0:0:
118,43,164783,6,0,P|175:80|243:71,1,140,2|8,3:2|0:0,0:0:0:0:
351,45,165426,2,0,L|489:73,1,140,2|0,3:2|3:0,0:0:0:0:
506,201,166069,2,0,L|437:215,1,70,8|2,0:0|0:0,0:0:0:0:
399,311,166497,6,0,P|341:273|273:282,1,140,2|10,3:2|0:0,0:0:0:0:
190,335,167140,1,2,3:2:0:0:
190,335,167247,1,2,0:0:0:0:
190,335,167354,2,0,L|176:266,1,70,2|0,3:2|3:0,0:0:0:0:
242,185,167783,2,0,L|228:116,1,70,14|0,0:0|3:0,0:0:0:0:
149,26,168212,6,0,P|80:17|23:54,1,140,6|8,3:2|0:0,0:0:0:0:
114,172,168854,1,2,0:0:0:0:
114,172,168962,1,2,0:0:0:0:
114,172,169069,2,0,L|100:103,1,70,2|0,3:2|3:0,0:0:0:0:
0,179,169497,2,0,L|14:248,1,70,8|0,0:0|3:0,0:0:0:0:
58,335,169926,6,0,B|109:312|109:312|189:334,1,140,2|10,3:2|0:0,0:0:0:0:
273,281,170569,1,2,0:0:0:0:
273,281,170676,1,2,0:0:0:0:
273,281,170783,2,0,L|287:212,1,70,2|2,3:2|3:2,0:0:0:0:
217,146,171212,1,10,0:0:0:0:
279,37,171426,6,0,B|334:71|334:71|406:51,1,140,6|2,3:2|3:2,0:0:0:0:
512,171,172069,1,10,0:0:0:0:
512,171,172283,2,0,B|457:137|457:137|384:156,1,140,6|2,3:2|3:2,0:0:0:0:
326,66,172926,5,10,0:0:0:0:
286,212,173140,2,0,B|274:264|274:264|290:299|290:299|279:346,1,140,6|0,3:2|3:0,0:0:0:0:
162,375,173783,2,0,L|176:306,1,70,8|0,0:0|3:0,0:0:0:0:
123,211,174212,2,0,P|55:218|0:178,2,140,2|2|14,3:2|3:2|3:2,0:0:0:0:
256,192,175176,12,10,176783,3:2:0:0:
455,89,183452,5,10,3:2:0:0:
364,54,183666,1,10,3:2:0:0:
329,156,183880,2,0,L|384:145,1,56,10|0,3:2|0:0,0:0:0:0:
426,228,184283,2,0,B|374:238|374:238|372:242|372:242|317:255,1,112,10|4,3:3|0:3,0:0:0:0:
237,207,184925,1,8,0:0:0:0:
303,337,185140,5,8,0:0:0:0:
303,337,185247,1,8,0:0:0:0:
303,337,185354,2,0,L|318:254,1,83.9999974365235,6|2,3:2|0:0,0:0:0:0:
237,207,185782,2,0,L|252:124,1,83.9999974365235,8|2,0:0|0:0,0:0:0:0:
123,0,186211,2,0,B|80:40|80:40|102:146,1,167.999994873047,0|8,3:0|0:0,0:0:0:0:
19,264,186854,5,2,0:0:0:0:
19,264,186961,1,2,0:3:0:0:
19,264,187068,2,0,L|4:181,1,83.9999974365235,2|2,3:0|0:0,0:0:0:0:
102,146,187496,1,8,0:0:0:0:
141,231,187711,1,2,0:0:0:0:
237,207,187925,2,0,P|289:144|274:64,1,167.999994873047,0|8,3:0|0:0,0:0:0:0:
175,38,188568,5,10,0:3:0:0:
175,38,188675,1,8,0:3:0:0:
175,38,188782,2,0,P|184:78|194:119,1,83.9999974365235,6|2,3:2|3:2,0:0:0:0:
237,207,189211,1,10,0:0:0:0:
274,64,189425,2,0,P|354:50|416:103,1,167.999994873047,6|2,3:2|3:2,0:0:0:0:
463,197,190068,1,10,0:0:0:0:
499,56,190282,1,2,3:2:0:0:
463,197,190496,6,0,P|453:238|444:278,1,83.9999974365235,2|8,3:2|3:2,0:0:0:0:
307,366,190925,2,0,P|316:325|326:284,1,83.9999974365235,8|0,3:3|3:0,0:0:0:0:
225,182,191354,5,2,3:2:0:0:
201,322,191568,1,0,3:0:0:0:
201,322,191675,1,8,0:3:0:0:
201,322,191782,2,0,P|181:317|161:312,2,41.9999987182618,2|8|4,3:2|0:3|0:3,0:0:0:0:
93,369,192211,6,0,P|74:332|74:290,1,83.9999974365235,6|0,3:2|0:0,0:0:0:0:
185,172,192639,2,0,B|213:219|213:219|213:286|159:311,1,167.999994873047,8|0,0:0|3:0,0:0:0:0:
60,204,193282,2,0,L|80:122,1,83.9999974365235,2|8,0:0|0:0,0:0:0:0:
0,32,193711,6,0,B|98:57|65:-12|159:11,1,167.999994873047,2|2,0:0|0:0,0:0:0:0:
204,90,194354,2,0,L|184:172,1,83.9999974365235,8|2,0:0|0:0,0:0:0:0:
159,311,194782,2,0,P|238:295|300:348,1,167.999994873047,0|8,3:0|0:0,0:0:0:0:
445,384,195425,5,2,0:0:0:0:
445,384,195532,1,2,0:3:0:0:
445,384,195639,2,0,L|465:302,1,83.9999974365235,2|2,3:0|0:0,0:0:0:0:
359,257,196068,2,0,L|339:175,1,83.9999974365235,8|2,0:0|0:0,0:0:0:0:
493,147,196496,1,0,3:0:0:0:
425,5,196711,2,0,L|405:87,1,83.9999974365235,2|8,0:0|0:0,0:0:0:0:
252,178,197139,5,2,0:0:0:0:
252,178,197246,1,2,0:3:0:0:
252,178,197354,2,0,L|272:96,1,83.9999974365235,2|2,3:0|0:0,0:0:0:0:
222,21,197782,1,8,0:0:0:0:
148,67,197996,5,2,0:0:0:0:
148,67,198104,1,8,0:0:0:0:
148,67,198211,2,0,L|128:149,1,83.9999974365235,0|2,3:0|3:2,0:0:0:0:
42,285,198639,2,0,P|83:275|122:288,1,83.9999974365235,12|2,0:0|0:0,0:0:0:0:
141,298,198961,1,2,0:3:0:0:
159,311,199068,2,0,P|170:270|180:229,1,83.9999974365235,6|2,3:2|0:0,0:0:0:0:
270,190,199496,2,0,P|281:149|291:108,1,83.9999974365235,8|2,0:0|0:0,0:0:0:0:
222,21,199925,6,0,B|277:58|277:58|377:37,1,167.999994873047,0|8,3:0|0:0,0:0:0:0:
495,85,200568,1,2,0:0:0:0:
394,196,200782,6,0,P|404:155|415:115,1,83.9999974365235,2|2,3:0|0:0,0:0:0:0:
450,289,201211,1,10,0:0:0:0:
450,289,201425,2,0,P|386:239|306:255,1,167.999994873047,6|2,3:2|3:2,0:0:0:0:
221,227,202068,1,2,3:2:0:0:
161,332,202282,6,0,P|139:250|119:168,1,167.999994873047,6|10,3:2|3:2,0:0:0:0:
228,41,202925,1,10,0:0:0:0:
228,41,203139,2,0,B|322:25|287:90|386:74,1,167.999994873047,6|2,3:2|3:2,0:0:0:0:
304,255,203782,5,10,0:0:0:0:
304,255,203996,2,0,P|239:207|248:127,1,167.999994873047,6|0,3:2|3:0,0:0:0:0:
386,73,204639,2,0,P|396:113|407:154,1,83.9999974365235,8|8,3:2|3:2,0:0:0:0:
431,311,205068,2,0,P|383:246|303:255,1,167.999994873047,14|8,3:2|3:2,0:0:0:0:
161,332,205711,5,8,0:0:0:0:
161,332,205818,1,8,0:0:0:0:
161,332,205925,2,0,P|142:258|122:183,1,154.000004699707,6|8,3:2|0:0,0:0:0:0:
150,16,206568,1,2,0:0:0:0:
63,4,206782,2,0,P|23:70|42:144,1,154.000004699707,0|8,3:0|0:0,0:0:0:0:
158,207,207425,5,2,0:0:0:0:
158,207,207532,1,2,0:3:0:0:
158,207,207639,2,0,P|167:170|177:132,1,77.0000023498536,2|2,3:0|0:0,0:0:0:0:
305,69,208068,2,0,P|295:106|285:143,1,77.0000023498536,8|2,0:0|0:0,0:0:0:0:
398,196,208496,2,0,P|454:145|454:70,1,154.000004699707,0|8,3:0|0:0,0:0:0:0:
449,307,209354,6,0,P|398:251|323:251,1,154.000004699707,2|8,3:0|0:0,0:0:0:0:
198,355,209996,1,2,0:0:0:0:
198,355,210104,1,2,0:3:0:0:
198,355,210211,2,0,P|178:281|158:207,1,154.000004699707,2|8,3:2|0:0,0:0:0:0:
99,43,210854,1,2,0:0:0:0:
99,43,210961,1,2,0:3:0:0:
99,43,211068,2,0,P|89:80|79:117,1,77.0000023498536,2|2,3:0|0:0,0:0:0:0:
157,206,211496,2,0,P|167:169|177:132,1,77.0000023498536,12|0,0:0|0:0,0:0:0:0:
271,56,211925,5,2,3:2:0:0:
342,178,212139,1,8,0:0:0:0:
342,178,212246,1,8,0:0:0:0:
342,178,212354,1,2,3:2:0:0:
468,97,212568,5,8,0:0:0:0:
468,97,212675,1,8,0:0:0:0:
468,97,212782,2,0,P|448:171|428:245,1,154.000004699707,6|0,3:2|3:0,0:0:0:0:
386,382,213425,5,14,0:0:0:0:
476,340,213639,2,0,P|413:287|332:299,1,167.999994873047,0|8,3:0|0:0,0:0:0:0:
198,355,214282,5,2,0:0:0:0:
198,355,214389,1,2,0:3:0:0:
198,355,214496,2,0,P|188:318|178:281,1,77.0000023498536,2|2,3:0|0:0,0:0:0:0:
267,227,214925,2,0,P|277:190|287:153,1,77.0000023498536,8|2,0:0|0:0,0:0:0:0:
321,13,215354,2,0,B|276:52|276:52|183:35,1,154.000004699707,0|8,3:0|0:0,0:0:0:0:
19,202,216211,6,0,B|111:185|111:185|156:224,1,154.000004699707,2|8,3:0|0:0,0:0:0:0:
198,355,216854,2,0,P|148:298|158:224,1,154.000004699707,2|2,0:0|0:0,0:0:0:0:
287,152,217496,2,0,L|412:129,1,125.999996154785,12|0,0:0|0:0,0:0:0:0:
422,113,217925,6,0,B|481:128|481:128|462:219,1,154.000004699707,14|10,3:2|3:2,0:0:0:0:
394,375,218568,1,6,3:3:0:0:
394,375,218675,1,8,0:3:0:0:
394,375,218782,2,0,L|380:300,1,77.0000023498536,10|4,0:3|0:3,0:0:0:0:
287,152,219211,2,0,L|273:227,1,77.0000023498536,2|0,3:2|3:0,0:0:0:0:
196,335,219639,5,14,3:2:0:0:
256,192,219746,12,0,222211,0:0:0:0:
