osu file format v14

[General]
AudioFilename: audio.mp3
AudioLeadIn: 0
PreviewTime: 54104
Countdown: 0
SampleSet: Soft
StackLeniency: 0.7
Mode: 0
LetterboxInBreaks: 0
WidescreenStoryboard: 0

[Editor]
DistanceSpacing: 0.6
BeatDivisor: 4
GridSize: 8
TimelineZoom: 1.5

[Metadata]
Title:Kankei Houteishiki
TitleUnicode:関係≧方程式
Artist:Study
ArtistUnicode:Study
Creator:dkblaze
Version:First Love
Source:ぼくたちは勉強ができない!
Tags:We can't study bokutachi wa benkyou ga dekinai bokuben cant never learn S2 Season 2 anime japanese ED ending Shizuku- 古橋文乃 furuhashi fumino 白石晴香 shiraishi haruka 緒方理珠 ogata rizu 富田美憂 tomita miyu 武元うるか takemoto uruka 鈴代紗弓 suzushiro sayumi 桐須真冬 kirisu mafuyu Lynn 小美浪あすみ kominami asumi 朝日奈丸佳 asahina madoka
BeatmapID:2347315
BeatmapSetID:1123312

[Difficulty]
HPDrainRate:5
CircleSize:3.8
OverallDifficulty:7.8
ApproachRate:8.3
SliderMultiplier:1.4
SliderTickRate:1

[Events]
//Background and Video events
0,0,"BG.jpg",0,0
//Break Periods
2,89554,95293
//Storyboard Layer 0 (Background)
//Storyboard Layer 1 (Fail)
//Storyboard Layer 2 (Pass)
//Storyboard Layer 3 (Foreground)
//Storyboard Layer 4 (Overlay)
//Storyboard Sound Samples

[TimingPoints]
212,428.571428571429,4,2,2,50,1,0
212,-166.666666666667,4,2,2,50,0,0
6212,-111.111111111111,4,2,2,50,0,0
6962,-111.111111111111,4,2,2,5,0,0
7069,-100,4,2,2,60,0,0
7176,-100,4,2,3,60,0,0
12212,-100,4,2,2,60,0,0
14033,-100,4,2,3,60,0,0
19390,-100,4,2,3,5,0,0
19497,-83.3333333333333,4,2,2,60,0,0
20783,-100,4,2,2,60,0,0
24212,-166.666666666667,4,2,2,50,0,0
35354,-250,4,2,2,60,0,0
36212,-125,4,2,2,60,0,0
37819,-125,4,2,2,5,0,0
37926,-125,4,2,2,65,0,0
42319,-125,4,2,2,5,0,0
42426,-125,4,2,2,65,0,0
46819,-125,4,2,2,5,0,0
46926,-125,4,2,2,65,0,0
49926,-100,4,2,2,65,0,0
51640,-125,4,2,2,65,0,0
55069,-83.3333333333333,4,2,2,75,0,1
55176,-83.3333333333333,4,2,3,75,0,1
56890,-83.3333333333333,4,2,3,5,0,1
56997,-83.3333333333333,4,2,3,75,0,1
61926,-83.3333333333333,4,2,2,75,0,1
62033,-83.3333333333333,4,2,3,75,0,1
65354,-83.3333333333333,4,2,2,75,0,1
66319,-83.3333333333333,4,2,2,5,0,1
66426,-83.3333333333333,4,2,2,75,0,1
67069,-83.3333333333333,4,2,3,75,0,1
68783,-83.3333333333333,4,2,2,75,0,1
68890,-83.3333333333333,4,2,3,75,0,1
70604,-83.3333333333333,4,2,3,5,0,1
70712,-83.3333333333333,4,2,3,75,0,1
77783,-83.3333333333333,4,2,2,75,0,1
78319,-83.3333333333333,4,2,2,5,0,1
78426,-83.3333333333333,4,2,2,75,0,1
82497,-100,4,2,2,70,0,0
89354,-142.857142857143,4,2,2,60,0,0
96212,-142.857142857143,4,2,2,50,0,0
101354,-125,4,2,2,60,0,0
103069,-125,4,2,2,65,0,0
107462,-125,4,2,2,5,0,0
107569,-125,4,2,2,65,0,0
111962,-125,4,2,2,5,0,0
112069,-125,4,2,2,65,0,0
115069,-100,4,2,2,65,0,0
116783,-125,4,2,2,65,0,0
120212,-83.3333333333333,4,2,2,75,0,1
120319,-83.3333333333333,4,2,3,75,0,1
122033,-83.3333333333333,4,2,3,5,0,1
122140,-83.3333333333333,4,2,3,75,0,1
127069,-83.3333333333333,4,2,2,75,0,1
127176,-83.3333333333333,4,2,3,75,0,1
130497,-83.3333333333333,4,2,2,75,0,1
131462,-83.3333333333333,4,2,2,5,0,1
131569,-83.3333333333333,4,2,2,75,0,1
132212,-83.3333333333333,4,2,2,75,0,1
132319,-83.3333333333333,4,2,3,75,0,1
133926,-83.3333333333333,4,2,2,75,0,1
134033,-83.3333333333333,4,2,3,75,0,1
135747,-83.3333333333333,4,2,3,5,0,1
135854,-83.3333333333333,4,2,3,75,0,1
140783,-83.3333333333333,4,2,2,75,0,1
140890,-83.3333333333333,4,2,3,75,0,1
142926,-83.3333333333333,4,2,2,75,0,1
143462,-83.3333333333333,4,2,2,5,0,1
143569,-83.3333333333333,4,2,2,75,0,1
146033,-83.3333333333333,4,2,2,5,0,1
146140,-83.3333333333333,4,2,2,75,0,1
147640,-100,4,2,2,70,0,0
147747,-100,4,2,3,70,0,0
152783,-100,4,2,2,70,0,0
154604,-100,4,2,3,70,0,0
159212,-83.3333333333333,4,2,3,70,0,0
159640,-100,4,2,2,70,0,0
161354,-100,4,2,2,70,0,0
170247,-100,4,2,2,5,0,0
170354,-100,4,2,2,70,0,0
177668,428.571428571429,4,2,2,50,1,0
177668,-166.666666666667,4,2,2,50,0,0
178525,-166.666666666667,4,2,2,40,0,0
179635,428.571428571429,4,2,2,40,1,0
179635,-166.666666666667,4,2,2,40,0,0
181760,428.571428571429,4,2,2,40,1,0
181760,-166.666666666667,4,2,2,40,0,0
183452,428.571428571429,4,2,2,60,1,0
183666,-125,4,2,2,60,0,0
184283,428.571428571429,4,2,2,60,1,0
184283,-125,4,2,2,60,0,0
184604,-125,4,2,2,5,0,0
184712,-125,4,2,2,60,0,0
185354,428.571428571429,4,2,2,75,1,0
185354,-83.3333333333333,4,2,3,75,0,1
185461,-83.3333333333333,4,2,3,75,0,1
188782,-83.3333333333333,4,2,2,75,0,1
189746,-83.3333333333333,4,2,2,5,0,1
189853,-83.3333333333333,4,2,2,75,0,1
192211,-83.3333333333333,4,2,2,75,0,1
192318,-83.3333333333333,4,2,3,75,0,1
194032,-83.3333333333333,4,2,3,5,0,1
194139,-83.3333333333333,4,2,3,75,0,1
198961,-83.3333333333333,4,2,3,5,0,1
199068,-83.3333333333333,4,2,2,75,0,1
199175,-83.3333333333333,4,2,3,75,0,1
201211,-83.3333333333333,4,2,2,75,0,1
205925,-90.9090909090909,4,2,2,70,0,0
206032,-90.9090909090909,4,2,3,70,0,0
211496,-83.3333333333333,4,2,3,70,0,0
211818,-83.3333333333333,4,2,3,5,0,0
211925,-90.9090909090909,4,2,2,70,0,0
212782,-90.9090909090909,4,2,2,70,0,0
212889,-100,4,2,3,70,0,0
213425,-83.3333333333333,4,2,3,70,0,0
214068,-90.9090909090909,4,2,3,70,0,0
217496,-83.3333333333333,4,2,3,70,0,0
217818,-83.3333333333333,4,2,3,5,0,0
217925,-90.9090909090909,4,2,2,70,0,0
222211,-90.9090909090909,4,2,2,5,0,0

[Colours]
Combo1 : 164,122,239
Combo2 : 250,88,113
Combo3 : 91,122,247
Combo4 : 238,166,128
Combo5 : 250,175,248

[HitObjects]
131,334,212,6,0,L|123:283,2,41.9999987182618,2|2|0,0:0|0:0|0:0,0:0:0:0:
253,384,854,1,0,0:0:0:0:
335,255,1069,2,0,L|343:204,2,41.9999987182618,2|2|0,0:0|0:0|0:0,0:0:0:0:
213,305,1711,1,0,0:0:0:0:
130,167,1926,2,0,L|122:116,2,41.9999987182618,2|2|0,0:0|0:0|0:0,0:0:0:0:
252,217,2568,1,0,0:0:0:0:
306,120,2783,6,0,P|311:96|316:69,1,41.9999987182618,2|2,0:0|0:0,0:0:0:0:
213,10,3212,1,2,0:0:0:0:
213,10,3426,1,2,0:0:0:0:
42,111,3640,6,0,L|-4:102,2,41.9999987182618,2|2|0,0:0|0:0|0:0,0:0:0:0:
148,88,4283,1,0,0:0:0:0:
221,204,4497,2,0,L|267:195,2,41.9999987182618,2|2|0,0:0|0:0|0:0,0:0:0:0:
111,160,5140,1,0,0:0:0:0:
41,291,5354,2,0,L|-5:282,2,41.9999987182618,2|2|0,0:0|0:0|0:0,0:0:0:0:
142,239,5997,1,0,0:0:0:0:
216,361,6212,6,0,P|248:354|277:327,1,62.9999980773926,6|0,3:2|0:0,0:0:0:0:
287,292,6533,1,8,0:0:0:0:
287,292,6640,2,0,B|336:309|397:325,1,94.499997116089,8|0,0:0|0:0,0:0:0:0:
416,384,7069,6,0,P|400:339|431:230,1,140,6|8,3:2|0:0,0:0:0:0:
502,132,7712,1,2,0:0:0:0:
302,144,7926,2,0,L|395:163,1,70,0|2,3:0|0:0,0:0:0:0:
459,48,8354,1,8,0:0:0:0:
502,132,8569,1,2,0:0:0:0:
378,3,8783,6,0,P|366:36|373:80,1,70,2|2,3:0|0:0,0:0:0:0:
305,239,9212,2,0,P|329:262|378:267,1,70,8|2,0:0|0:0,0:0:0:0:
502,132,9640,2,0,L|426:122,1,70,0|2,3:0|0:0,0:0:0:0:
305,239,10069,2,0,L|229:249,1,70,8|2,0:0|0:0,0:0:0:0:
67,147,10497,6,0,P|48:91|106:28,1,140,2|8,3:0|0:0,0:0:0:0:
211,105,11140,1,2,0:0:0:0:
162,249,11354,2,0,L|153:171,1,70,0|2,3:0|0:0,0:0:0:0:
142,20,11783,1,8,0:0:0:0:
211,105,11997,1,2,0:0:0:0:
36,220,12212,5,2,3:2:0:0:
128,100,12426,1,2,0:0:0:0:
162,249,12640,1,10,0:0:0:0:
112,179,12854,1,2,0:0:0:0:
337,134,13069,5,2,3:2:0:0:
253,208,13283,1,2,0:0:0:0:
211,105,13497,1,10,0:0:0:0:
112,179,13712,1,10,0:0:0:0:
112,179,13819,1,8,0:0:0:0:
112,179,13926,6,0,P|79:233|107:316,1,140,6|8,3:2|0:0,0:0:0:0:
205,373,14569,1,2,0:0:0:0:
259,192,14783,2,0,B|341:179|320:233|397:230,1,140,0|8,3:0|0:0,0:0:0:0:
455,160,15426,1,2,0:0:0:0:
282,271,15640,6,0,P|290:311|296:344,1,70,2|2,3:0|0:0,0:0:0:0:
470,384,16069,2,0,P|475:357|490:304,1,70,8|2,0:0|0:0,0:0:0:0:
455,160,16497,2,0,L|374:147,1,70,0|2,3:0|0:0,0:0:0:0:
249,50,16926,2,0,L|330:37,1,70,8|2,0:0|0:0,0:0:0:0:
458,163,17354,6,0,L|366:148,1,70,2|2,3:0|0:0,0:0:0:0:
293,249,17783,1,8,0:0:0:0:
149,115,17997,2,0,P|164:186|169:265,1,140,2|2,0:0|0:0,0:0:0:0:
37,384,18640,2,0,P|24:360|34:310,1,70,8|2,0:0|0:0,0:0:0:0:
185,332,19069,6,0,B|230:322|230:322|241:305|241:305|303:293,1,105,2|0,3:0|0:0,0:0:0:0:
342,336,19497,6,0,P|361:311|356:251,1,83.9999974365235,14|2,3:2|3:2,0:0:0:0:
331,215,19819,1,0,3:0:0:0:
331,215,19926,2,0,L|236:199,1,83.9999974365235,0|2,3:0|0:0,0:0:0:0:
167,128,20354,1,0,3:0:0:0:
177,158,20569,1,2,0:0:0:0:
282,84,20783,6,0,P|295:53|290:12,1,70,4|2,3:2|0:0,0:0:0:0:
147,51,21212,2,0,L|240:37,1,70,0|2,3:0|0:0,0:0:0:0:
100,217,21640,2,0,P|87:186|92:145,1,70,0|2,3:0|0:0,0:0:0:0:
235,184,22069,2,0,L|142:170,1,70,0|2,3:0|0:0,0:0:0:0:
280,347,22497,2,0,P|293:316|288:275,1,70,0|2,3:0|0:0,0:0:0:0:
145,314,22926,2,0,L|238:300,1,70,0|2,3:0|0:0,0:0:0:0:
41,230,23354,5,2,3:2:0:0:
19,268,23569,1,2,0:0:0:0:
16,311,23783,1,2,3:2:0:0:
34,350,23997,1,2,0:0:0:0:
69,375,24212,5,2,0:0:0:0:
145,314,24426,2,0,L|153:259,2,41.9999987182618,2|2|2,0:0|0:0|0:0,0:0:0:0:
268,384,25069,1,2,0:0:0:0:
268,384,25283,1,2,0:0:0:0:
289,302,25497,1,2,0:0:0:0:
460,384,25712,6,0,P|431:347|421:295,1,83.9999974365235,2|2,0:0|0:0,0:0:0:0:
432,160,26354,1,2,0:0:0:0:
510,211,26569,1,2,0:0:0:0:
510,211,26783,2,0,L|497:298,1,83.9999974365235,2|0,0:0|0:0,0:0:0:0:
482,384,27426,1,0,0:0:0:0:
370,320,27640,5,0,0:0:0:0:
312,375,27854,2,0,L|267:385,2,41.9999987182618,2|2|2,0:0|0:0|0:0,0:0:0:0:
276,255,28497,1,2,0:0:0:0:
276,255,28712,1,2,0:0:0:0:
207,317,28926,1,2,0:0:0:0:
113,252,29140,6,0,L|19:231,1,83.9999974365235,2|2,0:0|0:0,0:0:0:0:
122,141,29783,1,2,0:0:0:0:
122,141,29997,1,2,0:0:0:0:
217,126,30212,2,0,P|219:163|186:210,1,83.9999974365235,2|0,0:0|0:0,0:0:0:0:
158,62,30854,1,2,0:0:0:0:
282,10,31069,6,0,L|335:20,1,41.9999987182618,2|2,0:0|0:0,0:0:0:0:
424,73,31497,2,0,L|371:83,1,41.9999987182618,2|2,0:0|0:0,0:0:0:0:
491,12,31926,2,0,P|513:50|511:98,1,83.9999974365235,2|0,0:0|0:0,0:0:0:0:
459,152,32569,1,2,0:0:0:0:
339,65,32783,5,2,0:0:0:0:
285,119,32997,1,2,0:0:0:0:
187,42,33212,1,2,0:0:0:0:
127,95,33426,2,0,P|159:121|203:123,1,83.9999974365235,2|2,0:0|0:0,0:0:0:0:
271,14,34069,1,2,0:0:0:0:
271,14,34283,1,2,0:0:0:0:
355,114,34497,6,0,L|347:214,1,83.9999974365235,2|0,0:0|0:0,0:0:0:0:
271,241,35140,1,2,0:0:0:0:
271,241,35354,6,0,L|275:301,1,56,2|0,0:0|0:0,0:0:0:0:
322,372,35997,1,2,0:0:0:0:
404,261,36212,5,2,0:0:0:0:
404,261,36640,1,2,0:0:0:0:
114,340,37069,5,2,0:0:0:0:
199,384,37283,1,0,0:0:0:0:
111,343,37497,2,0,L|122:250,1,84,8|0,3:3|0:0,0:0:0:0:
128,205,37926,5,6,3:2:0:0:
62,139,38140,2,0,P|41:167|36:195,1,56,2|0,0:0|3:0,0:0:0:0:
176,128,38569,2,0,B|236:143|213:176|274:190,1,112,2|0,0:0|0:0,0:0:0:0:
343,112,39212,1,0,3:0:0:0:
447,162,39426,1,2,0:0:0:0:
391,11,39640,5,2,3:2:0:0:
332,58,39854,2,0,L|347:131,1,56,2|0,0:0|3:0,0:0:0:0:
512,209,40283,2,0,P|459:205|421:251,1,112,2|0,0:0|0:0,0:0:0:0:
288,208,40926,1,0,3:0:0:0:
369,314,41140,1,2,0:0:0:0:
422,245,41354,5,2,3:2:0:0:
366,317,41569,2,0,L|305:326,1,56,2|0,0:0|3:0,0:0:0:0:
214,263,41997,2,0,P|173:256|132:289,1,84,2|0,0:0|0:0,0:0:0:0:
102,317,42426,1,2,0:0:0:0:
42,261,42640,1,2,3:2:0:0:
214,263,42854,6,0,L|230:144,1,112,2|2,0:0|0:0,0:0:0:0:
141,87,43497,1,2,3:2:0:0:
82,141,43712,1,2,0:0:0:0:
0,37,43926,2,0,B|56:44|52:2|111:7,1,112,2|0,3:2|3:0,0:0:0:0:
276,118,44569,1,2,0:0:0:0:
230,7,44783,5,6,3:2:0:0:
141,87,44997,1,2,0:0:0:0:
300,214,45212,1,10,0:0:0:0:
312,188,45319,1,8,0:0:0:0:
313,159,45426,1,10,0:0:0:0:
300,133,45533,1,8,0:0:0:0:
276,118,45640,1,6,3:2:0:0:
133,237,45854,1,2,0:0:0:0:
68,157,46069,1,2,3:2:0:0:
136,240,46283,1,10,0:3:0:0:
12,304,46497,6,0,P|54:301|95:338,1,84,6|0,3:2|0:0,0:0:0:0:
97,364,46926,2,0,P|127:355|164:352,1,56,8|0,0:0|0:0,0:0:0:0:
218,241,47354,2,0,P|248:250|285:253,1,56,2|0,3:2|0:0,0:0:0:0:
361,335,47783,1,8,0:0:0:0:
437,280,47997,1,2,0:0:0:0:
295,201,48212,6,0,L|304:269,1,56,2|2,3:2|0:0,0:0:0:0:
182,382,48640,1,10,0:0:0:0:
154,382,48747,1,8,0:0:0:0:
129,368,48854,1,10,0:0:0:0:
110,346,48962,1,8,0:0:0:0:
104,318,49069,1,6,3:2:0:0:
206,206,49283,1,2,0:0:0:0:
180,305,49497,1,10,0:0:0:0:
58,240,49712,1,6,0:3:0:0:
209,203,49926,6,0,P|220:180|214:126,1,70,2|0,3:2|0:0,0:0:0:0:
71,44,50354,2,0,L|150:30,1,70,10|0,0:0|0:0,0:0:0:0:
218,136,50783,2,0,L|304:150,1,70,2|0,3:2|0:0,0:0:0:0:
429,16,51212,2,0,P|414:42|414:85,1,70,14|0,0:0|3:0,0:0:0:0:
495,252,51640,5,14,3:2:0:0:
420,193,51854,1,0,3:0:0:0:
361,268,52069,1,0,3:0:0:0:
286,209,52283,1,8,3:2:0:0:
420,193,52497,5,8,3:2:0:0:
302,343,52712,1,8,3:2:0:0:
270,75,52926,1,8,3:2:0:0:
152,225,53140,1,8,3:2:0:0:
286,209,53354,6,0,P|295:183|291:152,1,56,10|2,0:0|0:0,0:0:0:0:
118,68,53783,2,0,P|93:86|82:116,1,56,2|2,0:0|0:0,0:0:0:0:
152,225,54212,5,2,0:0:0:0:
152,225,54640,1,10,3:3:0:0:
353,99,55069,5,6,3:2:0:0:
410,190,55283,1,0,0:0:0:0:
512,33,55497,2,0,P|502:115|493:210,1,167.999994873047,8|0,0:0|3:0,0:0:0:0:
348,263,56140,1,2,0:0:0:0:
410,190,56354,1,8,0:0:0:0:
509,329,56569,6,0,B|440:331|464:378|396:384,1,125.999996154785,2|0,0:0|0:0,0:0:0:0:
355,351,56997,1,2,0:0:0:0:
410,186,57212,1,8,0:0:0:0:
512,332,57426,1,2,0:0:0:0:
325,171,57640,2,0,P|327:216|359:254,1,83.9999974365235,0|2,3:0|0:0,0:0:0:0:
476,96,58069,1,8,0:0:0:0:
512,206,58283,1,2,0:0:0:0:
325,171,58497,5,2,3:0:0:0:
476,96,58712,1,2,0:0:0:0:
411,234,58926,1,8,0:0:0:0:
411,234,59140,1,2,0:0:0:0:
325,171,59354,1,0,3:0:0:0:
226,293,59569,2,0,P|225:254|199:211,1,83.9999974365235,2|8,0:0|0:0,0:0:0:0:
40,61,59997,1,2,0:0:0:0:
180,133,60212,5,2,3:0:0:0:
19,238,60426,2,0,L|29:146,1,83.9999974365235,2|8,0:0|0:0,0:0:0:0:
232,72,60854,2,0,P|261:126|205:212,1,167.999994873047,2|2,0:0|0:0,0:0:0:0:
96,89,61497,1,8,0:0:0:0:
19,238,61712,1,8,0:0:0:0:
19,238,61819,1,8,0:0:0:0:
19,238,61926,5,6,3:2:0:0:
198,211,62140,1,0,0:0:0:0:
96,89,62354,1,8,0:0:0:0:
117,289,62569,1,2,0:0:0:0:
0,136,62783,2,0,P|85:130|174:109,1,167.999994873047,0|8,3:0|0:0,0:0:0:0:
313,26,63426,1,2,0:0:0:0:
278,187,63640,5,2,3:0:0:0:
223,52,63854,1,2,0:0:0:0:
385,87,64069,1,8,0:0:0:0:
276,190,64283,1,2,0:0:0:0:
428,311,64497,2,0,P|422:253|448:145,1,167.999994873047,0|8,3:0|0:0,0:0:0:0:
510,272,65140,1,2,0:0:0:0:
346,276,65354,5,6,3:2:0:0:
510,357,65569,1,2,0:0:0:0:
512,194,65783,1,10,3:2:0:0:
361,358,65997,2,0,L|229:376,1,125.999996154785,6|0,3:2|0:0,0:0:0:0:
193,384,66426,1,2,3:2:0:0:
13,222,66640,1,10,0:0:0:0:
196,278,66854,1,2,3:2:0:0:
56,384,67069,6,0,P|62:347|40:298,1,83.9999974365235,2|2,3:0|0:0,0:0:0:0:
0,131,67497,2,0,P|37:131|80:98,1,83.9999974365235,8|2,0:0|0:0,0:0:0:0:
155,0,67926,1,0,3:0:0:0:
245,152,68140,1,8,0:0:0:0:
277,160,68247,1,8,0:0:0:0:
310,154,68354,1,8,0:0:0:0:
332,129,68462,1,8,0:3:0:0:
355,105,68569,1,4,0:3:0:0:
387,95,68676,1,4,0:3:0:0:
420,98,68783,5,6,3:2:0:0:
349,23,68997,1,0,0:0:0:0:
368,240,69212,2,0,B|437:222|437:222|449:193|449:193|517:175,1,167.999994873047,8|0,0:0|3:0,0:0:0:0:
420,98,69854,1,2,0:0:0:0:
297,205,70069,1,8,0:0:0:0:
165,21,70283,6,0,P|182:89|186:151,1,125.999996154785,2|0,0:0|0:0,0:0:0:0:
175,191,70712,1,2,0:0:0:0:
26,137,70926,1,8,0:0:0:0:
56,277,71140,1,2,0:0:0:0:
175,191,71354,2,0,L|261:182,1,83.9999974365235,0|2,3:0|0:0,0:0:0:0:
390,165,71783,1,8,0:0:0:0:
315,103,71997,1,2,0:0:0:0:
267,281,72212,5,2,3:0:0:0:
390,165,72426,1,2,0:0:0:0:
221,140,72640,1,8,0:0:0:0:
425,86,72854,1,2,0:0:0:0:
358,246,73069,1,0,3:0:0:0:
221,140,73283,2,0,L|308:153,1,83.9999974365235,2|8,0:0|0:0,0:0:0:0:
483,177,73712,1,2,0:0:0:0:
454,8,73926,5,2,3:0:0:0:
288,69,74140,2,0,L|304:155,1,83.9999974365235,2|8,0:0|0:0,0:0:0:0:
334,311,74569,1,2,0:0:0:0:
184,212,74783,2,0,B|97:230|132:286|45:300,1,167.999994873047,0|8,3:0|0:0,0:0:0:0:
18,160,75426,1,2,0:0:0:0:
240,270,75640,5,2,3:0:0:0:
106,152,75854,1,2,0:0:0:0:
47,315,76069,1,8,0:0:0:0:
108,161,76283,1,2,0:0:0:0:
174,383,76497,2,0,B|257:383|244:325|333:332,1,167.999994873047,0|8,3:0|0:0,0:0:0:0:
454,384,77140,1,2,0:0:0:0:
512,208,77354,5,2,3:0:0:0:
389,271,77569,1,2,0:0:0:0:
510,214,77783,1,10,0:0:0:0:
360,58,77997,2,0,B|312:70|312:70|303:94|303:94|239:112,1,125.999996154785,6|0,3:2|0:0,0:0:0:0:
206,120,78426,5,2,3:2:0:0:
248,23,78640,1,10,0:3:0:0:
419,189,78854,1,6,3:2:0:0:
419,189,79283,5,2,3:2:0:0:
383,103,79497,1,10,0:0:0:0:
231,306,79712,1,6,3:2:0:0:
231,306,80140,5,2,3:2:0:0:
262,205,80354,1,10,0:0:0:0:
463,324,80569,6,0,B|380:317|406:379|309:384,1,167.999994873047,6|0,3:2|3:0,0:0:0:0:
172,251,81212,2,0,B|138:257|138:257|130:271|130:271|91:280,1,83.9999974365235,12|0,0:0|0:0,0:0:0:0:
46,87,81640,2,0,P|45:65|82:20,1,83.9999974365235,2|0,3:2|0:0,0:0:0:0:
237,51,82069,2,0,P|250:88|243:135,1,83.9999974365235,6|0,3:3|0:0,0:0:0:0:
82,251,82497,6,0,L|162:235,1,70,6|0,3:2|0:0,0:0:0:0:
256,295,82926,1,10,0:0:0:0:
300,220,83140,2,0,B|376:211|361:267|435:267,1,140,0|0,3:0|3:0,0:0:0:0:
504,175,83783,2,0,P|503:141|518:96,1,70,10|2,0:0|3:2,0:0:0:0:
355,3,84212,6,0,P|371:60|379:150,1,140,2|10,3:2|0:0,0:0:0:0:
455,49,84854,1,6,3:2:0:0:
257,210,85283,1,0,3:0:0:0:
215,140,85497,2,0,L|142:130,1,70,10|0,0:0|0:0,0:0:0:0:
2,209,85926,6,0,P|18:240|23:288,2,70,2|0|8,3:2|3:0|0:0,0:0:0:0:
206,275,86569,2,0,B|153:290|153:290|143:318|143:318|69:340,1,140,6|2,3:2|3:2,0:0:0:0:
268,228,87212,2,0,P|283:261|279:300,1,70,10|0,0:0|3:0,0:0:0:0:
130,207,87640,6,0,L|142:112,1,70,6|2,3:2|0:0,0:0:0:0:
147,90,87962,1,8,0:0:0:0:
147,90,88069,1,10,0:0:0:0:
58,26,88283,1,8,0:3:0:0:
58,26,88390,1,8,0:3:0:0:
58,26,88497,1,2,3:2:0:0:
16,130,88712,1,4,0:3:0:0:
16,130,88819,1,4,0:3:0:0:
16,130,88926,1,10,0:3:0:0:
106,184,89140,1,0,3:0:0:0:
71,270,89354,1,6,3:2:0:0:
406,73,95997,5,2,0:0:0:0:
327,108,96212,2,0,P|313:132|317:167,1,48.9999985046387,2|2,3:2|0:0,0:0:0:0:
429,199,96640,2,0,P|444:176|445:134,1,48.9999985046387,2|2,0:0|3:2,0:0:0:0:
349,235,97069,1,10,0:0:0:0:
127,113,97712,5,2,0:0:0:0:
42,91,97926,1,2,3:2:0:0:
66,176,98140,1,2,0:0:0:0:
188,50,98354,1,2,0:0:0:0:
188,50,98569,2,0,P|203:74|210:109,1,48.9999985046387,2|8,3:2|0:0,0:0:0:0:
143,238,98997,2,0,L|76:256,2,48.9999985046387,2|2|2,0:0|0:0|0:0,0:0:0:0:
265,332,99640,6,0,P|258:287|231:321,1,97.9999970092774,2|0,3:2|0:0,0:0:0:0:
147,363,100283,1,2,3:2:0:0:
25,308,100497,1,10,0:0:0:0:
25,308,101140,1,2,0:0:0:0:
116,176,101354,5,2,3:2:0:0:
42,143,101569,2,0,P|32:171|39:203,1,56,8|2,3:2|0:0,0:0:0:0:
174,244,101997,1,4,0:3:0:0:
263,123,102212,1,6,3:3:0:0:
263,123,102426,1,4,3:3:0:0:
116,176,102640,1,8,3:2:0:0:
174,244,102854,1,2,0:0:0:0:
263,123,103069,5,6,3:2:0:0:
363,146,103283,2,0,P|379:176|378:215,1,56,2|0,0:0|3:0,0:0:0:0:
290,334,103712,2,0,L|274:197,1,112,2|0,0:0|0:0,0:0:0:0:
363,146,104354,1,0,3:0:0:0:
427,228,104569,1,2,0:0:0:0:
483,70,104783,5,2,3:2:0:0:
418,137,104997,2,0,L|349:147,1,56,2|0,0:0|3:0,0:0:0:0:
246,34,105426,2,0,P|207:30|159:88,1,112,2|0,0:0|0:0,0:0:0:0:
84,184,106069,1,0,3:0:0:0:
6,115,106283,1,2,0:0:0:0:
87,187,106497,5,2,3:2:0:0:
0,276,106712,2,0,P|0:250|19:216,1,56,2|0,0:0|3:0,0:0:0:0:
154,338,107140,2,0,L|55:354,1,84,2|0,0:0|0:0,0:0:0:0:
33,358,107569,1,2,0:0:0:0:
84,266,107783,1,2,3:2:0:0:
226,300,107997,6,0,P|234:335|226:371,1,56,2|0,0:0|3:0,0:0:0:0:
167,235,108426,2,0,P|163:209|178:172,1,56,2|2,0:0|3:2,0:0:0:0:
257,124,108854,1,2,0:0:0:0:
353,216,109069,2,0,B|401:205|401:205|411:186|411:186|459:176,1,112,2|0,3:2|3:0,0:0:0:0:
374,79,109712,1,2,0:0:0:0:
353,216,109926,5,6,3:2:0:0:
451,177,110140,1,2,0:0:0:0:
271,59,110354,1,10,0:0:0:0:
253,81,110462,1,8,0:0:0:0:
245,107,110569,1,10,0:0:0:0:
250,134,110676,1,8,0:0:0:0:
268,155,110783,1,6,3:2:0:0:
380,110,110997,1,2,3:2:0:0:
429,264,111212,1,10,0:3:0:0:
302,231,111426,2,0,L|341:222,1,28,10|8,0:3|0:3,0:0:0:0:
350,224,111640,6,0,P|336:263|352:311,1,84,6|0,3:2|0:0,0:0:0:0:
365,351,112069,2,0,P|335:343|296:336,1,56,8|0,0:0|0:0,0:0:0:0:
223,244,112497,2,0,P|194:253|154:259,1,56,2|0,3:2|0:0,0:0:0:0:
11,163,112926,1,8,0:0:0:0:
91,259,113140,1,2,0:0:0:0:
2,384,113354,6,0,P|1:350|8:319,1,56,2|2,3:2|0:0,0:0:0:0:
132,182,113783,1,10,0:0:0:0:
140,155,113890,1,8,0:0:0:0:
136,127,113997,1,10,0:0:0:0:
122,102,114104,1,8,0:0:0:0:
96,89,114212,1,6,3:2:0:0:
11,163,114426,1,2,0:0:0:0:
91,259,114640,1,10,3:2:0:0:
213,135,114854,1,10,0:0:0:0:
213,135,114962,1,8,0:0:0:0:
213,135,115069,6,0,P|178:141|141:119,1,70,2|0,3:2|0:0,0:0:0:0:
8,16,115497,2,0,P|14:51|19:86,1,70,10|0,0:0|0:0,0:0:0:0:
91,259,115926,2,0,P|96:226|102:184,1,70,2|0,3:2|0:0,0:0:0:0:
129,54,116247,1,4,0:3:0:0:
143,40,116354,2,0,P|180:34|210:49,1,70,14|0,3:2|3:0,0:0:0:0:
428,166,116783,5,14,3:2:0:0:
331,212,116997,1,0,3:0:0:0:
280,117,117212,1,0,3:0:0:0:
329,218,117426,1,8,3:2:0:0:
379,68,117640,5,8,3:2:0:0:
327,224,117854,1,8,3:2:0:0:
133,147,118069,1,8,3:2:0:0:
195,302,118283,1,10,3:2:0:0:
280,117,118497,6,0,P|270:95|265:61,1,56,10|2,3:2|0:0,0:0:0:0:
137,5,118926,2,0,P|130:38|114:67,1,56,2|2,0:0|0:0,0:0:0:0:
0,170,119354,5,2,0:0:0:0:
0,170,119783,1,10,3:3:0:0:
195,302,120212,5,6,3:2:0:0:
137,161,120426,1,0,0:0:0:0:
1,337,120640,2,0,B|90:316|53:259|145:239,1,167.999994873047,8|0,0:0|3:0,0:0:0:0:
281,194,121283,1,2,0:0:0:0:
195,302,121497,1,8,0:0:0:0:
28,150,121712,6,0,P|16:103|55:36,1,125.999996154785,2|0,0:0|0:0,0:0:0:0:
101,28,122140,1,2,0:0:0:0:
255,93,122354,1,8,0:0:0:0:
116,164,122569,1,2,0:0:0:0:
264,9,122783,2,0,L|254:95,1,83.9999974365235,0|2,3:0|0:0,0:0:0:0:
418,223,123212,1,8,0:0:0:0:
383,103,123426,1,2,0:0:0:0:
280,249,123640,5,2,3:0:0:0:
418,223,123854,1,2,0:0:0:0:
418,223,124069,1,8,0:0:0:0:
254,92,124283,1,2,0:0:0:0:
193,190,124497,1,0,3:0:0:0:
53,107,124712,2,0,P|97:104|135:126,1,83.9999974365235,2|8,0:0|0:0,0:0:0:0:
198,273,125140,1,2,0:0:0:0:
257,125,125354,5,2,3:0:0:0:
194,279,125569,2,0,L|110:296,1,83.9999974365235,2|8,0:0|0:0,0:0:0:0:
314,383,125997,2,0,P|320:322|327:210,1,167.999994873047,2|2,0:0|0:0,0:0:0:0:
327,179,126533,1,8,0:0:0:0:
327,179,126640,1,8,0:0:0:0:
418,234,126854,1,2,0:0:0:0:
512,65,127069,6,0,L|498:156,1,83.9999974365235,6|2,3:2|0:0,0:0:0:0:
327,268,127497,1,8,0:0:0:0:
415,142,127712,1,2,0:0:0:0:
508,356,127926,2,0,P|442:290|384:331,1,167.999994873047,0|8,3:0|0:0,0:0:0:0:
197,274,128569,1,2,0:0:0:0:
263,179,128783,5,2,3:0:0:0:
272,368,128997,1,2,0:0:0:0:
200,274,129212,1,8,0:0:0:0:
381,326,129426,1,2,0:0:0:0:
173,358,129640,2,0,B|58:378|58:378|106:339,1,167.999994873047,0|8,3:0|0:0,0:0:0:0:
98,212,130283,1,2,0:0:0:0:
173,358,130497,5,6,3:2:0:0:
261,219,130712,1,2,3:2:0:0:
172,369,130926,1,10,3:2:0:0:
16,172,131140,2,0,B|70:162|70:162|83:139|83:139|144:129,1,125.999996154785,6|0,3:2|0:0,0:0:0:0:
182,122,131569,1,2,3:2:0:0:
265,215,131783,1,10,0:0:0:0:
179,268,131997,1,2,3:2:0:0:
95,95,132212,6,0,P|93:144|113:182,1,83.9999974365235,2|2,3:0|0:0,0:0:0:0:
254,64,132640,1,8,0:0:0:0:
342,169,132854,1,8,0:0:0:0:
342,169,132962,1,8,0:0:0:0:
342,169,133069,2,0,P|326:232|326:295,1,125.999996154785,0|8,3:0|0:0,0:0:0:0:
378,357,133497,1,0,3:0:0:0:
397,365,133604,1,8,0:0:0:0:
418,364,133712,2,0,P|434:354|449:333,1,41.9999987182618,4|0,0:3|0:0,0:0:0:0:
499,256,133926,5,6,3:2:0:0:
425,195,134140,1,0,0:0:0:0:
512,57,134354,2,0,P|449:77|344:83,1,167.999994873047,8|0,0:0|3:0,0:0:0:0:
241,18,134997,1,2,0:0:0:0:
273,160,135212,1,8,0:0:0:0:
116,40,135426,6,0,P|63:63|64:125,1,125.999996154785,2|0,0:0|0:0,0:0:0:0:
112,152,135854,1,2,0:0:0:0:
273,160,136069,1,8,0:0:0:0:
189,86,136283,1,2,0:0:0:0:
40,226,136497,2,0,P|77:225|111:261,1,83.9999974365235,0|2,3:0|0:0,0:0:0:0:
273,160,136926,1,8,0:0:0:0:
217,234,137140,1,2,0:0:0:0:
92,60,137354,5,2,3:0:0:0:
148,169,137569,1,2,0:0:0:0:
307,45,137783,1,8,0:0:0:0:
273,160,137997,1,2,0:0:0:0:
200,0,138212,1,0,3:0:0:0:
275,165,138426,2,0,L|361:178,1,83.9999974365235,2|8,0:0|0:0,0:0:0:0:
485,194,138854,1,2,0:0:0:0:
339,86,139069,5,2,3:0:0:0:
273,257,139283,1,2,0:0:0:0:
95,200,139497,2,0,P|90:169|114:119,1,83.9999974365235,8|2,0:0|0:0,0:0:0:0:
255,73,139926,2,0,L|341:86,1,83.9999974365235,0|2,3:0|0:0,0:0:0:0:
414,252,140354,1,8,0:0:0:0:
485,194,140569,1,2,0:0:0:0:
305,159,140783,5,6,3:2:0:0:
414,252,140997,1,2,0:0:0:0:
463,103,141212,1,8,0:0:0:0:
416,258,141426,1,2,0:0:0:0:
257,81,141640,2,0,P|219:134|256:233,1,167.999994873047,0|8,3:0|0:0,0:0:0:0:
197,370,142283,1,2,0:0:0:0:
76,279,142497,5,2,3:0:0:0:
247,226,142712,1,2,0:0:0:0:
149,174,142926,1,10,0:0:0:0:
21,350,143140,2,0,B|94:364|83:305|162:325,1,125.999996154785,6|0,3:2|0:0,0:0:0:0:
192,358,143569,5,2,3:2:0:0:
267,315,143783,1,10,0:0:0:0:
69,199,143997,1,6,3:2:0:0:
69,199,144426,5,2,3:2:0:0:
0,143,144640,1,10,0:3:0:0:
198,73,144854,1,6,3:2:0:0:
198,73,145283,5,2,3:2:0:0:
264,18,145497,1,10,0:0:0:0:
17,0,145712,6,0,P|-4:43|31:106,1,125.999996154785,6|0,3:2|0:0,0:0:0:0:
66,140,146140,2,0,P|89:136|123:122,1,41.9999987182618,0|0,3:0|0:0,0:0:0:0:
198,73,146354,1,12,3:3:0:0:
222,68,146462,1,8,0:3:0:0:
246,70,146569,1,4,0:3:0:0:
269,79,146676,1,8,3:0:0:0:
286,97,146783,1,2,3:2:0:0:
465,119,146997,5,8,0:0:0:0:
432,125,147104,1,8,0:0:0:0:
409,150,147212,1,2,3:2:0:0:
398,181,147319,1,8,0:3:0:0:
403,214,147426,2,0,L|415:256,1,41.9999987182618,4|0,0:3|0:0,0:0:0:0:
484,336,147640,6,0,B|415:329|435:283|347:274,1,140,6|8,3:2|0:0,0:0:0:0:
289,355,148283,1,2,0:0:0:0:
178,239,148497,2,0,P|196:307|199:380,1,140,0|8,3:0|0:0,0:0:0:0:
270,254,149140,1,2,0:0:0:0:
250,83,149354,6,0,P|232:119|236:161,1,70,2|2,3:0|0:0,0:0:0:0:
352,181,149783,2,0,P|370:145|366:103,1,70,8|2,0:0|0:0,0:0:0:0:
221,9,150212,2,0,P|190:17|146:22,1,70,0|2,3:0|0:0,0:0:0:0:
29,103,150640,2,0,P|67:105|104:116,1,70,8|2,0:0|0:0,0:0:0:0:
269,202,151069,6,0,P|212:174|188:232,1,140,2|8,3:0|0:0,0:0:0:0:
259,294,151712,1,2,0:0:0:0:
45,295,151926,2,0,P|101:267|125:325,1,140,0|8,3:0|0:0,0:0:0:0:
59,383,152569,1,2,0:0:0:0:
0,211,152783,5,2,3:2:0:0:
112,126,152997,1,2,0:0:0:0:
170,269,153212,1,10,0:0:0:0:
91,216,153426,1,2,0:0:0:0:
246,110,153640,5,2,3:2:0:0:
186,181,153854,1,2,0:0:0:0:
112,126,154069,1,14,0:0:0:0:
173,54,154283,1,2,0:0:0:0:
284,204,154497,6,0,B|342:191|342:191|356:165|356:165|420:153,1,140,6|8,3:2|0:0,0:0:0:0:
366,73,155140,1,2,0:0:0:0:
216,151,155354,2,0,P|199:198|246:279,1,140,0|8,3:0|0:0,0:0:0:0:
344,304,155997,1,2,0:0:0:0:
509,237,156212,6,0,P|494:278|495:309,1,70,2|2,3:0|0:0,0:0:0:0:
344,304,156640,2,0,P|361:340|363:375,1,70,8|2,0:0|0:0,0:0:0:0:
421,215,157069,2,0,L|325:196,1,70,0|2,3:0|0:0,0:0:0:0:
257,310,157497,2,0,L|161:329,1,70,8|2,0:0|0:0,0:0:0:0:
49,205,157926,6,0,P|104:182|173:235,1,140,2|8,3:0|0:0,0:0:0:0:
291,384,158569,2,0,P|285:338|304:236,1,140,2|2,0:0|0:0,0:0:0:0:
489,112,159212,6,0,P|448:126|388:135,1,83.9999974365235,12|2,0:0|0:0,0:0:0:0:
181,101,159640,5,10,3:2:0:0:
165,70,159747,1,8,0:0:0:0:
169,36,159854,1,8,0:0:0:0:
191,9,159961,1,8,0:0:0:0:
224,0,160068,1,0,3:0:0:0:
257,9,160175,1,8,0:3:0:0:
279,36,160282,1,4,0:3:0:0:
289,203,160497,5,10,3:2:0:0:
446,152,160712,1,2,3:2:0:0:
428,154,160819,1,10,0:0:0:0:
414,164,160926,1,10,3:2:0:0:
404,178,161033,1,10,0:3:0:0:
400,195,161140,2,0,L|413:251,1,35,6|6,0:3|0:3,0:0:0:0:
430,314,161354,5,4,3:2:0:0:
191,162,161783,2,0,P|213:190|215:235,1,70,10|0,0:0|3:0,0:0:0:0:
159,341,162212,2,0,P|130:356|82:352,1,70,2|0,3:2|3:0,0:0:0:0:
0,237,162640,2,0,L|74:225,1,70,10|0,0:0|0:0,0:0:0:0:
139,98,163069,5,2,3:2:0:0:
139,98,163283,1,0,3:0:0:0:
26,20,163497,2,0,P|20:61|35:93,1,70,10|0,0:0|0:0,0:0:0:0:
188,29,163926,2,0,L|271:43,1,70,2|0,3:2|3:0,0:0:0:0:
365,119,164354,2,0,L|282:133,1,70,10|0,0:0|3:0,0:0:0:0:
174,258,164783,6,0,B|244:266|215:317|301:334,1,140,2|8,3:2|0:0,0:0:0:0:
370,276,165426,1,2,3:2:0:0:
438,345,165640,1,0,3:0:0:0:
438,345,165854,1,0,3:0:0:0:
512,207,166069,1,8,0:0:0:0:
431,159,166283,1,2,0:0:0:0:
370,276,166497,6,0,P|338:261|293:265,1,70,2|0,3:2|3:0,0:0:0:0:
173,176,166926,2,0,L|159:96,1,70,10|0,0:0|3:0,0:0:0:0:
308,59,167354,2,0,L|294:139,1,70,2|0,3:2|3:0,0:0:0:0:
256,322,167783,1,14,0:0:0:0:
252,197,167997,1,0,3:0:0:0:
370,276,168212,5,6,3:2:0:0:
78,384,168640,2,0,P|90:352|97:313,1,70,8|0,0:0|0:0,0:0:0:0:
0,180,169069,2,0,L|13:259,1,70,2|0,3:2|3:0,0:0:0:0:
153,214,169497,2,0,L|166:135,1,70,8|0,0:0|3:0,0:0:0:0:
0,49,169926,6,0,P|46:64|104:19,1,105,2|0,3:2|0:0,0:0:0:0:
103,0,170354,2,0,P|133:11|181:16,1,70,10|0,0:0|0:0,0:0:0:0:
265,125,170783,1,2,3:2:0:0:
355,30,170997,5,2,3:2:0:0:
393,155,171212,1,10,0:0:0:0:
137,95,171426,1,6,3:2:0:0:
137,95,171854,5,2,3:2:0:0:
175,220,172069,1,10,0:0:0:0:
355,30,172283,1,6,3:2:0:0:
355,30,172712,5,2,3:2:0:0:
483,60,172926,1,10,0:0:0:0:
294,232,173140,6,0,P|290:186|250:96,1,140,6|0,3:2|3:0,0:0:0:0:
429,0,173783,1,8,0:0:0:0:
512,164,173997,1,0,3:0:0:0:
494,176,174104,1,8,0:3:0:0:
474,182,174211,1,2,3:2:0:0:
453,181,174318,1,8,0:3:0:0:
432,176,174425,1,4,0:3:0:0:
413,165,174532,1,4,0:3:0:0:
397,151,174639,1,2,3:2:0:0:
465,80,174854,1,0,3:0:0:0:
512,259,175069,5,14,3:2:0:0:
466,76,175283,1,0,3:0:0:0:
312,194,175497,1,0,3:0:0:0:
512,259,175712,1,8,3:2:0:0:
229,182,175926,5,8,3:2:0:0:
445,155,176140,1,8,3:2:0:0:
361,323,176354,1,8,3:2:0:0:
224,179,176569,1,10,3:2:0:0:
288,46,176783,6,0,P|283:84|279:129,1,70,10|2,3:2|0:0,0:0:0:0:
138,220,177212,2,0,P|148:260|158:301,1,70,2|2,0:0|0:0,0:0:0:0:
252,381,177668,1,2,0:0:0:0:
377,245,178096,1,2,0:0:0:0:
377,245,178525,5,2,0:0:0:0:
453,283,178739,1,2,0:0:0:0:
373,241,178953,2,0,P|333:251|284:260,1,83.9999974365235,2|2,0:0|0:0,0:0:0:0:
215,207,179635,1,2,0:0:0:0:
36,319,180063,6,0,P|33:279|62:289,1,83.9999974365235,2|2,0:0|0:0,0:0:0:0:
119,361,180706,1,0,0:0:0:0:
186,311,180920,1,2,0:0:0:0:
343,384,181135,2,0,P|327:351|321:295,1,83.9999974365235,2|0,0:0|0:0,0:0:0:0:
335,226,181760,5,2,0:0:0:0:
243,165,181974,1,2,0:0:0:0:
330,139,182188,1,2,0:0:0:0:
336,232,182402,1,0,0:0:0:0:
470,181,182617,1,2,0:0:0:0:
415,113,182831,1,2,0:0:0:0:
474,185,183045,2,0,L|466:231,1,41.9999987182618,2|0,0:0|0:0,0:0:0:0:
438,384,183452,1,10,3:2:0:0:
253,250,183666,5,10,3:2:0:0:
474,185,183880,1,10,3:2:0:0:
253,250,184283,6,0,P|216:242|166:235,1,84,10|0,3:3|0:0,0:0:0:0:
132,245,184712,1,4,0:3:0:0:
60,40,184926,1,8,0:0:0:0:
183,142,185140,1,8,0:0:0:0:
183,142,185247,1,8,0:0:0:0:
183,142,185353,5,6,3:2:0:0:
46,202,185568,1,2,0:0:0:0:
187,141,185782,1,8,0:0:0:0:
60,40,185996,1,2,0:0:0:0:
0,273,186211,2,0,P|68:250|174:239,1,167.999994873047,0|8,3:0|0:0,0:0:0:0:
272,300,186853,1,2,0:0:0:0:
187,141,187068,5,2,3:0:0:0:
163,238,187282,1,2,0:0:0:0:
311,122,187496,1,8,0:0:0:0:
187,141,187711,1,2,0:0:0:0:
356,218,187925,2,0,L|378:45,1,167.999994873047,0|8,3:0|0:0,0:0:0:0:
512,169,188568,1,10,0:3:0:0:
512,169,188675,1,8,0:3:0:0:
512,169,188782,5,6,3:2:0:0:
356,218,188996,1,2,3:2:0:0:
389,53,189211,1,10,0:0:0:0:
469,277,189425,2,0,B|405:272|426:321|346:325,1,125.999996154785,6|0,3:2|0:0,0:0:0:0:
298,328,189853,1,2,3:2:0:0:
254,197,190068,1,10,0:0:0:0:
165,297,190282,1,2,3:2:0:0:
331,226,190496,5,2,3:2:0:0:
337,197,190603,1,8,0:0:0:0:
332,168,190710,1,8,3:2:0:0:
318,143,190817,1,0,3:0:0:0:
295,124,190925,1,8,3:3:0:0:
161,158,191139,5,0,3:0:0:0:
121,173,191246,1,8,0:0:0:0:
79,167,191353,1,2,3:2:0:0:
45,141,191461,1,8,0:0:0:0:
31,101,191568,1,0,3:0:0:0:
37,59,191675,1,8,0:3:0:0:
63,27,191782,2,0,L|108:40,3,41.9999987182618,2|8|4|4,3:2|0:3|0:3|0:3,0:0:0:0:
176,7,192211,5,6,3:2:0:0:
241,107,192425,1,0,0:0:0:0:
373,0,192639,2,0,P|363:91|353:176,1,167.999994873047,8|0,0:0|3:0,0:0:0:0:
496,260,193282,1,2,0:0:0:0:
457,161,193496,1,8,0:0:0:0:
370,304,193711,6,0,B|319:313|319:313|306:334|306:334|228:351,1,125.999996154785,2|0,0:0|0:0,0:0:0:0:
204,357,194139,1,2,0:0:0:0:
56,205,194353,1,8,0:0:0:0:
207,276,194568,1,2,0:0:0:0:
35,371,194782,2,0,L|56:204,1,167.999994873047,0|8,3:0|0:0,0:0:0:0:
170,154,195425,1,2,0:0:0:0:
56,18,195639,5,2,3:0:0:0:
3,121,195853,1,2,0:0:0:0:
168,44,196068,1,8,0:0:0:0:
0,122,196282,1,2,0:0:0:0:
56,18,196496,1,0,3:0:0:0:
246,139,196711,2,0,P|247:174|220:220,1,83.9999974365235,2|8,0:0|0:0,0:0:0:0:
117,255,197139,1,2,0:0:0:0:
300,316,197353,5,2,3:0:0:0:
185,353,197568,1,2,0:0:0:0:
303,315,197782,1,8,0:0:0:0:
183,356,197996,1,2,0:0:0:0:
183,356,198103,1,8,0:0:0:0:
183,356,198210,1,0,3:0:0:0:
222,237,198425,1,2,3:2:0:0:
385,384,198639,2,0,P|391:321|409:247,1,125.999996154785,12|0,0:0|0:0,0:0:0:0:
453,250,199068,6,0,P|427:217|423:161,1,83.9999974365235,6|2,3:2|0:0,0:0:0:0:
507,0,199496,1,8,0:0:0:0:
425,44,199711,1,2,0:0:0:0:
504,179,199925,2,0,L|324:147,1,167.999994873047,0|8,3:0|0:0,0:0:0:0:
231,198,200568,1,2,0:0:0:0:
278,27,200782,5,2,3:0:0:0:
338,149,200996,1,2,0:0:0:0:
105,95,201211,1,10,0:0:0:0:
278,27,201425,1,6,3:2:0:0:
231,198,201639,1,8,0:3:0:0:
97,71,201853,5,2,3:2:0:0:
101,83,201961,1,8,0:3:0:0:
105,95,202068,1,2,3:2:0:0:
278,27,202282,1,6,3:2:0:0:
278,27,202711,5,10,3:2:0:0:
171,0,202924,1,10,0:0:0:0:
239,198,203139,1,6,3:2:0:0:
239,198,203567,5,2,3:2:0:0:
319,128,203782,1,10,0:0:0:0:
72,58,203996,6,0,P|92:98|92:148,1,83.9999974365235,6|0,3:2|3:0,0:0:0:0:
20,286,204425,1,0,3:0:0:0:
2,123,204639,1,8,3:2:0:0:
165,230,204853,1,8,3:2:0:0:
0,118,205068,5,14,3:2:0:0:
119,315,205282,1,0,3:0:0:0:
145,327,205389,1,8,0:0:0:0:
174,327,205496,1,8,3:2:0:0:
213,313,205603,1,8,0:0:0:0:
248,289,205711,1,8,0:0:0:0:
295,284,205818,1,8,0:0:0:0:
346,306,205925,6,0,P|353:253|376:152,1,154.000004699707,6|8,3:2|0:0,0:0:0:0:
512,218,206568,1,2,0:0:0:0:
403,45,206782,2,0,B|347:57|347:57|327:91|327:91|263:105,1,154.000004699707,0|8,3:0|0:0,0:0:0:0:
114,75,207425,1,2,0:0:0:0:
274,23,207639,5,2,3:0:0:0:
175,2,207853,1,2,0:0:0:0:
300,120,208068,1,8,0:0:0:0:
272,32,208282,1,2,0:0:0:0:
114,75,208496,2,0,P|124:121|128:160,1,77.0000023498536,0|2,3:0|0:0,0:0:0:0:
12,283,208925,2,0,P|13:251|22:205,1,77.0000023498536,8|2,0:0|0:0,0:0:0:0:
223,175,209353,6,0,P|240:233|160:234,1,154.000004699707,2|8,3:0|0:0,0:0:0:0:
141,166,209996,1,2,0:0:0:0:
105,369,210211,2,0,P|174:357|281:337,1,154.000004699707,0|8,3:0|0:0,0:0:0:0:
337,251,210853,1,2,0:0:0:0:
471,371,211068,6,0,P|455:339|443:281,1,77.0000023498536,2|2,3:0|0:0,0:0:0:0:
341,119,211496,6,0,B|291:127|291:127|278:152|278:152|220:163,1,125.999996154785,12|0,0:0|0:0,0:0:0:0:
175,172,211925,1,2,3:2:0:0:
66,106,212139,1,8,0:0:0:0:
66,106,212246,1,8,0:0:0:0:
66,106,212353,1,2,3:2:0:0:
236,5,212568,1,8,0:0:0:0:
236,5,212675,1,8,0:0:0:0:
236,5,212782,6,0,P|226:42|225:81,1,77.0000023498536,6|2,3:2|0:0,0:0:0:0:
294,218,213211,1,0,3:0:0:0:
117,321,213425,6,0,P|111:251|196:257,1,167.999994873047,14|2,0:0|0:0,0:0:0:0:
331,350,214068,2,0,P|296:338|242:330,1,77.0000023498536,8|2,0:0|0:0,0:0:0:0:
69,384,214496,5,2,3:0:0:0:
7,288,214711,1,2,0:0:0:0:
178,349,214925,1,8,0:0:0:0:
70,381,215139,1,2,0:0:0:0:
0,212,215353,2,0,L|8:289,1,77.0000023498536,0|2,3:0|0:0,0:0:0:0:
174,162,215782,2,0,L|166:239,1,77.0000023498536,8|2,0:0|0:0,0:0:0:0:
11,95,216211,6,0,P|48:101|90:83,1,77.0000023498536,2|2,3:0|0:0,0:0:0:0:
195,0,216639,1,8,0:0:0:0:
292,189,216853,2,0,L|274:35,1,154.000004699707,2|2,0:0|0:0,0:0:0:0:
480,176,217496,6,0,B|411:163|442:228|353:225,1,125.999996154785,12|0,0:0|0:0,0:0:0:0:
334,198,217925,6,0,L|251:187,1,77.0000023498536,14|0,3:2|3:0,0:0:0:0:
167,308,218353,1,10,3:2:0:0:
257,339,218568,1,6,3:3:0:0:
112,250,218782,1,10,0:3:0:0:
94,270,218889,1,8,0:3:0:0:
86,295,218996,1,4,0:3:0:0:
86,322,219103,1,0,0:0:0:0:
96,347,219210,1,2,3:2:0:0:
196,229,219425,1,0,3:0:0:0:
17,109,219639,1,14,3:2:0:0:
256,192,219746,12,0,222211,0:0:0:0:
