osu file format v14

[General]
AudioFilename: audio.mp3
AudioLeadIn: 0
PreviewTime: 53957
Countdown: 0
SampleSet: Soft
StackLeniency: 0.4
Mode: 0
LetterboxInBreaks: 0
WidescreenStoryboard: 1

[Editor]
DistanceSpacing: 0.8
BeatDivisor: 4
GridSize: 4
TimelineZoom: 1.4

[Metadata]
Title:Can now, Can now (TV Size)
TitleUnicode:Can now, Can now (TV Size)
Artist:Study
ArtistUnicode:Study
Creator:dkblaze
Version:Expert
Source:ぼくたちは勉強ができない!
Tags:Kowari Asuka_- Deemu We can't study bokutachi wa benkyou ga dekinai bokuben we cant never learn S2 Season 2 anime japanese 古橋文乃 furuhashi fumino 白石晴香 shiraishi haruka 緒方理珠 ogata rizu 富田美憂 tomita miyu 武元うるか takemoto uruka 鈴代紗弓 suzushiro sayumi
BeatmapID:2193257
BeatmapSetID:1049356

[Difficulty]
HPDrainRate:6
CircleSize:4
OverallDifficulty:8.5
ApproachRate:9
SliderMultiplier:1.7
SliderTickRate:1

[Events]
//Background and Video events
0,0,"bokuben.jpg",0,0
Video,-80,"bokuben.mp4"
//Break Periods
//Storyboard Layer 0 (Background)
//Storyboard Layer 1 (Fail)
//Storyboard Layer 2 (Pass)
//Storyboard Layer 3 (Foreground)
//Storyboard Layer 4 (Overlay)
//Storyboard Sound Samples

[TimingPoints]
850,375,4,2,2,55,1,0
850,-111.111111111111,4,2,2,55,0,0
1225,-111.111111111111,4,2,1,55,0,0
1412,-111.111111111111,4,2,2,55,0,0
1600,-111.111111111111,4,2,1,55,0,0
1787,-111.111111111111,4,2,2,55,0,0
1975,-111.111111111111,4,2,1,55,0,0
2162,-111.111111111111,4,2,2,55,0,0
2350,-111.111111111111,4,2,1,55,0,0
2537,-111.111111111111,4,2,2,55,0,0
2725,-111.111111111111,4,2,1,55,0,0
2912,-111.111111111111,4,2,2,55,0,0
3100,-111.111111111111,4,2,1,55,0,0
3287,-111.111111111111,4,2,2,55,0,0
3475,-111.111111111111,4,2,1,55,0,0
3662,-111.111111111111,4,2,2,55,0,0
4225,-111.111111111111,4,2,1,55,0,0
4412,-111.111111111111,4,2,2,55,0,0
4600,-111.111111111111,4,2,1,55,0,0
4787,-111.111111111111,4,2,2,55,0,0
4975,-111.111111111111,4,2,1,55,0,0
5162,-111.111111111111,4,2,2,55,0,0
5350,-111.111111111111,4,2,1,55,0,0
5537,-111.111111111111,4,2,2,55,0,0
5725,-111.111111111111,4,2,1,55,0,0
5912,-111.111111111111,4,2,2,55,0,0
6100,-111.111111111111,4,2,1,55,0,0
6287,-111.111111111111,4,2,2,55,0,0
6475,-249.999999999999,4,2,1,55,0,0
6662,-100,4,2,2,55,0,0
6756,-249.999999999999,4,2,1,5,0,0
6850,-100,4,2,2,60,0,0
9850,-125,4,2,2,65,0,0
10412,-83.3333333333333,4,2,2,65,0,0
11350,-100,4,2,2,65,0,0
11443,-100,4,2,2,5,0,0
11725,-71.4285714285714,4,2,2,65,0,0
12287,-100,4,2,2,50,0,0
12475,-100,4,2,2,65,0,0
12568,-100,4,2,2,50,0,0
12662,-100,4,2,2,65,0,0
12756,-100,4,2,2,5,0,0
12850,-100,4,2,2,65,0,0
15850,-76.9230769230769,4,2,2,65,0,0
16037,-76.9230769230769,4,2,2,5,0,0
16131,-76.9230769230769,4,2,2,65,0,0
16412,-100,4,2,2,65,0,0
16506,-100,4,2,2,5,0,0
16600,-100,4,2,2,65,0,0
16881,-100,4,2,2,5,0,0
16975,-100,4,2,2,65,0,0
17162,-76.9230769230769,4,2,2,65,0,0
17443,-76.9230769230769,4,2,2,5,0,0
17537,-76.9230769230769,4,2,2,65,0,0
17912,-90.9090909090909,4,2,2,65,0,0
18193,-90.9090909090909,4,2,2,5,0,0
18287,-90.9090909090909,4,2,2,65,0,0
18756,-90.9090909090909,4,2,2,5,0,0
18850,-125,4,2,2,60,0,0
29162,-90.9090909090909,4,2,2,60,0,0
30850,-111.111111111111,4,2,2,60,0,0
36756,-111.111111111111,4,2,2,5,0,0
36850,-90.9090909090908,4,2,2,60,0,0
37131,-90.9090909090908,4,2,2,5,0,0
37225,-111.111111111111,4,2,2,60,0,0
38631,-111.111111111111,4,2,2,5,0,0
38725,-111.111111111111,4,2,2,60,0,0
39756,-111.111111111111,4,2,2,50,0,0
39850,-100,4,2,2,60,0,0
40225,-83.3333333333333,4,2,2,60,0,0
41443,-83.3333333333333,4,2,2,5,0,0
41537,-83.3333333333333,4,2,2,60,0,0
42193,-83.3333333333333,4,2,2,5,0,0
42287,-83.3333333333333,4,2,2,60,0,0
42850,-125,4,2,2,50,0,0
48100,-90.9090909090909,4,2,2,50,0,0
48850,-76.9230769230769,4,2,2,60,0,0
49225,-76.9230769230769,4,2,2,60,0,0
49693,-76.9230769230769,4,2,2,5,0,0
49787,-76.9230769230769,4,2,2,60,0,0
50443,-76.9230769230769,4,2,2,5,0,0
50537,-76.9230769230769,4,2,2,60,0,0
51193,-76.9230769230769,4,2,2,5,0,0
51287,-76.9230769230769,4,2,2,60,0,0
51850,-76.9230769230769,4,2,2,65,0,0
52131,-76.9230769230769,4,2,2,5,0,0
52225,-76.9230769230769,4,2,2,65,0,0
52506,-76.9230769230769,4,2,2,5,0,0
52600,-76.9230769230769,4,2,2,65,0,0
52881,-76.9230769230769,4,2,2,5,0,0
52975,-76.9230769230769,4,2,2,65,0,0
53256,-76.9230769230769,4,2,2,5,0,0
53350,-333.333333333333,4,2,2,60,0,0
53912,-333.333333333333,4,2,2,5,0,0
54100,-100,4,2,2,60,0,0
54850,-83.3333333333333,4,2,2,70,0,1
55881,-83.3333333333333,4,2,2,5,0,1
55975,-83.3333333333333,4,2,2,70,0,1
58131,-83.3333333333333,4,2,2,5,0,1
58225,-83.3333333333333,4,2,2,70,0,1
59631,-83.3333333333333,4,2,2,5,0,1
59725,-83.3333333333333,4,2,2,70,0,1
61131,-83.3333333333333,4,2,2,5,0,1
61225,-83.3333333333333,4,2,2,70,0,1
65912,-83.3333333333333,4,2,2,5,0,1
66006,-83.3333333333333,4,2,2,70,0,1
70131,-83.3333333333333,4,2,2,5,0,1
70225,-83.3333333333333,4,2,2,70,0,1
71162,-71.4285714285714,4,2,2,70,0,1
71443,-71.4285714285714,4,2,2,5,0,1
71537,-83.3333333333333,4,2,2,70,0,1
72756,-83.3333333333333,4,2,2,5,0,1
72850,-100,4,2,2,70,0,0
73881,-100,4,2,2,5,0,0
73975,-100,4,2,2,70,0,0
74443,-100,4,2,2,5,0,0
74537,-100,4,2,2,70,0,0
75850,-100,4,2,2,70,0,1
77350,-83.3333333333333,4,2,2,70,0,1
77443,-83.3333333333333,4,2,2,5,0,1
77725,-66.6666666666667,4,2,2,70,0,1
78006,-66.6666666666667,4,2,2,5,0,1
78100,-66.6666666666667,4,2,2,70,0,1
78850,-100,4,2,2,60,0,0
81850,-83.3333333333333,4,2,2,65,0,0
84287,-83.3333333333333,4,2,2,5,0,0
84381,-83.3333333333333,4,2,2,65,0,0
84850,-76.9230769230769,4,2,2,65,0,0
85412,-83.3333333333333,4,2,2,65,0,0
85506,-83.3333333333333,4,2,2,5,0,0
85600,-83.3333333333333,4,2,2,65,0,0
85881,-83.3333333333333,4,2,2,5,0,0
85975,-83.3333333333333,4,2,2,65,0,0
89350,-100,4,2,2,5,0,0

[Colours]
Combo1 : 254,211,247
Combo2 : 106,131,244
Combo3 : 251,173,121
Combo4 : 202,99,94
Combo5 : 216,176,244

[HitObjects]
31,142,662,5,0,0:0:0:0:
194,256,850,2,0,L|214:105,1,152.999995330811,6|2,3:2|0:0,0:0:0:0:
31,142,1412,5,2,0:0:0:0:
195,28,1600,2,0,P|260:37|294:120,1,152.999995330811,2|2,0:0|0:0,0:0:0:0:
31,142,2162,5,2,0:0:0:0:
295,109,2537,1,2,0:0:0:0:
352,254,2725,1,2,0:0:0:0:
212,242,2912,1,2,0:0:0:0:
352,254,3100,1,2,0:0:0:0:
191,160,3287,5,2,3:2:0:0:
191,160,3475,1,2,0:0:0:0:
233,324,3662,5,2,3:2:0:0:
418,211,3850,2,0,P|354:174|286:203,1,152.999995330811,2|2,3:2|0:0,0:0:0:0:
356,377,4412,5,2,0:0:0:0:
501,237,4600,2,0,B|493:174|493:174|470:149|470:149|463:93,1,152.999995330811,2|2,0:0|0:0,0:0:0:0:
292,57,5162,5,2,3:2:0:0:
449,8,5350,2,0,L|368:-6,1,76.4999976654053,2|2,3:2|0:0,0:0:0:0:
304,184,5725,1,2,0:0:0:0:
376,78,5912,1,2,0:0:0:0:
157,20,6100,2,0,L|172:118,1,76.4999976654053,2|0,0:0|3:0,0:0:0:0:
240,293,6475,6,0,L|249:232,1,51,2|0,0:0|0:0,0:0:0:0:
187,189,6850,6,0,P|107:175|36:220,1,170,6|0,3:2|3:0,0:0:0:0:
168,95,7412,1,2,0:0:0:0:
321,304,7600,2,0,L|347:128,1,170,2|0,3:2|3:0,0:0:0:0:
240,293,8162,1,14,0:0:0:0:
428,158,8350,5,2,3:2:0:0:
470,286,8537,1,2,0:0:0:0:
265,133,8725,1,2,3:2:0:0:
428,158,8912,1,2,0:0:0:0:
193,225,9100,6,0,L|173:114,1,85,2|0,3:2|0:0,0:0:0:0:
83,92,9381,1,8,0:0:0:0:
83,92,9475,2,0,L|151:70,1,42.5,2|0,3:2|0:0,0:0:0:0:
228,19,9662,2,0,L|216:84,1,42.5,10|0,0:3|0:0,0:0:0:0:
94,188,9850,6,0,P|156:172|192:224,1,136,6|0,3:2|3:0,0:0:0:0:
397,79,10412,6,0,P|347:73|307:102,1,101.999996887207,6|0,0:0|3:0,0:0:0:0:
384,189,10787,1,8,0:3:0:0:
502,85,10975,1,6,0:3:0:0:
483,248,11162,1,2,3:2:0:0:
285,130,11350,6,0,L|216:141,1,42.5,10|0,0:0|0:0,0:0:0:0:
0,304,11725,6,0,B|28:264|87:279|102:326|91:329|107:351|145:355,1,178.499994552612,14|0,0:0|0:0,0:0:0:0:
195,294,12100,2,0,B|224:279|224:279|257:287,1,59.4999981842042,2|0,3:0|0:0,0:0:0:0:
314,353,12287,1,10,0:0:0:0:
356,358,12381,1,8,0:0:0:0:
398,363,12475,1,10,3:2:0:0:
440,368,12568,1,8,0:0:0:0:
482,373,12662,2,0,L|467:299,1,42.5,6|0,0:3|0:0,0:0:0:0:
378,202,12850,6,0,L|391:101,1,85,6|0,3:2|0:0,0:0:0:0:
298,239,13225,1,10,0:0:0:0:
446,261,13412,1,8,0:0:0:0:
277,74,13600,2,0,L|290:175,1,85,2|0,0:0|3:0,0:0:0:0:
490,109,13975,1,8,0:0:0:0:
366,87,14162,1,2,3:2:0:0:
263,310,14350,6,0,P|304:321|344:307,1,85,2|0,3:2|0:0,0:0:0:0:
177,121,14725,1,10,0:0:0:0:
194,258,14912,1,8,0:0:0:0:
373,171,15100,2,0,L|365:78,1,85,2|0,0:0|3:0,0:0:0:0:
300,243,15475,1,8,0:0:0:0:
98,112,15662,1,2,0:0:0:0:
107,70,15756,1,2,0:0:0:0:
116,28,15850,6,0,L|128:137,1,110.499994941712,6|0,3:2|0:0,0:0:0:0:
142,235,16131,1,8,0:0:0:0:
142,235,16225,1,8,0:0:0:0:
342,62,16412,6,0,L|279:69,1,42.5,10|0,3:2|0:0,0:0:0:0:
420,277,16787,6,0,L|482:284,1,42.5,10|0,3:2|0:0,0:0:0:0:
141,235,17162,6,0,P|205:202|257:271,1,165.749992412568,14|0,3:2|0:0,0:0:0:0:
238,317,17537,1,0,3:0:0:0:
105,161,17725,1,10,0:0:0:0:
0,368,17912,6,0,L|19:190,1,140.25000428009,6|0,3:2|0:0,0:0:0:0:
23,182,18287,1,8,0:3:0:0:
135,0,18475,1,10,0:3:0:0:
90,12,18568,1,8,0:3:0:0:
45,24,18662,2,0,L|112:39,1,46.7500014266968,6|0,0:3|0:0,0:0:0:0:
234,61,18850,5,6,3:2:0:0:
234,61,19225,1,10,0:0:0:0:
298,115,19412,1,0,0:0:0:0:
417,31,19600,2,0,L|428:106,1,68,2|2,0:0|3:2,0:0:0:0:
449,245,19975,1,8,0:0:0:0:
504,185,20162,1,2,0:0:0:0:
350,191,20350,6,0,P|336:222|339:256,1,68,2|0,3:2|0:0,0:0:0:0:
481,376,20725,2,0,L|396:357,1,68,10|0,0:0|0:0,0:0:0:0:
350,191,21100,2,0,P|336:222|339:256,1,68,2|2,0:0|3:2,0:0:0:0:
206,384,21475,2,0,L|219:288,1,68,10|0,0:0|0:0,0:0:0:0:
139,172,21850,5,2,3:2:0:0:
139,172,22225,1,10,0:0:0:0:
72,218,22412,1,0,0:0:0:0:
52,40,22600,2,0,L|124:54,1,68,2|2,0:0|3:2,0:0:0:0:
290,82,22975,1,8,0:0:0:0:
258,6,23162,1,2,3:2:0:0:
139,172,23350,6,0,L|149:257,1,68,2|0,3:2|0:0,0:0:0:0:
30,371,23725,2,0,P|64:373|92:354,1,68,10|0,0:0|0:0,0:0:0:0:
139,172,24100,2,0,L|149:257,1,68,2|0,3:2|3:0,0:0:0:0:
299,337,24475,2,0,P|266:345|235:332,1,68,10|0,0:0|0:0,0:0:0:0:
289,191,24850,5,2,3:2:0:0:
289,191,25225,1,10,0:0:0:0:
352,140,25412,1,2,0:0:0:0:
465,277,25600,2,0,L|450:190,1,68,2|2,0:0|3:2,0:0:0:0:
423,24,25975,1,8,0:0:0:0:
471,88,26162,1,2,3:2:0:0:
276,116,26350,6,0,L|266:30,1,68,2|0,3:2|0:0,0:0:0:0:
135,157,26725,2,0,P|141:187|169:215,1,68,10|2,0:0|0:0,0:0:0:0:
276,116,27100,2,0,L|266:30,1,68,2|2,0:0|3:2,0:0:0:0:
87,90,27475,2,0,P|62:113|54:145,1,68,10|0,0:0|3:0,0:0:0:0:
148,359,27850,5,14,3:2:0:0:
167,164,28037,1,2,0:0:0:0:
248,331,28225,1,10,0:0:0:0:
59,309,28412,1,2,3:2:0:0:
167,164,28600,1,10,0:0:0:0:
148,359,28787,1,2,0:0:0:0:
148,359,28881,1,8,0:0:0:0:
148,359,28975,1,10,0:0:0:0:
288,195,29162,6,0,L|267:8,1,187.000005706787,6|2,3:2|3:2,0:0:0:0:
368,186,29725,1,10,0:0:0:0:
152,322,29912,6,0,L|173:134,1,187.000005706787,6|0,3:2|3:0,0:0:0:0:
76,254,30475,1,10,0:0:0:0:
238,276,30662,1,2,0:0:0:0:
64,96,30850,5,6,3:2:0:0:
64,96,31225,1,10,0:0:0:0:
130,169,31412,1,0,0:0:0:0:
261,61,31600,2,0,L|252:138,1,76.4999976654053,2|0,0:0|3:0,0:0:0:0:
238,303,31975,1,8,0:0:0:0:
324,233,32162,1,2,0:0:0:0:
148,275,32350,6,0,P|141:313|156:348,1,76.4999976654053,2|0,3:2|0:0,0:0:0:0:
331,384,32725,2,0,L|341:302,1,76.4999976654053,10|0,0:0|0:0,0:0:0:0:
148,275,33100,2,0,P|141:313|156:348,1,76.4999976654053,2|0,0:0|3:0,0:0:0:0:
324,233,33475,2,0,L|334:151,1,76.4999976654053,10|0,0:0|0:0,0:0:0:0:
271,296,33850,5,2,3:2:0:0:
271,296,34225,1,10,0:0:0:0:
228,162,34412,1,0,0:0:0:0:
138,302,34600,2,0,P|169:328|207:330,1,76.4999976654053,2|0,0:0|3:0,0:0:0:0:
341,171,34975,1,10,0:0:0:0:
271,296,35162,1,2,0:0:0:0:
143,216,35350,6,0,L|137:139,1,76.4999976654053,2|0,3:2|0:0,0:0:0:0:
40,306,35725,2,0,L|45:229,1,76.4999976654053,10|0,0:0|0:0,0:0:0:0:
182,366,36100,2,0,L|176:289,1,76.4999976654053,2|0,3:2|3:0,0:0:0:0:
0,145,36475,2,0,P|52:129|105:153,1,114.749996498108,10|0,0:0|0:0,0:0:0:0:
143,216,36850,6,0,L|131:69,1,140.25000428009,2|0,3:2|0:0,0:0:0:0:
126,24,37225,1,10,0:0:0:0:
216,126,37412,1,2,0:0:0:0:
325,12,37600,2,0,P|361:2|395:17,1,76.4999976654053,2|2,0:0|3:2,0:0:0:0:
318,186,37975,1,8,0:0:0:0:
283,82,38162,1,2,0:0:0:0:
458,75,38350,6,0,L|442:205,1,114.749996498108,2|0,3:2|0:0,0:0:0:0:
441,231,38725,1,10,0:0:0:0:
308,274,38912,1,2,0:0:0:0:
480,361,39100,2,0,P|456:331|419:328,1,76.4999976654053,2|0,0:0|3:0,0:0:0:0:
288,384,39475,1,10,0:0:0:0:
261,379,39568,1,8,0:0:0:0:
234,374,39662,2,0,L|224:314,1,38.2499988327027,10|4,0:3|0:3,0:0:0:0:
199,147,39850,5,6,3:2:0:0:
0,272,40225,2,0,P|39:242|89:249,1,101.999996887207,10|2,0:0|3:2,0:0:0:0:
234,374,40600,1,10,3:2:0:0:
330,202,40787,1,2,0:0:0:0:
330,202,40881,1,8,0:0:0:0:
330,202,40975,1,10,0:0:0:0:
147,304,41162,6,0,L|309:287,1,152.999995330811,6|0,3:2|0:0,0:0:0:0:
339,283,41537,1,2,3:2:0:0:
215,174,41725,1,8,0:0:0:0:
409,349,41912,2,0,L|432:171,1,152.999995330811,6|0,3:2|0:0,0:0:0:0:
435,156,42287,1,0,3:0:0:0:
304,80,42475,5,10,0:3:0:0:
307,94,42662,1,2,0:0:0:0:
458,0,42850,5,6,3:2:0:0:
212,67,43412,1,10,0:0:0:0:
171,141,43600,2,0,P|201:153|235:149,1,68,2|0,0:0|3:0,0:0:0:0:
108,23,43975,1,10,0:0:0:0:
66,196,44162,5,2,3:2:0:0:
64,206,44537,1,2,3:2:0:0:
62,216,44912,1,2,3:2:0:0:
262,288,45100,5,2,3:2:0:0:
158,238,45287,1,2,0:0:0:0:
185,315,45475,1,10,0:0:0:0:
235,211,45662,1,2,0:0:0:0:
36,364,45850,5,2,3:2:0:0:
11,165,46412,1,10,0:0:0:0:
26,84,46600,2,0,P|60:93|80:118,1,68,2|0,0:0|3:0,0:0:0:0:
97,284,46975,1,10,0:0:0:0:
330,195,47162,5,6,3:2:0:0:
268,120,47537,1,2,3:2:0:0:
235,211,47912,1,2,3:2:0:0:
410,301,48100,2,0,L|422:165,1,93.5000028533936,2|0,3:2|0:0,0:0:0:0:
425,132,48381,1,8,0:0:0:0:
425,132,48475,1,10,0:0:0:0:
507,238,48662,1,4,0:3:0:0:
328,384,48850,6,0,L|315:239,1,110.499994941712,6|2,3:2|0:0,0:0:0:0:
301,103,49225,1,10,0:0:0:0:
98,231,49412,2,0,P|155:233|165:327,1,165.749992412568,6|0,3:2|0:0,0:0:0:0:
125,339,49787,1,2,3:2:0:0:
25,175,49975,1,10,0:0:0:0:
263,82,50162,6,0,B|309:64|309:64|391:98|391:98|353:35,1,165.749992412568,6|0,3:2|0:0,0:0:0:0:
355,35,50537,1,10,0:0:0:0:
383,172,50725,1,10,0:0:0:0:
512,0,50912,2,0,L|491:183,1,165.749992412568,6|0,3:2|0:0,0:0:0:0:
489,208,51287,1,2,3:2:0:0:
301,173,51475,1,10,0:0:0:0:
347,290,51662,1,2,0:0:0:0:
335,103,51850,6,0,P|255:104|217:173,1,165.749992412568,6|0,3:2|0:0,0:0:0:0:
121,242,52225,2,0,B|110:232|91:234|91:234|134:208|160:240|150:245|173:268|214:262,1,165.749992412568,2|0,3:2|0:0,0:0:0:0:
300,172,52600,2,0,L|285:338,1,165.749992412568,2|0,3:2|0:0,0:0:0:0:
398,359,52975,2,0,B|410:338|410:338|389:302|346:301|327:322|337:323|321:343|275:336,1,165.749992412568,2|0,3:2|0:0,0:0:0:0:
95,384,53350,6,0,L|87:303,1,76.4999976654053,10|0,0:0|0:0,0:0:0:0:
66,101,54100,6,0,P|107:91|144:109,1,85,6|2,0:3|0:0,0:0:0:0:
165,181,54381,1,8,0:0:0:0:
212,199,54475,1,8,0:0:0:0:
258,180,54568,1,8,0:3:0:0:
278,154,54662,1,6,3:3:0:0:
307,145,54756,1,8,3:2:0:0:
328,150,54850,6,0,L|429:161,1,101.999996887207,6|0,3:2|0:0,0:0:0:0:
286,55,55225,2,0,P|235:55|197:88,1,101.999996887207,10|2,3:2|0:0,0:0:0:0:
321,302,55600,2,0,L|328:132,1,152.999995330811,2|0,3:2|0:0,0:0:0:0:
366,116,55975,1,10,3:2:0:0:
238,232,56162,1,2,0:0:0:0:
426,333,56350,6,0,L|430:221,1,101.999996887207,2|0,3:2|0:0,0:0:0:0:
245,52,56725,2,0,L|249:163,1,101.999996887207,10|0,3:2|0:0,0:0:0:0:
75,318,57100,2,0,L|79:206,1,101.999996887207,2|0,3:2|0:0,0:0:0:0:
317,230,57475,2,0,P|274:257|224:252,1,101.999996887207,10|0,3:2|0:0,0:0:0:0:
23,94,57850,6,0,B|58:58|113:68|124:107|113:112|131:127|175:132,1,152.999995330811,2|0,3:2|0:0,0:0:0:0:
202,120,58225,1,10,3:2:0:0:
297,21,58412,1,2,0:0:0:0:
349,208,58600,2,0,L|234:189,1,101.999996887207,6|0,3:2|0:0,0:0:0:0:
371,67,58975,2,0,L|471:83,1,101.999996887207,10|0,3:2|0:0,0:0:0:0:
453,344,59350,6,0,L|423:164,1,152.999995330811,6|0,3:2|0:0,0:0:0:0:
420,153,59725,1,10,3:2:0:0:
337,297,59912,1,0,0:0:0:0:
185,190,60100,1,2,3:2:0:0:
322,217,60287,1,10,0:3:0:0:
181,357,60475,1,10,3:2:0:0:
46,215,60662,1,10,0:0:0:0:
46,215,60756,1,8,0:0:0:0:
46,215,60850,6,0,L|67:59,1,152.999995330811,6|0,3:2|0:0,0:0:0:0:
74,12,61225,2,0,L|90:133,1,101.999996887207,10|0,0:0|0:0,0:0:0:0:
114,279,61600,1,2,3:2:0:0:
238,187,61787,1,0,3:0:0:0:
363,323,61975,2,0,P|407:345|456:335,1,101.999996887207,10|0,0:0|0:0,0:0:0:0:
480,103,62350,6,0,P|435:80|386:90,1,101.999996887207,2|2,3:2|0:0,0:0:0:0:
259,203,62725,1,10,0:0:0:0:
151,61,62912,1,2,0:0:0:0:
259,203,63100,2,0,L|266:309,1,101.999996887207,2|0,3:2|3:0,0:0:0:0:
178,140,63475,1,10,0:0:0:0:
344,182,63662,1,2,3:2:0:0:
109,272,63850,5,6,3:2:0:0:
344,182,64037,1,0,0:0:0:0:
80,113,64225,1,10,0:0:0:0:
285,243,64412,1,0,3:0:0:0:
21,293,64600,1,10,0:0:0:0:
261,161,64787,1,0,3:0:0:0:
0,92,64975,2,0,P|-2:144|31:182,1,101.999996887207,10|0,0:0|3:0,0:0:0:0:
297,149,65350,5,10,0:0:0:0:
162,5,65537,1,0,3:0:0:0:
129,241,65725,2,0,L|113:354,1,101.999996887207,14|0,0:0|0:0,0:0:0:0:
190,378,66006,5,8,0:0:0:0:
235,375,66100,1,10,3:2:0:0:
267,343,66193,1,8,0:0:0:0:
293,328,66287,1,10,0:0:0:0:
313,328,66381,1,8,0:0:0:0:
330,337,66475,2,0,B|347:349|347:349|377:343,1,50.9999984436036,2|0,3:2|0:0,0:0:0:0:
498,313,66662,1,10,0:0:0:0:
501,353,66756,1,8,0:0:0:0:
467,384,66850,6,0,L|439:265,1,101.999996887207,6|0,3:2|0:0,0:0:0:0:
391,75,67225,1,10,3:2:0:0:
511,166,67412,1,2,0:0:0:0:
350,242,67600,2,0,L|236:253,1,101.999996887207,2|0,3:2|0:0,0:0:0:0:
108,49,67975,2,0,L|222:60,1,101.999996887207,10|0,3:2|0:0,0:0:0:0:
421,215,68350,6,0,P|390:175|341:165,1,101.999996887207,2|2,3:2|0:0,0:0:0:0:
141,265,68725,2,0,L|130:386,1,101.999996887207,10|2,3:2|0:0,0:0:0:0:
21,122,69100,2,0,L|10:1,1,101.999996887207,2|0,3:2|0:0,0:0:0:0:
206,159,69475,1,10,3:2:0:0:
32,228,69662,1,2,0:0:0:0:
98,24,69850,6,0,B|161:27|161:27|185:47|185:47|244:50,1,152.999995330811,2|0,3:2|0:0,0:0:0:0:
295,50,70225,1,10,3:2:0:0:
431,206,70412,1,2,0:0:0:0:
486,13,70600,1,2,3:2:0:0:
310,172,70787,1,2,0:0:0:0:
474,21,70975,1,10,0:3:0:0:
194,0,71162,6,0,L|215:179,1,178.499994552612,6|0,3:2|0:0,0:0:0:0:
220,228,71537,1,0,3:0:0:0:
369,14,71725,1,10,0:0:0:0:
494,121,71912,1,2,3:2:0:0:
220,228,72287,5,2,3:2:0:0:
470,281,72474,1,8,0:0:0:0:
461,235,72568,1,8,0:0:0:0:
452,189,72662,2,0,L|438:254,1,50.9999984436036,6|0,0:3|0:0,0:0:0:0:
408,384,72850,5,6,3:2:0:0:
167,299,73225,1,8,0:0:0:0:
329,357,73412,1,2,0:0:0:0:
93,384,73600,2,0,L|73:226,1,127.5,2|0,3:2|0:0,0:0:0:0:
73,215,73975,1,8,0:0:0:0:
219,29,74162,6,0,P|190:82|214:144,1,127.5,2|0,3:2|0:0,0:0:0:0:
247,164,74537,1,2,3:2:0:0:
436,145,74725,1,10,0:0:0:0:
288,87,74912,2,0,L|337:81,1,42.5,2|8,0:0|0:0,0:0:0:0:
490,0,75100,2,0,L|479:100,1,85,2|0,3:2|3:0,0:0:0:0:
337,310,75475,1,10,0:0:0:0:
332,162,75662,1,2,0:0:0:0:
499,291,75850,5,14,3:2:0:0:
257,320,76037,1,0,0:0:0:0:
413,111,76225,1,10,0:0:0:0:
419,301,76412,1,0,3:0:0:0:
173,177,76600,1,10,0:0:0:0:
416,206,76787,1,0,3:0:0:0:
114,336,76975,1,10,0:0:0:0:
205,88,77162,1,0,3:0:0:0:
342,334,77350,6,0,L|332:392,1,50.9999984436036,10|0,0:0|0:0,0:0:0:0:
57,198,77725,6,0,B|38:182|38:182|45:131|114:115|147:158|133:161|150:180|202:179,1,191.250007295609,14|0,0:0|0:0,0:0:0:0:
224,177,78100,1,10,0:3:0:0:
189,7,78287,1,6,0:3:0:0:
398,27,78475,1,10,0:0:0:0:
418,30,78569,1,8,0:0:0:0:
437,25,78663,1,6,0:3:0:0:
453,15,78756,1,8,0:0:0:0:
465,0,78850,6,0,L|446:82,2,85,6|2|10,3:2|0:0|0:0,0:0:0:0:
286,120,79412,2,0,P|321:150|376:157,1,85,10|0,0:0|0:0,0:0:0:0:
369,38,79787,1,2,3:2:0:0:
470,210,79975,1,10,0:0:0:0:
446,82,80162,1,2,3:2:0:0:
317,229,80350,5,2,3:2:0:0:
244,158,80537,1,2,0:0:0:0:
341,130,80725,1,10,0:0:0:0:
365,294,80912,2,0,P|326:310|284:304,1,85,10|0,0:0|0:0,0:0:0:0:
147,186,81287,1,2,3:2:0:0:
0,312,81475,2,0,L|13:201,1,85,10|2,0:0|3:2,0:0:0:0:
40,0,81850,6,0,P|69:37|123:46,1,101.999996887207,6|0,3:2|0:0,0:0:0:0:
282,0,82225,1,10,0:0:0:0:
415,332,82600,6,0,L|402:221,1,101.999996887207,6|0,3:2|0:0,0:0:0:0:
381,46,82975,1,10,0:0:0:0:
102,221,83350,6,0,P|149:206|199:225,1,101.999996887207,6|0,3:2|0:0,0:0:0:0:
282,371,83725,1,10,0:0:0:0:
485,63,84100,5,10,0:0:0:0:
485,63,84193,2,0,L|476:139,1,50.9999984436036,8|0,0:0|0:0,0:0:0:0:
413,172,84381,1,8,0:0:0:0:
413,172,84475,1,10,0:0:0:0:
506,268,84662,1,4,0:3:0:0:
184,384,84850,6,0,B|178:346|178:346|211:312|211:312|207:278,1,110.499994941712,6|0,3:2|0:0,0:0:0:0:
197,214,85131,1,8,0:0:0:0:
197,214,85225,1,8,0:0:0:0:
339,106,85412,6,0,L|328:168,1,50.9999984436036,2|0,3:2|0:0,0:0:0:0:
86,305,85787,6,0,L|75:243,1,50.9999984436036,2|0,3:2|0:0,0:0:0:0:
36,0,86162,5,6,3:2:0:0:
256,192,86256,12,0,89350,0:0:0:0:
