osu file format v14

[General]
AudioFilename: audio.mp3
AudioLeadIn: 0
PreviewTime: -1
Countdown: 0
SampleSet: None
StackLeniency: 0.7
Mode: 3
LetterboxInBreaks: 0
SpecialStyle: 0
WidescreenStoryboard: 0

[Editor]
DistanceSpacing: 0.8
BeatDivisor: 4
GridSize: 16
TimelineZoom: 2.3

[Metadata]
Title:Kinesis theme
TitleUnicode:Kinesis theme
Artist:StudioEIM
ArtistUnicode:StudioEIM
Creator:pikechu
Version:Kinesis theme_LN
Source:Maplestory
Tags:maplestory kinesis
BeatmapID:1780506
BeatmapSetID:851726

[Difficulty]
HPDrainRate:7
CircleSize:4
OverallDifficulty:5
ApproachRate:5
SliderMultiplier:1.4
SliderTickRate:1

[Events]
//Background and Video events
0,0,"kinesis.jpg",0,0
//Break Periods
//Storyboard Layer 0 (Background)
//Storyboard Layer 1 (Fail)
//Storyboard Layer 2 (Pass)
//Storyboard Layer 3 (Foreground)
//Storyboard Sound Samples

[TimingPoints]
1550,400,4,2,0,0,1,0

[HitObjects]
64,192,1550,128,0,2250:0:0:0:0:
192,192,1550,128,0,2050:0:0:0:0:
448,192,1750,128,0,2250:0:0:0:0:
320,192,1750,128,0,2050:0:0:0:0:
320,192,2150,128,0,2650:0:0:0:0:
192,192,2150,128,0,2850:0:0:0:0:
64,192,2350,128,0,2850:0:0:0:0:
448,192,2350,128,0,2650:0:0:0:0:
320,192,2750,128,0,3450:0:0:0:0:
448,192,2750,128,0,3250:0:0:0:0:
64,192,2950,128,0,3250:0:0:0:0:
192,192,2950,128,0,3450:0:0:0:0:
64,192,3350,128,0,3650:0:0:0:0:
448,192,3350,128,0,4250:0:0:0:0:
320,192,3550,128,0,4050:0:0:0:0:
192,192,3550,128,0,3850:0:0:0:0:
64,192,3750,128,0,4650:0:0:0:0:
192,192,3950,128,0,4650:0:0:0:0:
320,192,4150,128,0,4850:0:0:0:0:
448,192,4350,128,0,4850:0:0:0:0:
64,192,4750,128,0,5450:0:0:0:0:
192,192,4750,128,0,5250:0:0:0:0:
320,192,4950,128,0,5250:0:0:0:0:
448,192,4950,128,0,5450:0:0:0:0:
320,192,5350,128,0,5850:0:0:0:0:
192,192,5350,128,0,6050:0:0:0:0:
64,192,5550,128,0,6050:0:0:0:0:
448,192,5550,128,0,5850:0:0:0:0:
448,192,5950,128,0,6450:0:0:0:0:
320,192,5950,128,0,6650:0:0:0:0:
192,192,6150,128,0,6650:0:0:0:0:
64,192,6150,128,0,6450:0:0:0:0:
448,192,6550,128,0,7050:0:0:0:0:
64,192,6550,128,0,7450:0:0:0:0:
192,192,6750,128,0,7450:0:0:0:0:
320,192,6750,128,0,7250:0:0:0:0:
448,192,7150,128,0,7850:0:0:0:0:
320,192,7350,128,0,7850:0:0:0:0:
192,192,7550,128,0,8050:0:0:0:0:
64,192,7550,128,0,8050:0:0:0:0:
448,192,7950,128,0,8450:0:0:0:0:
320,192,7950,128,0,8650:0:0:0:0:
64,192,8150,128,0,8650:0:0:0:0:
192,192,8150,128,0,8450:0:0:0:0:
192,192,8550,128,0,9050:0:0:0:0:
448,192,8550,128,0,9250:0:0:0:0:
64,192,8750,128,0,9250:0:0:0:0:
320,192,8750,128,0,9050:0:0:0:0:
192,192,9150,128,0,9850:0:0:0:0:
320,192,9150,128,0,9650:0:0:0:0:
448,192,9350,128,0,9850:0:0:0:0:
64,192,9350,128,0,9650:0:0:0:0:
64,192,9750,128,0,10250:0:0:0:0:
320,192,9750,128,0,10050:0:0:0:0:
192,192,9950,128,0,10250:0:0:0:0:
448,192,9950,128,0,10050:0:0:0:0:
448,192,10150,128,0,10650:0:0:0:0:
320,192,10150,128,0,10450:0:0:0:0:
64,192,10350,128,0,10650:0:0:0:0:
192,192,10350,128,0,10850:0:0:0:0:
320,192,10550,128,0,10750:0:0:0:0:
448,192,10750,128,0,11050:0:0:0:0:
64,192,10750,128,0,10950:0:0:0:0:
320,192,10850,128,0,11250:0:0:0:0:
192,192,10950,128,0,11450:0:0:0:0:
64,192,11050,128,0,11650:0:0:0:0:
448,192,11150,128,0,11850:0:0:0:0:
320,192,11350,128,0,12050:0:0:0:0:
192,192,11550,128,0,12250:0:0:0:0:
64,192,11750,128,0,12450:0:0:0:0:
448,192,11950,128,0,12650:0:0:0:0:
320,192,12150,128,0,12850:0:0:0:0:
192,192,12350,128,0,13050:0:0:0:0:
64,192,12550,128,0,13250:0:0:0:0:
448,192,12750,128,0,13450:0:0:0:0:
320,192,12950,128,0,13650:0:0:0:0:
192,192,13150,128,0,13850:0:0:0:0:
64,192,13350,128,0,14050:0:0:0:0:
448,192,13550,128,0,14250:0:0:0:0:
320,192,13750,128,0,14250:0:0:0:0:
192,192,13950,128,0,14450:0:0:0:0:
64,192,14150,128,0,14650:0:0:0:0:
320,192,14350,128,0,14850:0:0:0:0:
448,192,14350,128,0,16650:0:0:0:0:
192,192,14550,128,0,15050:0:0:0:0:
64,192,14750,128,0,15250:0:0:0:0:
320,192,14950,128,0,15450:0:0:0:0:
192,192,15150,128,0,15650:0:0:0:0:
64,192,15350,128,0,15850:0:0:0:0:
320,192,15550,128,0,15850:0:0:0:0:
192,192,15750,128,0,16783:0:0:0:0:
320,192,15950,128,0,16650:0:0:0:0:
64,192,15950,128,0,16783:0:0:0:0:
448,192,16750,128,0,16916:0:0:0:0:
320,192,16750,128,0,16916:0:0:0:0:
192,192,16883,128,0,17050:0:0:0:0:
64,192,16883,128,0,17050:0:0:0:0:
320,192,17016,128,0,17183:0:0:0:0:
448,192,17016,128,0,17183:0:0:0:0:
192,192,17150,128,0,17316:0:0:0:0:
64,192,17150,128,0,17316:0:0:0:0:
448,192,17283,128,0,17450:0:0:0:0:
320,192,17283,128,0,17450:0:0:0:0:
192,192,17416,128,0,17650:0:0:0:0:
64,192,17416,1,0,0:0:0:0:0
64,192,17550,128,0,18050:0:0:0:0:
320,192,17550,128,0,17850:0:0:0:0:
448,192,17550,128,0,17850:0:0:0:0:
192,192,17750,128,0,18050:0:0:0:0:
448,192,17950,128,0,18050:0:0:0:0:
320,192,17950,128,0,18250:0:0:0:0:
64,192,18150,128,0,18550:0:0:0:0:
192,192,18150,128,0,18250:0:0:0:0:
448,192,18150,128,0,18650:0:0:0:0:
320,192,18350,128,0,18650:0:0:0:0:
192,192,18350,128,0,18450:0:0:0:0:
192,192,18550,128,0,18650:0:0:0:0:
64,192,18650,128,0,19250:0:0:0:0:
192,192,18750,128,0,19050:0:0:0:0:
320,192,18750,128,0,19050:0:0:0:0:
448,192,18750,128,0,18850:0:0:0:0:
448,192,18950,128,0,19250:0:0:0:0:
192,192,19150,128,0,19250:0:0:0:0:
320,192,19150,128,0,19450:0:0:0:0:
64,192,19350,128,0,19450:0:0:0:0:
192,192,19350,128,0,19850:0:0:0:0:
448,192,19350,128,0,19850:0:0:0:0:
64,192,19550,128,0,19850:0:0:0:0:
320,192,19550,128,0,19650:0:0:0:0:
320,192,19750,128,0,20250:0:0:0:0:
192,192,19950,128,0,20050:0:0:0:0:
448,192,19950,128,0,20250:0:0:0:0:
64,192,19950,128,0,20250:0:0:0:0:
192,192,20150,128,0,20450:0:0:0:0:
448,192,20350,128,0,20650:0:0:0:0:
320,192,20350,128,0,20550:0:0:0:0:
64,192,20350,128,0,20650:0:0:0:0:
192,192,20550,128,0,20650:0:0:0:0:
320,192,20650,128,0,21050:0:0:0:0:
448,192,20750,128,0,21250:0:0:0:0:
64,192,20750,128,0,21250:0:0:0:0:
192,192,20750,128,0,20850:0:0:0:0:
192,192,20950,128,0,21250:0:0:0:0:
320,192,21150,128,0,21450:0:0:0:0:
448,192,21350,128,0,21650:0:0:0:0:
64,192,21350,128,0,21850:0:0:0:0:
192,192,21350,128,0,21850:0:0:0:0:
320,192,21550,128,0,21750:0:0:0:0:
448,192,21750,128,0,21850:0:0:0:0:
320,192,21850,128,0,22050:0:0:0:0:
192,192,21950,128,0,22250:0:0:0:0:
64,192,21950,128,0,22450:0:0:0:0:
448,192,21950,128,0,22450:0:0:0:0:
320,192,22150,128,0,22650:0:0:0:0:
192,192,22350,128,0,22450:0:0:0:0:
192,192,22550,128,0,22850:0:0:0:0:
448,192,22550,128,0,23050:0:0:0:0:
64,192,22550,128,0,23050:0:0:0:0:
320,192,22750,128,0,23050:0:0:0:0:
192,192,22950,128,0,23250:0:0:0:0:
448,192,23150,128,0,23450:0:0:0:0:
64,192,23150,128,0,23450:0:0:0:0:
320,192,23150,128,0,23450:0:0:0:0:
192,192,23350,128,0,23550:0:0:0:0:
448,192,23550,128,0,23750:0:0:0:0:
64,192,23550,128,0,23850:0:0:0:0:
320,192,23550,128,0,23650:0:0:0:0:
192,192,23650,128,0,23850:0:0:0:0:
320,192,23750,128,0,23850:0:0:0:0:
448,192,23850,128,0,24050:0:0:0:0:
64,192,23950,128,0,24250:0:0:0:0:
192,192,23950,128,0,24050:0:0:0:0:
320,192,23950,128,0,24850:0:0:0:0:
448,192,24150,128,0,24250:0:0:0:0:
192,192,24150,128,0,24450:0:0:0:0:
448,192,24350,128,0,24450:0:0:0:0:
64,192,24350,128,0,24450:0:0:0:0:
64,192,24550,128,0,24850:0:0:0:0:
448,192,24550,128,0,24650:0:0:0:0:
192,192,24550,128,0,24650:0:0:0:0:
448,192,24750,128,0,25050:0:0:0:0:
192,192,24750,128,0,25050:0:0:0:0:
320,192,24950,128,0,25250:0:0:0:0:
64,192,24950,128,0,25050:0:0:0:0:
64,192,25150,128,0,25450:0:0:0:0:
192,192,25150,128,0,25250:0:0:0:0:
448,192,25150,128,0,25650:0:0:0:0:
192,192,25350,128,0,25450:0:0:0:0:
320,192,25350,128,0,25650:0:0:0:0:
64,192,25550,128,0,25650:0:0:0:0:
192,192,25550,128,0,25850:0:0:0:0:
64,192,25750,128,0,26050:0:0:0:0:
320,192,25750,128,0,26050:0:0:0:0:
448,192,25750,128,0,25850:0:0:0:0:
192,192,25950,128,0,26250:0:0:0:0:
448,192,25950,128,0,26250:0:0:0:0:
64,192,26150,128,0,26450:0:0:0:0:
320,192,26150,128,0,26250:0:0:0:0:
320,192,26350,128,0,26450:0:0:0:0:
192,192,26350,128,0,26650:0:0:0:0:
448,192,26350,128,0,26650:0:0:0:0:
64,192,26550,128,0,26650:0:0:0:0:
320,192,26550,128,0,26750:0:0:0:0:
64,192,26750,128,0,26950:0:0:0:0:
192,192,26750,128,0,26850:0:0:0:0:
448,192,26750,128,0,27050:0:0:0:0:
320,192,26850,128,0,27050:0:0:0:0:
192,192,26950,128,0,27050:0:0:0:0:
64,192,27050,128,0,27250:0:0:0:0:
320,192,27150,128,0,27450:0:0:0:0:
192,192,27150,128,0,27250:0:0:0:0:
448,192,27150,128,0,27450:0:0:0:0:
64,192,27350,128,0,27650:0:0:0:0:
192,192,27350,128,0,27650:0:0:0:0:
448,192,27550,128,0,27650:0:0:0:0:
320,192,27550,128,0,27850:0:0:0:0:
64,192,27750,128,0,28050:0:0:0:0:
192,192,27750,128,0,28250:0:0:0:0:
448,192,27750,128,0,27850:0:0:0:0:
320,192,27950,128,0,28050:0:0:0:0:
448,192,27950,128,0,28250:0:0:0:0:
64,192,28150,128,0,28250:0:0:0:0:
320,192,28150,128,0,28450:0:0:0:0:
64,192,28350,128,0,28650:0:0:0:0:
448,192,28350,128,0,28450:0:0:0:0:
192,192,28350,128,0,28550:0:0:0:0:
448,192,28550,128,0,28850:0:0:0:0:
320,192,28550,128,0,28650:0:0:0:0:
192,192,28650,128,0,28850:0:0:0:0:
320,192,28750,128,0,28950:0:0:0:0:
64,192,28750,128,0,28850:0:0:0:0:
448,192,28950,128,0,29250:0:0:0:0:
192,192,28950,128,0,29250:0:0:0:0:
64,192,28950,128,0,29050:0:0:0:0:
320,192,29050,128,0,29150:0:0:0:0:
64,192,29150,128,0,29450:0:0:0:0:
320,192,29250,128,0,29450:0:0:0:0:
192,192,29350,128,0,29450:0:0:0:0:
448,192,29350,128,0,29650:0:0:0:0:
64,192,29550,128,0,29850:0:0:0:0:
320,192,29550,128,0,29650:0:0:0:0:
192,192,29550,128,0,29850:0:0:0:0:
320,192,29750,128,0,29950:0:0:0:0:
448,192,29750,128,0,29950:0:0:0:0:
192,192,29950,128,0,30050:0:0:0:0:
64,192,29950,128,0,30050:0:0:0:0:
448,192,30050,128,0,30150:0:0:0:0:
320,192,30050,128,0,30150:0:0:0:0:
192,192,30150,128,0,30250:0:0:0:0:
64,192,30150,128,0,30250:0:0:0:0:
320,192,30250,128,0,30450:0:0:0:0:
448,192,30250,128,0,30450:0:0:0:0:
192,192,30350,128,0,30650:0:0:0:0:
64,192,30350,128,0,31050:0:0:0:0:
320,192,30550,128,0,30650:0:0:0:0:
448,192,30550,128,0,30850:0:0:0:0:
320,192,30750,128,0,30850:0:0:0:0:
192,192,30750,128,0,31050:0:0:0:0:
320,192,30950,128,0,31250:0:0:0:0:
448,192,30950,128,0,31250:0:0:0:0:
192,192,31150,128,0,31450:0:0:0:0:
64,192,31150,128,0,31450:0:0:0:0:
448,192,31350,128,0,31650:0:0:0:0:
320,192,31350,128,0,31650:0:0:0:0:
192,192,31550,128,0,32050:0:0:0:0:
64,192,31550,128,0,31850:0:0:0:0:
320,192,31750,128,0,31850:0:0:0:0:
448,192,31750,128,0,32050:0:0:0:0:
320,192,31950,128,0,32250:0:0:0:0:
64,192,31950,128,0,32450:0:0:0:0:
192,192,32150,128,0,32450:0:0:0:0:
448,192,32150,128,0,32650:0:0:0:0:
320,192,32350,128,0,32650:0:0:0:0:
192,192,32550,128,0,33250:0:0:0:0:
64,192,32550,128,0,32850:0:0:0:0:
320,192,32750,128,0,33150:0:0:0:0:
448,192,32750,128,0,33050:0:0:0:0:
64,192,32950,128,0,33350:0:0:0:0:
448,192,33150,128,0,33450:0:0:0:0:
320,192,33250,128,0,33450:0:0:0:0:
192,192,33350,128,0,33650:0:0:0:0:
64,192,33450,128,0,33850:0:0:0:0:
448,192,33550,128,0,34050:0:0:0:0:
320,192,33550,128,0,33850:0:0:0:0:
192,192,33750,128,0,34050:0:0:0:0:
320,192,33950,128,0,34250:0:0:0:0:
64,192,33950,128,0,34250:0:0:0:0:
448,192,34150,128,0,34450:0:0:0:0:
192,192,34150,128,0,34350:0:0:0:0:
320,192,34350,128,0,34450:0:0:0:0:
64,192,34350,128,0,34950:0:0:0:0:
192,192,34450,128,0,34850:0:0:0:0:
448,192,34550,128,0,34650:0:0:0:0:
320,192,34550,128,0,34750:0:0:0:0:
448,192,34750,128,0,35050:0:0:0:0:
320,192,34850,128,0,35050:0:0:0:0:
192,192,34950,128,0,35250:0:0:0:0:
64,192,35050,128,0,35250:0:0:0:0:
448,192,35150,128,0,35450:0:0:0:0:
320,192,35150,128,0,35650:0:0:0:0:
192,192,35350,128,0,35850:0:0:0:0:
64,192,35350,128,0,35650:0:0:0:0:
448,192,35550,128,0,35850:0:0:0:0:
320,192,35750,128,0,35950:0:0:0:0:
64,192,35750,128,0,36350:0:0:0:0:
448,192,35950,128,0,36250:0:0:0:0:
192,192,35950,128,0,36050:0:0:0:0:
320,192,36050,128,0,36250:0:0:0:0:
192,192,36150,128,0,36350:0:0:0:0:
320,192,36350,128,0,36450:0:0:0:0:
448,192,36350,128,0,36450:0:0:0:0:
64,192,36450,128,0,36550:0:0:0:0:
192,192,36450,128,0,36550:0:0:0:0:
448,192,36550,128,0,36650:0:0:0:0:
320,192,36550,128,0,36650:0:0:0:0:
64,192,36650,1,0,0:0:0:0:0
192,192,36650,128,0,36850:0:0:0:0:
448,192,36750,128,0,37250:0:0:0:0:
64,192,36750,128,0,37050:0:0:0:0:
320,192,36750,128,0,37250:0:0:0:0:
192,192,36950,128,0,37250:0:0:0:0:
64,192,37150,128,0,37650:0:0:0:0:
448,192,37350,128,0,37850:0:0:0:0:
320,192,37350,128,0,37450:0:0:0:0:
192,192,37350,128,0,37850:0:0:0:0:
320,192,37550,128,0,37850:0:0:0:0:
64,192,37750,128,0,38250:0:0:0:0:
192,192,37950,128,0,38450:0:0:0:0:
448,192,37950,128,0,38450:0:0:0:0:
320,192,37950,128,0,38050:0:0:0:0:
320,192,38150,128,0,38450:0:0:0:0:
64,192,38350,128,0,38850:0:0:0:0:
320,192,38550,128,0,38650:0:0:0:0:
192,192,38550,128,0,39050:0:0:0:0:
448,192,38550,128,0,39050:0:0:0:0:
320,192,38750,128,0,39050:0:0:0:0:
64,192,38950,128,0,39450:0:0:0:0:
192,192,39150,128,0,39450:0:0:0:0:
448,192,39150,128,0,39450:0:0:0:0:
320,192,39150,128,0,39250:0:0:0:0:
320,192,39350,128,0,39550:0:0:0:0:
192,192,39550,128,0,39650:0:0:0:0:
64,192,39550,128,0,39750:0:0:0:0:
448,192,39550,128,0,39850:0:0:0:0:
320,192,39650,128,0,39850:0:0:0:0:
192,192,39750,128,0,39850:0:0:0:0:
64,192,39850,128,0,40450:0:0:0:0:
448,192,39950,128,0,40450:0:0:0:0:
192,192,39950,128,0,40250:0:0:0:0:
320,192,39950,128,0,40050:0:0:0:0:
320,192,40150,128,0,40450:0:0:0:0:
192,192,40350,128,0,40650:0:0:0:0:
448,192,40550,128,0,41050:0:0:0:0:
64,192,40550,128,0,40850:0:0:0:0:
320,192,40550,128,0,41050:0:0:0:0:
192,192,40750,128,0,41050:0:0:0:0:
64,192,40950,128,0,41150:0:0:0:0:
448,192,41150,128,0,41450:0:0:0:0:
192,192,41150,128,0,41250:0:0:0:0:
320,192,41150,128,0,41350:0:0:0:0:
64,192,41250,128,0,41450:0:0:0:0:
192,192,41350,128,0,41450:0:0:0:0:
320,192,41450,128,0,41650:0:0:0:0:
64,192,41550,128,0,41850:0:0:0:0:
448,192,41550,128,0,42250:0:0:0:0:
192,192,41550,128,0,41650:0:0:0:0:
192,192,41750,128,0,41850:0:0:0:0:
320,192,41750,128,0,42150:0:0:0:0:
64,192,41950,1,0,0:0:0:0:0
192,192,41950,128,0,42050:0:0:0:0:
64,192,42050,128,0,42250:0:0:0:0:
192,192,42150,128,0,42350:0:0:0:0:
320,192,42250,128,0,42450:0:0:0:0:
448,192,42350,128,0,42550:0:0:0:0:
64,192,42350,128,0,42650:0:0:0:0:
192,192,42450,128,0,42750:0:0:0:0:
320,192,42550,128,0,42850:0:0:0:0:
448,192,42650,128,0,42950:0:0:0:0:
64,192,42750,128,0,43050:0:0:0:0:
192,192,42850,128,0,43050:0:0:0:0:
320,192,42950,128,0,43850:0:0:0:0:
448,192,43050,128,0,43850:0:0:0:0:
64,192,43150,128,0,43850:0:0:0:0:
192,192,43150,128,0,43850:0:0:0:0:
320,192,43950,128,0,44383:0:0:0:0:
448,192,43950,128,0,44383:0:0:0:0:
192,192,43950,128,0,44250:0:0:0:0:
64,192,43950,128,0,44250:0:0:0:0:
64,192,44350,128,0,44516:0:0:0:0:
192,192,44350,128,0,44516:0:0:0:0:
448,192,44483,128,0,44650:0:0:0:0:
320,192,44483,128,0,44650:0:0:0:0:
64,192,44616,128,0,44850:0:0:0:0:
192,192,44616,128,0,45050:0:0:0:0:
320,192,44750,128,0,45450:0:0:0:0:
448,192,44750,128,0,46250:0:0:0:0:
64,192,44950,128,0,45250:0:0:0:0:
192,192,45150,128,0,45450:0:0:0:0:
64,192,45350,128,0,46250:0:0:0:0:
320,192,45550,128,0,46450:0:0:0:0:
192,192,45550,128,0,46650:0:0:0:0:
64,192,46350,128,0,46850:0:0:0:0:
448,192,46350,128,0,46850:0:0:0:0:
320,192,46550,128,0,47050:0:0:0:0:
192,192,46750,128,0,47450:0:0:0:0:
64,192,46950,128,0,47650:0:0:0:0:
448,192,46950,128,0,47250:0:0:0:0:
320,192,47150,128,0,47650:0:0:0:0:
448,192,47350,128,0,47450:0:0:0:0:
448,192,47550,128,0,47850:0:0:0:0:
192,192,47550,128,0,48050:0:0:0:0:
320,192,47750,128,0,47950:0:0:0:0:
64,192,47750,128,0,48150:0:0:0:0:
448,192,47950,128,0,48450:0:0:0:0:
320,192,48050,128,0,49750:0:0:0:0:
192,192,48150,128,0,48250:0:0:0:0:
64,192,48250,128,0,48850:0:0:0:0:
192,192,48350,128,0,49550:0:0:0:0:
448,192,48550,128,0,49650:0:0:0:0:
64,192,48950,128,0,49450:0:0:0:0:
64,192,49550,128,0,49850:0:0:0:0:
192,192,49650,128,0,49950:0:0:0:0:
448,192,49750,128,0,50150:0:0:0:0:
320,192,49850,128,0,50050:0:0:0:0:
64,192,49950,128,0,51050:0:0:0:0:
192,192,50050,128,0,51050:0:0:0:0:
320,192,50150,128,0,51250:0:0:0:0:
448,192,50250,128,0,51050:0:0:0:0:
448,192,51150,128,0,52750:0:0:0:0:
64,192,51150,128,0,51650:0:0:0:0:
192,192,51150,128,0,51450:0:0:0:0:
320,192,51350,128,0,52650:0:0:0:0:
192,192,51550,128,0,52850:0:0:0:0:
64,192,51750,128,0,51850:0:0:0:0:
64,192,51950,128,0,52050:0:0:0:0:
64,192,52150,128,0,52250:0:0:0:0:
64,192,52350,128,0,53050:0:0:0:0:
320,192,52750,128,0,52950:0:0:0:0:
448,192,52850,128,0,53350:0:0:0:0:
192,192,52950,128,0,53150:0:0:0:0:
320,192,53050,128,0,53250:0:0:0:0:
64,192,53150,128,0,53550:0:0:0:0:
192,192,53250,128,0,53450:0:0:0:0:
320,192,53350,128,0,53650:0:0:0:0:
448,192,53450,128,0,53850:0:0:0:0:
192,192,53550,128,0,53750:0:0:0:0:
64,192,53650,128,0,54050:0:0:0:0:
320,192,53750,128,0,53950:0:0:0:0:
192,192,53850,128,0,54150:0:0:0:0:
448,192,53950,128,0,54250:0:0:0:0:
320,192,54050,128,0,54250:0:0:0:0:
64,192,54150,128,0,54650:0:0:0:0:
192,192,54250,128,0,54450:0:0:0:0:
448,192,54350,128,0,54850:0:0:0:0:
320,192,54350,128,0,55350:0:0:0:0:
192,192,54550,128,0,55150:0:0:0:0:
64,192,54750,128,0,55050:0:0:0:0:
448,192,54950,128,0,55250:0:0:0:0:
64,192,55150,128,0,55450:0:0:0:0:
192,192,55250,128,0,55550:0:0:0:0:
448,192,55350,128,0,55650:0:0:0:0:
320,192,55450,128,0,55750:0:0:0:0:
64,192,55550,128,0,55850:0:0:0:0:
192,192,55650,128,0,55850:0:0:0:0:
448,192,55750,128,0,55850:0:0:0:0:
320,192,55850,128,0,57650:0:0:0:0:
192,192,55950,128,0,57450:0:0:0:0:
64,192,55950,128,0,57650:0:0:0:0:
448,192,55950,128,0,57450:0:0:0:0:
192,192,57550,128,0,57850:0:0:0:0:
448,192,57550,128,0,57850:0:0:0:0:
64,192,57750,128,0,58050:0:0:0:0:
320,192,57750,128,0,58050:0:0:0:0:
192,192,57950,128,0,58250:0:0:0:0:
448,192,57950,128,0,58650:0:0:0:0:
64,192,58150,128,0,58450:0:0:0:0:
320,192,58150,128,0,58450:0:0:0:0:
192,192,58350,128,0,58650:0:0:0:0:
320,192,58550,128,0,58850:0:0:0:0:
64,192,58550,128,0,58650:0:0:0:0:
448,192,58750,128,0,59050:0:0:0:0:
64,192,58750,128,0,59450:0:0:0:0:
192,192,58750,128,0,58850:0:0:0:0:
192,192,58950,128,0,59250:0:0:0:0:
320,192,58950,128,0,59050:0:0:0:0:
448,192,59150,128,0,59450:0:0:0:0:
320,192,59150,128,0,59650:0:0:0:0:
192,192,59350,128,0,59650:0:0:0:0:
448,192,59550,128,0,59850:0:0:0:0:
64,192,59550,128,0,60050:0:0:0:0:
192,192,59750,128,0,59850:0:0:0:0:
320,192,59750,128,0,59850:0:0:0:0:
448,192,59950,128,0,60450:0:0:0:0:
320,192,59950,128,0,60250:0:0:0:0:
192,192,59950,128,0,60450:0:0:0:0:
64,192,60150,128,0,60250:0:0:0:0:
64,192,60350,128,0,60650:0:0:0:0:
320,192,60350,128,0,60650:0:0:0:0:
448,192,60550,128,0,60850:0:0:0:0:
192,192,60550,128,0,60850:0:0:0:0:
64,192,60750,128,0,61250:0:0:0:0:
320,192,60750,128,0,61050:0:0:0:0:
448,192,60950,128,0,61250:0:0:0:0:
192,192,60950,128,0,61250:0:0:0:0:
320,192,61150,128,0,61450:0:0:0:0:
448,192,61350,128,0,61450:0:0:0:0:
64,192,61350,128,0,61650:0:0:0:0:
192,192,61350,128,0,61650:0:0:0:0:
448,192,61550,128,0,62050:0:0:0:0:
320,192,61550,128,0,62050:0:0:0:0:
64,192,61750,128,0,61850:0:0:0:0:
192,192,61750,128,0,61850:0:0:0:0:
64,192,61950,128,0,62250:0:0:0:0:
192,192,61950,128,0,62050:0:0:0:0:
192,192,62150,128,0,62550:0:0:0:0:
320,192,62150,128,0,62650:0:0:0:0:
448,192,62150,128,0,62250:0:0:0:0:
64,192,62350,128,0,62450:0:0:0:0:
448,192,62350,128,0,62550:0:0:0:0:
64,192,62550,128,0,63050:0:0:0:0:
448,192,62650,128,0,62850:0:0:0:0:
192,192,62650,128,0,62850:0:0:0:0:
320,192,62750,128,0,63050:0:0:0:0:
448,192,62950,128,0,63050:0:0:0:0:
192,192,62950,128,0,63250:0:0:0:0:
64,192,63150,128,0,63450:0:0:0:0:
320,192,63150,128,0,63450:0:0:0:0:
448,192,63150,128,0,63250:0:0:0:0:
448,192,63350,128,0,63650:0:0:0:0:
192,192,63350,128,0,63450:0:0:0:0:
64,192,63550,128,0,63850:0:0:0:0:
320,192,63550,128,0,64050:0:0:0:0:
192,192,63550,128,0,63650:0:0:0:0:
448,192,63750,128,0,63850:0:0:0:0:
192,192,63750,128,0,64250:0:0:0:0:
64,192,63950,128,0,64850:0:0:0:0:
448,192,63950,128,0,64450:0:0:0:0:
320,192,64150,128,0,64450:0:0:0:0:
192,192,64350,128,0,64650:0:0:0:0:
320,192,64550,128,0,64650:0:0:0:0:
448,192,64550,128,0,64850:0:0:0:0:
192,192,64750,128,0,65050:0:0:0:0:
320,192,64750,128,0,65050:0:0:0:0:
64,192,64950,128,0,65450:0:0:0:0:
448,192,64950,128,0,65450:0:0:0:0:
192,192,65150,128,0,65650:0:0:0:0:
320,192,65150,128,0,65250:0:0:0:0:
320,192,65350,128,0,65850:0:0:0:0:
64,192,65550,128,0,66250:0:0:0:0:
448,192,65550,128,0,66250:0:0:0:0:
192,192,65750,128,0,66050:0:0:0:0:
320,192,65950,128,0,66250:0:0:0:0:
192,192,66150,128,0,66450:0:0:0:0:
448,192,66350,128,0,67250:0:0:0:0:
64,192,66350,128,0,66650:0:0:0:0:
320,192,66350,128,0,67050:0:0:0:0:
192,192,66550,128,0,66850:0:0:0:0:
64,192,66750,128,0,67050:0:0:0:0:
192,192,66950,128,0,67250:0:0:0:0:
64,192,67150,128,0,67650:0:0:0:0:
320,192,67150,128,0,67450:0:0:0:0:
192,192,67350,128,0,67650:0:0:0:0:
448,192,67350,128,0,67650:0:0:0:0:
320,192,67550,128,0,67850:0:0:0:0:
64,192,67750,128,0,68250:0:0:0:0:
192,192,67750,128,0,68050:0:0:0:0:
448,192,67750,128,0,67850:0:0:0:0:
320,192,67950,128,0,68450:0:0:0:0:
448,192,67950,128,0,68250:0:0:0:0:
192,192,68150,128,0,68450:0:0:0:0:
64,192,68350,128,0,68650:0:0:0:0:
448,192,68350,128,0,68650:0:0:0:0:
192,192,68550,128,0,69050:0:0:0:0:
320,192,68550,128,0,68650:0:0:0:0:
64,192,68750,128,0,68850:0:0:0:0:
320,192,68750,128,0,68850:0:0:0:0:
448,192,68750,128,0,69050:0:0:0:0:
320,192,68950,128,0,69050:0:0:0:0:
64,192,68950,128,0,69250:0:0:0:0:
192,192,69150,128,0,69450:0:0:0:0:
448,192,69150,128,0,69650:0:0:0:0:
320,192,69150,128,0,69250:0:0:0:0:
320,192,69350,128,0,69450:0:0:0:0:
64,192,69350,128,0,69650:0:0:0:0:
192,192,69550,128,0,69850:0:0:0:0:
320,192,69550,128,0,70050:0:0:0:0:
448,192,69750,128,0,70050:0:0:0:0:
64,192,69750,128,0,69850:0:0:0:0:
192,192,69950,128,0,70450:0:0:0:0:
64,192,69950,128,0,70250:0:0:0:0:
320,192,70150,128,0,70450:0:0:0:0:
448,192,70150,128,0,70250:0:0:0:0:
64,192,70350,128,0,70650:0:0:0:0:
448,192,70350,128,0,70850:0:0:0:0:
320,192,70550,128,0,70650:0:0:0:0:
192,192,70550,128,0,70850:0:0:0:0:
320,192,70750,128,0,71650:0:0:0:0:
64,192,70750,128,0,71050:0:0:0:0:
448,192,70950,128,0,71250:0:0:0:0:
192,192,70950,128,0,71250:0:0:0:0:
64,192,71150,128,0,71650:0:0:0:0:
448,192,71350,128,0,71450:0:0:0:0:
192,192,71350,128,0,71450:0:0:0:0:
448,192,71550,128,0,71850:0:0:0:0:
192,192,71550,128,0,71850:0:0:0:0:
320,192,71750,128,0,72050:0:0:0:0:
64,192,71750,128,0,72450:0:0:0:0:
448,192,71950,128,0,73050:0:0:0:0:
192,192,71950,128,0,72250:0:0:0:0:
320,192,72150,128,0,72650:0:0:0:0:
192,192,72350,128,0,72650:0:0:0:0:
64,192,72550,128,0,72650:0:0:0:0:
320,192,72750,128,0,73050:0:0:0:0:
64,192,72750,128,0,73450:0:0:0:0:
192,192,72750,128,0,73250:0:0:0:0:
448,192,73150,128,0,73650:0:0:0:0:
320,192,73150,128,0,73250:0:0:0:0:
320,192,73350,128,0,73450:0:0:0:0:
192,192,73350,128,0,73650:0:0:0:0:
320,192,73550,128,0,73850:0:0:0:0:
64,192,73550,128,0,73850:0:0:0:0:
448,192,73750,128,0,74050:0:0:0:0:
192,192,73750,128,0,74050:0:0:0:0:
320,192,73950,128,0,74050:0:0:0:0:
64,192,73950,128,0,74050:0:0:0:0:
448,192,74150,128,0,74250:0:0:0:0:
320,192,74150,128,0,74250:0:0:0:0:
64,192,74150,128,0,74450:0:0:0:0:
192,192,74150,128,0,74450:0:0:0:0:
448,192,74350,128,0,74650:0:0:0:0:
320,192,74350,128,0,74850:0:0:0:0:
64,192,74550,128,0,74650:0:0:0:0:
192,192,74550,128,0,74850:0:0:0:0:
64,192,74750,128,0,75050:0:0:0:0:
448,192,74750,128,0,75050:0:0:0:0:
192,192,74950,128,0,75250:0:0:0:0:
320,192,74950,128,0,75450:0:0:0:0:
64,192,75150,128,0,75250:0:0:0:0:
448,192,75150,128,0,75450:0:0:0:0:
64,192,75350,128,0,75650:0:0:0:0:
192,192,75350,128,0,75650:0:0:0:0:
320,192,75550,128,0,75850:0:0:0:0:
448,192,75550,128,0,75850:0:0:0:0:
192,192,75750,128,0,75850:0:0:0:0:
64,192,75750,128,0,75850:0:0:0:0:
320,192,75950,128,0,76050:0:0:0:0:
192,192,75950,128,0,76650:0:0:0:0:
64,192,75950,128,0,76250:0:0:0:0:
448,192,75950,128,0,76050:0:0:0:0:
320,192,76150,128,0,76250:0:0:0:0:
448,192,76150,128,0,76250:0:0:0:0:
320,192,76350,128,0,76450:0:0:0:0:
448,192,76350,128,0,76850:0:0:0:0:
64,192,76350,128,0,76450:0:0:0:0:
320,192,76550,128,0,76650:0:0:0:0:
64,192,76550,128,0,76650:0:0:0:0:
320,192,76750,128,0,77050:0:0:0:0:
64,192,76750,128,0,77650:0:0:0:0:
192,192,76750,128,0,77250:0:0:0:0:
448,192,76950,128,0,77250:0:0:0:0:
320,192,77150,128,0,77450:0:0:0:0:
192,192,77350,128,0,77450:0:0:0:0:
448,192,77350,128,0,77650:0:0:0:0:
320,192,77550,128,0,78050:0:0:0:0:
192,192,77550,128,0,77850:0:0:0:0:
64,192,77750,128,0,77850:0:0:0:0:
448,192,77750,128,0,78050:0:0:0:0:
64,192,77950,128,0,78250:0:0:0:0:
192,192,77950,128,0,78450:0:0:0:0:
320,192,78150,128,0,78650:0:0:0:0:
448,192,78150,128,0,78250:0:0:0:0:
64,192,78350,128,0,78650:0:0:0:0:
448,192,78350,128,0,78850:0:0:0:0:
192,192,78550,128,0,78850:0:0:0:0:
64,192,78750,128,0,79050:0:0:0:0:
320,192,78750,128,0,79050:0:0:0:0:
192,192,78950,128,0,79050:0:0:0:0:
448,192,78950,128,0,79250:0:0:0:0:
192,192,79150,128,0,79450:0:0:0:0:
64,192,79150,128,0,79850:0:0:0:0:
320,192,79150,128,0,80050:0:0:0:0:
448,192,79350,128,0,79650:0:0:0:0:
192,192,79550,128,0,79850:0:0:0:0:
448,192,79750,128,0,80050:0:0:0:0:
192,192,79950,128,0,80050:0:0:0:0:
64,192,79950,128,0,80450:0:0:0:0:
192,192,80150,128,0,80450:0:0:0:0:
320,192,80150,128,0,80650:0:0:0:0:
448,192,80150,128,0,80250:0:0:0:0:
448,192,80350,128,0,80650:0:0:0:0:
192,192,80550,128,0,80650:0:0:0:0:
64,192,80550,128,0,81050:0:0:0:0:
192,192,80750,128,0,80850:0:0:0:0:
448,192,80750,128,0,81250:0:0:0:0:
320,192,80750,128,0,81250:0:0:0:0:
192,192,80950,128,0,81050:0:0:0:0:
192,192,81150,128,0,81250:0:0:0:0:
64,192,81150,128,0,81650:0:0:0:0:
448,192,81350,128,0,81650:0:0:0:0:
192,192,81350,128,0,81850:0:0:0:0:
320,192,81350,128,0,81450:0:0:0:0:
320,192,81550,128,0,81850:0:0:0:0:
448,192,81750,128,0,81850:0:0:0:0:
64,192,81750,128,0,82050:0:0:0:0:
192,192,81950,128,0,82250:0:0:0:0:
448,192,81950,128,0,82650:0:0:0:0:
320,192,81950,128,0,82250:0:0:0:0:
64,192,82150,128,0,82250:0:0:0:0:
192,192,82350,128,0,82650:0:0:0:0:
64,192,82350,128,0,83050:0:0:0:0:
320,192,82350,128,0,83250:0:0:0:0:
448,192,82750,128,0,84650:0:0:0:0:
192,192,82750,128,0,83050:0:0:0:0:
192,192,83150,128,0,83450:0:0:0:0:
64,192,83150,128,0,83850:0:0:0:0:
320,192,83350,128,0,83650:0:0:0:0:
192,192,83550,128,0,83850:0:0:0:0:
320,192,83750,128,0,84050:0:0:0:0:
192,192,83950,128,0,84250:0:0:0:0:
64,192,83950,128,0,84250:0:0:0:0:
320,192,84150,128,0,84450:0:0:0:0:
192,192,84350,128,0,85050:0:0:0:0:
64,192,84350,128,0,84450:0:0:0:0:
64,192,84550,128,0,84650:0:0:0:0:
320,192,84550,128,0,84850:0:0:0:0:
64,192,84750,128,0,85450:0:0:0:0:
448,192,84750,128,0,85450:0:0:0:0:
320,192,84950,128,0,85250:0:0:0:0:
192,192,85150,128,0,85583:0:0:0:0:
320,192,85350,128,0,85650:0:0:0:0:
448,192,85550,128,0,85850:0:0:0:0:
64,192,85550,128,0,85716:0:0:0:0:
192,192,85683,128,0,85850:0:0:0:0:
320,192,85750,128,0,86050:0:0:0:0:
64,192,85816,128,0,85983:0:0:0:0:
192,192,85950,128,0,86116:0:0:0:0:
448,192,85950,128,0,86250:0:0:0:0:
64,192,86083,128,0,86250:0:0:0:0:
320,192,86150,128,0,86450:0:0:0:0:
192,192,86216,1,0,0:0:0:0:0
192,192,86350,128,0,86650:0:0:0:0:
64,192,86350,128,0,87050:0:0:0:0:
448,192,86350,128,0,87050:0:0:0:0:
320,192,86550,128,0,86850:0:0:0:0:
192,192,86750,128,0,87450:0:0:0:0:
320,192,86950,128,0,87250:0:0:0:0:
64,192,87150,128,0,87450:0:0:0:0:
448,192,87150,128,0,87850:0:0:0:0:
320,192,87350,128,0,87650:0:0:0:0:
192,192,87550,128,0,88250:0:0:0:0:
64,192,87550,128,0,87650:0:0:0:0:
64,192,87750,128,0,87850:0:0:0:0:
320,192,87750,128,0,88050:0:0:0:0:
448,192,87950,128,0,88650:0:0:0:0:
64,192,87950,128,0,88116:0:0:0:0:
320,192,88150,128,0,88450:0:0:0:0:
64,192,88216,128,0,88383:0:0:0:0:
192,192,88350,128,0,88850:0:0:0:0:
64,192,88483,128,0,88650:0:0:0:0:
320,192,88550,128,0,89050:0:0:0:0:
64,192,88750,128,0,89450:0:0:0:0:
448,192,88750,128,0,88916:0:0:0:0:
192,192,88950,128,0,89250:0:0:0:0:
448,192,89016,128,0,89183:0:0:0:0:
320,192,89150,128,0,89450:0:0:0:0:
448,192,89283,128,0,89450:0:0:0:0:
192,192,89350,128,0,89650:0:0:0:0:
320,192,89550,128,0,90250:0:0:0:0:
448,192,89550,128,0,89850:0:0:0:0:
64,192,89550,128,0,90050:0:0:0:0:
192,192,89750,128,0,90050:0:0:0:0:
448,192,89950,128,0,90250:0:0:0:0:
192,192,90150,128,0,90450:0:0:0:0:
64,192,90150,128,0,90450:0:0:0:0:
448,192,90350,128,0,90650:0:0:0:0:
320,192,90350,128,0,90650:0:0:0:0:
64,192,90550,128,0,90850:0:0:0:0:
192,192,90550,128,0,90850:0:0:0:0:
320,192,90750,128,0,91050:0:0:0:0:
448,192,90750,128,0,91050:0:0:0:0:
64,192,90950,128,0,91050:0:0:0:0:
192,192,90950,128,0,91350:0:0:0:0:
448,192,91150,128,0,91350:0:0:0:0:
64,192,91150,128,0,91350:0:0:0:0:
320,192,91150,128,0,91650:0:0:0:0:
64,192,91450,128,0,91650:0:0:0:0:
192,192,91450,128,0,91850:0:0:0:0:
448,192,91450,128,0,91650:0:0:0:0:
320,192,91750,128,0,92050:0:0:0:0:
64,192,91750,128,0,92450:0:0:0:0:
448,192,91750,128,0,92250:0:0:0:0:
192,192,91950,128,0,92250:0:0:0:0:
320,192,92150,128,0,92450:0:0:0:0:
448,192,92350,128,0,93050:0:0:0:0:
192,192,92350,128,0,92650:0:0:0:0:
64,192,92550,128,0,92650:0:0:0:0:
320,192,92550,128,0,92850:0:0:0:0:
64,192,92750,128,0,93050:0:0:0:0:
192,192,92750,128,0,93450:0:0:0:0:
320,192,92950,128,0,93250:0:0:0:0:
448,192,93150,128,0,93450:0:0:0:0:
64,192,93150,128,0,93650:0:0:0:0:
320,192,93350,128,0,93850:0:0:0:0:
448,192,93550,128,0,94050:0:0:0:0:
192,192,93550,128,0,93850:0:0:0:0:
64,192,93750,128,0,94150:0:0:0:0:
192,192,93950,128,0,94150:0:0:0:0:
320,192,93950,128,0,94050:0:0:0:0:
320,192,94150,128,0,94250:0:0:0:0:
448,192,94150,128,0,94250:0:0:0:0:
192,192,94250,128,0,94650:0:0:0:0:
64,192,94250,128,0,94850:0:0:0:0:
320,192,94350,128,0,94450:0:0:0:0:
448,192,94350,128,0,95050:0:0:0:0:
320,192,94550,128,0,95050:0:0:0:0:
192,192,94750,128,0,95050:0:0:0:0:
64,192,94950,128,0,95650:0:0:0:0:
320,192,95150,128,0,95250:0:0:0:0:
448,192,95150,128,0,96550:0:0:0:0:
192,192,95150,128,0,95450:0:0:0:0:
320,192,95350,128,0,95850:0:0:0:0:
192,192,95550,128,0,95850:0:0:0:0:
64,192,95750,128,0,97450:0:0:0:0:
192,192,95950,128,0,97450:0:0:0:0:
320,192,95950,128,0,96550:0:0:0:0:
320,192,96650,1,0,0:0:0:0:0
448,192,96650,1,0,0:0:0:0:0
448,192,96750,128,0,99050:0:0:0:0:
320,192,96750,128,0,98250:0:0:0:0:
192,192,97550,128,0,98250:0:0:0:0:
64,192,97550,128,0,99750:0:0:0:0:
192,192,98350,128,0,99750:0:0:0:0:
320,192,98350,128,0,99050:0:0:0:0:
448,192,99150,128,0,100850:0:0:0:0:
320,192,99150,128,0,100750:0:0:0:0:
192,192,99850,1,0,0:0:0:0:0
64,192,99850,1,0,0:0:0:0:0
192,192,99950,128,0,100650:0:0:0:0:
64,192,99950,128,0,100650:0:0:0:0:
192,192,100750,128,0,100950:0:0:0:0:
64,192,100750,128,0,100850:0:0:0:0:
320,192,100850,128,0,101050:0:0:0:0:
448,192,100950,128,0,101050:0:0:0:0:
64,192,100950,128,0,101250:0:0:0:0:
192,192,101050,128,0,101150:0:0:0:0:
448,192,101150,128,0,101250:0:0:0:0:
320,192,101150,128,0,101350:0:0:0:0:
192,192,101250,128,0,101450:0:0:0:0:
448,192,101350,128,0,101650:0:0:0:0:
64,192,101350,128,0,101450:0:0:0:0:
320,192,101450,128,0,101550:0:0:0:0:
192,192,101550,128,0,101750:0:0:0:0:
64,192,101550,128,0,101650:0:0:0:0:
320,192,101650,128,0,101850:0:0:0:0:
64,192,101750,128,0,101950:0:0:0:0:
448,192,101750,128,0,101850:0:0:0:0:
192,192,101850,128,0,102050:0:0:0:0:
320,192,101950,128,0,102050:0:0:0:0:
448,192,101950,128,0,102150:0:0:0:0:
64,192,102050,128,0,102250:0:0:0:0:
192,192,102150,128,0,102250:0:0:0:0:
320,192,102150,128,0,102450:0:0:0:0:
448,192,102250,128,0,102650:0:0:0:0:
192,192,102350,128,0,104150:0:0:0:0:
64,192,102350,128,0,102850:0:0:0:0:
320,192,102550,128,0,102850:0:0:0:0:
448,192,102750,128,0,103050:0:0:0:0:
64,192,102950,128,0,103450:0:0:0:0:
320,192,102950,128,0,103250:0:0:0:0:
448,192,103150,128,0,103650:0:0:0:0:
320,192,103350,128,0,103850:0:0:0:0:
64,192,103550,128,0,103850:0:0:0:0:
448,192,103750,128,0,104050:0:0:0:0:
64,192,103950,128,0,104250:0:0:0:0:
320,192,103950,128,0,105050:0:0:0:0:
448,192,104150,128,0,104350:0:0:0:0:
192,192,104250,128,0,104450:0:0:0:0:
64,192,104350,128,0,104450:0:0:0:0:
448,192,104450,128,0,104650:0:0:0:0:
64,192,104550,128,0,104650:0:0:0:0:
192,192,104550,128,0,104850:0:0:0:0:
64,192,104750,128,0,105250:0:0:0:0:
448,192,104750,128,0,105650:0:0:0:0:
192,192,104950,128,0,105150:0:0:0:0:
320,192,105150,128,0,105350:0:0:0:0:
192,192,105250,128,0,105450:0:0:0:0:
64,192,105350,128,0,105450:0:0:0:0:
320,192,105450,128,0,105850:0:0:0:0:
64,192,105550,128,0,106450:0:0:0:0:
192,192,105550,128,0,106050:0:0:0:0:
448,192,105750,128,0,106050:0:0:0:0:
320,192,105950,128,0,106250:0:0:0:0:
192,192,106150,128,0,106250:0:0:0:0:
448,192,106150,128,0,106650:0:0:0:0:
320,192,106350,128,0,107250:0:0:0:0:
192,192,106350,128,0,106650:0:0:0:0:
64,192,106550,128,0,106850:0:0:0:0:
192,192,106750,128,0,107050:0:0:0:0:
448,192,106750,128,0,107050:0:0:0:0:
64,192,106950,128,0,107250:0:0:0:0:
448,192,107150,128,0,107450:0:0:0:0:
192,192,107150,128,0,107650:0:0:0:0:
64,192,107350,128,0,107450:0:0:0:0:
320,192,107350,128,0,107850:0:0:0:0:
64,192,107550,128,0,107850:0:0:0:0:
448,192,107550,128,0,108250:0:0:0:0:
192,192,107750,128,0,107850:0:0:0:0:
192,192,107950,128,0,109250:0:0:0:0:
320,192,107950,128,0,108050:0:0:0:0:
64,192,107950,128,0,108350:0:0:0:0:
320,192,108150,128,0,108450:0:0:0:0:
448,192,108350,128,0,108550:0:0:0:0:
64,192,108450,128,0,108650:0:0:0:0:
320,192,108550,128,0,108650:0:0:0:0:
448,192,108650,128,0,108850:0:0:0:0:
320,192,108750,128,0,109050:0:0:0:0:
64,192,108750,128,0,110450:0:0:0:0:
448,192,108950,128,0,109250:0:0:0:0:
320,192,109150,128,0,109450:0:0:0:0:
192,192,109350,128,0,109650:0:0:0:0:
448,192,109350,128,0,109850:0:0:0:0:
320,192,109550,128,0,109850:0:0:0:0:
192,192,109750,128,0,110050:0:0:0:0:
448,192,109950,128,0,110850:0:0:0:0:
320,192,109950,128,0,110250:0:0:0:0:
192,192,110150,128,0,110250:0:0:0:0:
320,192,110350,128,0,110550:0:0:0:0:
192,192,110350,128,0,111250:0:0:0:0:
64,192,110550,128,0,110650:0:0:0:0:
320,192,110650,128,0,111050:0:0:0:0:
64,192,110750,128,0,110850:0:0:0:0:
448,192,110950,128,0,111050:0:0:0:0:
64,192,110950,128,0,111450:0:0:0:0:
320,192,111150,128,0,112450:0:0:0:0:
448,192,111150,128,0,111450:0:0:0:0:
192,192,111350,128,0,111650:0:0:0:0:
64,192,111550,128,0,111750:0:0:0:0:
448,192,111550,128,0,111850:0:0:0:0:
192,192,111750,128,0,111850:0:0:0:0:
64,192,111850,128,0,112050:0:0:0:0:
192,192,111950,128,0,112250:0:0:0:0:
448,192,111950,128,0,112850:0:0:0:0:
64,192,112150,128,0,112450:0:0:0:0:
192,192,112350,128,0,112650:0:0:0:0:
64,192,112550,128,0,113050:0:0:0:0:
320,192,112550,128,0,112650:0:0:0:0:
192,192,112750,128,0,113650:0:0:0:0:
320,192,112750,128,0,113050:0:0:0:0:
448,192,112950,128,0,113250:0:0:0:0:
320,192,113150,128,0,113450:0:0:0:0:
64,192,113150,128,0,113450:0:0:0:0:
448,192,113350,128,0,113850:0:0:0:0:
320,192,113550,128,0,114450:0:0:0:0:
64,192,113550,128,0,114050:0:0:0:0:
192,192,113750,128,0,114250:0:0:0:0:
448,192,113950,128,0,114650:0:0:0:0:
64,192,114150,128,0,114250:0:0:0:0:
64,192,114350,128,0,115450:0:0:0:0:
192,192,114350,128,0,114650:0:0:0:0:
320,192,114550,128,0,115050:0:0:0:0:
192,192,114750,128,0,114850:0:0:0:0:
448,192,114750,128,0,114850:0:0:0:0:
448,192,114950,128,0,115050:0:0:0:0:
192,192,114950,128,0,115250:0:0:0:0:
448,192,115150,128,0,116850:0:0:0:0:
320,192,115150,128,0,115650:0:0:0:0:
192,192,115350,128,0,115650:0:0:0:0:
64,192,115550,128,0,115850:0:0:0:0:
192,192,115750,128,0,116050:0:0:0:0:
320,192,115750,128,0,116250:0:0:0:0:
64,192,115950,128,0,116250:0:0:0:0:
192,192,116150,128,0,116450:0:0:0:0:
64,192,116350,128,0,116650:0:0:0:0:
320,192,116350,128,0,116650:0:0:0:0:
192,192,116550,128,0,117250:0:0:0:0:
64,192,116750,128,0,117850:0:0:0:0:
320,192,116750,128,0,117050:0:0:0:0:
448,192,116950,128,0,117250:0:0:0:0:
320,192,117150,128,0,117450:0:0:0:0:
192,192,117350,128,0,117650:0:0:0:0:
448,192,117350,128,0,117450:0:0:0:0:
320,192,117550,128,0,117850:0:0:0:0:
448,192,117550,128,0,118650:0:0:0:0:
192,192,117750,128,0,118250:0:0:0:0:
64,192,117950,128,0,118050:0:0:0:0:
320,192,117950,128,0,118050:0:0:0:0:
320,192,118150,128,0,118250:0:0:0:0:
64,192,118150,128,0,118450:0:0:0:0:
192,192,118350,128,0,118850:0:0:0:0:
320,192,118350,128,0,120050:0:0:0:0:
64,192,118550,128,0,118850:0:0:0:0:
448,192,118750,128,0,119050:0:0:0:0:
192,192,118950,128,0,119250:0:0:0:0:
64,192,118950,128,0,119450:0:0:0:0:
448,192,119150,128,0,119450:0:0:0:0:
192,192,119350,128,0,119850:0:0:0:0:
448,192,119550,128,0,119850:0:0:0:0:
64,192,119550,128,0,119650:0:0:0:0:
64,192,119750,128,0,120050:0:0:0:0:
192,192,119950,128,0,121450:0:0:0:0:
448,192,119950,128,0,120250:0:0:0:0:
320,192,120150,128,0,120450:0:0:0:0:
64,192,120150,128,0,120650:0:0:0:0:
448,192,120350,128,0,120650:0:0:0:0:
320,192,120550,128,0,120650:0:0:0:0:
320,192,120750,128,0,121650:0:0:0:0:
448,192,120750,128,0,121450:0:0:0:0:
64,192,120750,128,0,121450:0:0:0:0:
64,192,121550,128,0,123650:0:0:0:0:
192,192,121550,128,0,121850:0:0:0:0:
448,192,121550,128,0,122050:0:0:0:0:
320,192,121750,128,0,122050:0:0:0:0:
192,192,121950,128,0,122250:0:0:0:0:
320,192,122150,128,0,122450:0:0:0:0:
448,192,122150,128,0,122650:0:0:0:0:
192,192,122350,128,0,122650:0:0:0:0:
320,192,122550,128,0,122850:0:0:0:0:
192,192,122750,128,0,123050:0:0:0:0:
448,192,122750,128,0,123050:0:0:0:0:
320,192,122950,128,0,123250:0:0:0:0:
192,192,123150,128,0,123450:0:0:0:0:
448,192,123150,128,0,124250:0:0:0:0:
320,192,123350,128,0,123650:0:0:0:0:
192,192,123550,128,0,123850:0:0:0:0:
64,192,123750,128,0,124050:0:0:0:0:
320,192,123750,128,0,123850:0:0:0:0:
320,192,123950,128,0,125050:0:0:0:0:
192,192,123950,128,0,124250:0:0:0:0:
64,192,124150,128,0,124350:0:0:0:0:
192,192,124350,128,0,124450:0:0:0:0:
448,192,124350,128,0,124550:0:0:0:0:
64,192,124450,128,0,124650:0:0:0:0:
192,192,124550,128,0,124650:0:0:0:0:
448,192,124650,128,0,124850:0:0:0:0:
64,192,124750,128,0,125250:0:0:0:0:
192,192,124750,128,0,125650:0:0:0:0:
448,192,124950,128,0,125250:0:0:0:0:
320,192,125150,128,0,125450:0:0:0:0:
64,192,125350,128,0,125850:0:0:0:0:
448,192,125350,128,0,125450:0:0:0:0:
320,192,125550,128,0,125850:0:0:0:0:
448,192,125550,128,0,127850:0:0:0:0:
192,192,125750,128,0,126050:0:0:0:0:
64,192,125950,128,0,126250:0:0:0:0:
320,192,125950,128,0,126250:0:0:0:0:
192,192,126150,128,0,126250:0:0:0:0:
64,192,126350,128,0,127850:0:0:0:0:
320,192,126350,128,0,127850:0:0:0:0:
192,192,126350,128,0,127850:0:0:0:0:
64,192,127950,128,0,130150:0:0:0:0:
192,192,127950,128,0,130050:0:0:0:0:
320,192,127950,128,0,129950:0:0:0:0:
448,192,127950,128,0,129850:0:0:0:0:
