osu file format v14

[General]
AudioFilename: audio.mp3
AudioLeadIn: 0
PreviewTime: 651
Countdown: 0
SampleSet: Soft
StackLeniency: 0.7
Mode: 3
LetterboxInBreaks: 0
SpecialStyle: 1
WidescreenStoryboard: 1

[Editor]
DistanceSpacing: 0.8
BeatDivisor: 4
GridSize: 4
TimelineZoom: 1.6

[Metadata]
Title:Ludibrium Eos Tower
TitleUnicode:玩具塔
Artist:Studio EIM
ArtistUnicode:Studio EIM
Creator:pikechu
Version:Easy
Source:Maplestory
Tags:nexon bgm sdo ludibrium clock tower 冒险岛 楓之谷 ExNeko
BeatmapID:1353558
BeatmapSetID:638054

[Difficulty]
HPDrainRate:6
CircleSize:4
OverallDifficulty:7
ApproachRate:5
SliderMultiplier:1.4
SliderTickRate:1

[Events]
//Background and Video events
0,0,"Maple0002.jpg",0,0
//Break Periods
//Storyboard Layer 0 (Background)
//Storyboard Layer 1 (Fail)
//Storyboard Layer 2 (Pass)
//Storyboard Layer 3 (Foreground)
//Storyboard Sound Samples

[TimingPoints]
1228,461.538461538462,4,2,0,30,1,0

[HitObjects]
64,192,651,128,0,1228:0:0:0:0:
448,192,1228,5,0,0:0:0:0:
320,192,1574,1,0,0:0:0:0:
192,192,1689,1,0,0:0:0:0:
64,192,1920,1,0,0:0:0:0:
192,192,2151,1,0,0:0:0:0:
320,192,2497,1,0,0:0:0:0:
448,192,2612,1,0,0:0:0:0:
64,192,2843,1,0,0:0:0:0:
192,192,3074,1,0,0:0:0:0:
192,192,3420,1,0,0:0:0:0:
448,192,3535,1,0,0:0:0:0:
320,192,3766,128,0,4458:0:0:0:0:
64,192,4458,1,0,0:0:0:0:
192,192,4920,1,0,0:0:0:0:
320,192,5151,1,0,0:0:0:0:
64,192,5381,1,0,0:0:0:0:
448,192,5612,1,0,0:0:0:0:
64,192,6304,1,0,0:0:0:0:
320,192,6766,1,0,0:0:0:0:
192,192,6997,1,0,0:0:0:0:
64,192,7228,1,0,0:0:0:0:
448,192,7458,1,0,0:0:0:0:
192,192,7689,128,0,7920:0:0:0:0:
320,192,7920,128,0,8151:0:0:0:0:
64,192,8151,128,0,8381:0:0:0:0:
448,192,8381,128,0,8612:0:0:0:0:
64,192,8612,1,0,0:0:0:0:
448,192,8958,1,0,0:0:0:0:
320,192,9074,1,0,0:0:0:0:
192,192,9304,1,0,0:0:0:0:
64,192,9535,1,0,0:0:0:0:
192,192,9881,1,0,0:0:0:0:
320,192,9997,1,0,0:0:0:0:
448,192,10228,1,0,0:0:0:0:
192,192,10458,1,0,0:0:0:0:
64,192,10804,1,0,0:0:0:0:
320,192,10920,1,0,0:0:0:0:
448,192,11151,128,0,11843:0:0:0:0:
320,192,11843,128,0,12304:0:0:0:0:
64,192,12304,128,0,12766:0:0:0:0:
448,192,12766,1,0,0:0:0:0:
320,192,12997,1,0,0:0:0:0:
192,192,13458,128,0,13689:0:0:0:0:
448,192,13920,128,0,14151:0:0:0:0:
320,192,14381,128,0,14612:0:0:0:0:
64,192,14843,128,0,15074:0:0:0:0:
192,192,15304,128,0,15997:0:0:0:0:
320,192,15997,1,0,0:0:0:0:
192,192,16458,1,0,0:0:0:0:
64,192,16689,1,0,0:0:0:0:
320,192,17151,1,0,0:0:0:0:
64,192,17612,1,0,0:0:0:0:
192,192,18074,1,0,0:0:0:0:
320,192,18535,1,0,0:0:0:0:
192,192,19228,1,0,0:0:0:0:
448,192,19458,1,0,0:0:0:0:
64,192,19689,1,0,0:0:0:0:
320,192,20151,1,0,0:0:0:0:
192,192,20381,1,0,0:0:0:0:
320,192,20843,1,0,0:0:0:0:
64,192,21304,1,0,0:0:0:0:
320,192,21766,1,0,0:0:0:0:
448,192,22228,1,0,0:0:0:0:
64,192,22920,1,0,0:0:0:0:
192,192,23151,1,0,0:0:0:0:
448,192,23381,1,0,0:0:0:0:
64,192,23381,1,4,0:0:0:0:
320,192,23843,1,0,0:0:0:0:
64,192,24074,1,0,0:0:0:0:
320,192,24304,1,4,0:0:0:0:
448,192,24535,1,0,0:0:0:0:
320,192,24997,128,0,26151:0:0:0:0:
64,192,25228,1,4,0:0:0:0:
64,192,26612,1,0,0:0:0:0:
192,192,26843,1,0,0:0:0:0:
320,192,27074,1,0,0:0:0:0:
64,192,27535,1,0,0:0:0:0:
448,192,27766,1,0,0:0:0:0:
320,192,28228,1,0,0:0:0:0:
64,192,28689,128,0,29843:0:0:0:0:
192,192,30304,1,0,0:0:0:0:
64,192,30535,1,0,0:0:0:0:
192,192,30766,128,0,30997:0:0:0:0:
448,192,31228,128,0,31458:0:0:0:0:
320,192,31458,128,0,31689:0:0:0:0:
192,192,31920,128,0,32151:0:0:0:0:
64,192,32381,128,0,32612:0:0:0:0:
448,192,32843,128,0,33074:0:0:0:0:
192,192,33304,128,0,33535:0:0:0:0:
448,192,33997,128,0,34228:0:0:0:0:
320,192,34228,128,0,34458:0:0:0:0:
64,192,34458,128,0,34689:0:0:0:0:
448,192,34920,128,0,35151:0:0:0:0:
320,192,35151,128,0,35381:0:0:0:0:
192,192,35612,128,0,35843:0:0:0:0:
64,192,36074,128,0,36304:0:0:0:0:
448,192,36535,128,0,36766:0:0:0:0:
320,192,36997,128,0,37228:0:0:0:0:
64,192,37689,128,0,37920:0:0:0:0:
192,192,37920,128,0,38151:0:0:0:0:
64,192,38151,1,0,0:0:0:0:
192,192,38381,1,0,0:0:0:0:
320,192,38612,1,0,0:0:0:0:
448,192,38843,1,0,0:0:0:0:
192,192,39304,1,0,0:0:0:0:
64,192,39766,128,0,41843:0:0:0:0:
320,192,41381,1,0,0:0:0:0:
448,192,41612,1,0,0:0:0:0:
192,192,41843,1,0,0:0:0:0:
320,192,42074,1,0,0:0:0:0:
448,192,42304,1,0,0:0:0:0:
64,192,42535,1,0,0:0:0:0:
320,192,42997,1,0,0:0:0:0:
192,192,43458,128,0,45535:0:0:0:0:
448,192,45535,1,0,0:0:0:0:
320,192,45766,1,0,0:0:0:0:
192,192,45997,1,0,0:0:0:0:
64,192,46228,1,0,0:0:0:0:
192,192,46458,128,0,47381:0:0:0:0:
320,192,47381,128,0,48074:0:0:0:0:
448,192,47381,1,0,0:0:0:0:
64,192,47612,1,0,0:0:0:0:
192,192,47843,1,0,0:0:0:0:
448,192,48074,128,0,48766:0:0:0:0:
64,192,48074,1,0,0:0:0:0:
64,192,48766,128,0,49228:0:0:0:0:
192,192,49228,128,0,51074:0:0:0:0:
448,192,49228,1,0,0:0:0:0:
320,192,49458,1,0,0:0:0:0:
64,192,49689,1,0,0:0:0:0:
448,192,49920,1,0,0:0:0:0:
448,192,51074,1,0,0:0:0:0:
320,192,51074,128,0,52458:0:0:0:0:
192,192,51304,1,0,0:0:0:0:
64,192,51535,1,0,0:0:0:0:
192,192,51766,1,0,0:0:0:0:
64,192,51997,128,0,52228:0:0:0:0:
192,192,52228,128,0,52458:0:0:0:0:
448,192,52458,128,0,52689:0:0:0:0:
320,192,52689,128,0,52920:0:0:0:0:
64,192,52920,1,0,0:0:0:0:
192,192,53266,1,0,0:0:0:0:
320,192,53381,1,0,0:0:0:0:
448,192,53612,1,0,0:0:0:0:
192,192,53843,1,0,0:0:0:0:
320,192,54189,1,0,0:0:0:0:
192,192,54535,1,0,0:0:0:0:
64,192,54535,1,0,0:0:0:0:
448,192,54766,1,0,0:0:0:0:
320,192,54766,1,0,0:0:0:0:
320,192,55112,1,0,0:0:0:0:
192,192,55228,1,0,0:0:0:0:
448,192,55458,128,0,56151:0:0:0:0:
64,192,56151,128,0,56381:0:0:0:0:
320,192,56612,128,0,56843:0:0:0:0:
448,192,57074,1,0,0:0:0:0:
192,192,57304,128,0,57535:0:0:0:0:
320,192,58228,1,0,0:0:0:0:
64,192,58458,1,0,0:0:0:0:
192,192,58689,1,0,0:0:0:0:
320,192,58920,1,0,0:0:0:0:
448,192,59035,1,0,0:0:0:0:
320,192,59381,1,0,0:0:0:0:
192,192,59612,1,0,0:0:0:0:
64,192,59728,1,0,0:0:0:0:
448,192,60074,1,0,0:0:0:0:
64,192,60304,1,0,0:0:0:0:
320,192,60651,1,0,0:0:0:0:
448,192,60766,1,0,0:0:0:0:
192,192,60997,1,0,0:0:0:0:
64,192,61458,1,0,0:0:0:0:
320,192,62151,1,0,0:0:0:0:
64,192,62497,1,0,0:0:0:0:
192,192,62612,1,0,0:0:0:0:
448,192,62843,1,0,0:0:0:0:
320,192,63304,1,0,0:0:0:0:
448,192,63997,1,0,0:0:0:0:
192,192,64343,1,0,0:0:0:0:
320,192,64458,1,0,0:0:0:0:
448,192,64689,1,0,0:0:0:0:
320,192,65151,1,0,0:0:0:0:
64,192,65843,1,0,0:0:0:0:
192,192,66189,1,0,0:0:0:0:
320,192,66304,1,0,0:0:0:0:
448,192,66535,1,0,0:0:0:0:
64,192,66997,1,0,0:0:0:0:
448,192,67689,128,0,67804:0:0:0:0:
64,192,67689,1,0,0:0:0:0:
320,192,68035,1,0,0:0:0:0:
192,192,68151,1,0,0:0:0:0:
448,192,68381,128,0,68497:0:0:0:0:
64,192,68843,128,0,68958:0:0:0:0:
192,192,69535,128,0,69651:0:0:0:0:
320,192,69881,1,0,0:0:0:0:
448,192,69997,1,0,0:0:0:0:
192,192,70228,128,0,70343:0:0:0:0:
64,192,70689,128,0,70804:0:0:0:0:
448,192,71381,128,0,71497:0:0:0:0:
64,192,71381,1,0,0:0:0:0:
192,192,71728,128,0,71843:0:0:0:0:
320,192,71843,128,0,71958:0:0:0:0:
448,192,72074,128,0,72189:0:0:0:0:
64,192,72535,128,0,72651:0:0:0:0:
448,192,73228,128,0,73343:0:0:0:0:
64,192,73574,128,0,73689:0:0:0:0:
192,192,73689,128,0,73804:0:0:0:0:
320,192,73920,128,0,74035:0:0:0:0:
64,192,74151,1,0,0:0:0:0:
192,192,74266,1,0,0:0:0:0:
320,192,74381,1,0,0:0:0:0:
192,192,74612,1,0,0:0:0:0:
320,192,74728,1,0,0:0:0:0:
448,192,74843,1,0,0:0:0:0:
320,192,75074,128,0,75997:0:0:0:0:
64,192,75074,1,0,0:0:0:0:
192,192,75997,128,0,76920:0:0:0:0:
64,192,76920,128,0,77843:0:0:0:0:
192,192,78304,128,0,78535:0:0:0:0:
320,192,78535,128,0,78766:0:0:0:0:
64,192,78766,128,0,79458:0:0:0:0:
448,192,79458,128,0,79689:0:0:0:0:
320,192,79920,128,0,80151:0:0:0:0:
192,192,80381,128,0,81535:0:0:0:0:
64,192,81997,128,0,82228:0:0:0:0:
320,192,82228,128,0,82458:0:0:0:0:
192,192,82458,128,0,82689:0:0:0:0:
192,192,82920,128,0,83151:0:0:0:0:
320,192,83151,128,0,83381:0:0:0:0:
448,192,83612,128,0,83843:0:0:0:0:
64,192,84074,128,0,85228:0:0:0:0:
192,192,85689,128,0,85920:0:0:0:0:
320,192,85920,128,0,86151:0:0:0:0:
64,192,86151,1,0,0:0:0:0:
192,192,86381,1,0,0:0:0:0:
320,192,86612,1,0,0:0:0:0:
448,192,86843,128,0,87074:0:0:0:0:
320,192,87304,128,0,87535:0:0:0:0:
192,192,87766,128,0,87997:0:0:0:0:
64,192,88228,1,0,0:0:0:0:
192,192,88689,1,0,0:0:0:0:
448,192,89381,128,0,89612:0:0:0:0:
320,192,89612,128,0,89843:0:0:0:0:
64,192,89843,128,0,90074:0:0:0:0:
192,192,89843,1,4,0:0:0:0:
64,192,90304,128,0,90535:0:0:0:0:
192,192,90535,128,0,90766:0:0:0:0:
320,192,90766,1,4,0:0:0:0:
448,192,90997,128,0,91228:0:0:0:0:
320,192,91458,128,0,92612:0:0:0:0:
64,192,91689,1,4,0:0:0:0:
192,192,93074,128,0,93304:0:0:0:0:
320,192,93304,128,0,93535:0:0:0:0:
448,192,93535,128,0,93766:0:0:0:0:
64,192,93997,128,0,94228:0:0:0:0:
448,192,94228,128,0,94458:0:0:0:0:
320,192,94689,128,0,94920:0:0:0:0:
192,192,95151,128,0,96304:0:0:0:0:
448,192,96766,128,0,96997:0:0:0:0:
320,192,96997,128,0,97228:0:0:0:0:
64,192,97228,128,0,97458:0:0:0:0:
448,192,97689,128,0,97920:0:0:0:0:
320,192,97920,128,0,98151:0:0:0:0:
192,192,98381,128,0,98612:0:0:0:0:
64,192,98843,128,0,99074:0:0:0:0:
448,192,99304,128,0,99535:0:0:0:0:
320,192,99766,128,0,99997:0:0:0:0:
320,192,100458,128,0,100689:0:0:0:0:
192,192,100689,128,0,100920:0:0:0:0:
448,192,100920,128,0,101151:0:0:0:0:
64,192,101381,128,0,101612:0:0:0:0:
192,192,101612,128,0,101843:0:0:0:0:
320,192,102074,128,0,102304:0:0:0:0:
64,192,102535,128,0,102766:0:0:0:0:
320,192,102997,128,0,103228:0:0:0:0:
192,192,103458,128,0,103689:0:0:0:0:
320,192,104151,128,0,104381:0:0:0:0:
192,192,104381,128,0,104612:0:0:0:0:
64,192,104612,128,0,104843:0:0:0:0:
448,192,105074,128,0,105304:0:0:0:0:
320,192,105304,128,0,105535:0:0:0:0:
192,192,105766,128,0,105997:0:0:0:0:
64,192,106228,128,0,106458:0:0:0:0:
448,192,106689,128,0,106920:0:0:0:0:
320,192,107151,128,0,107381:0:0:0:0:
192,192,107843,128,0,108074:0:0:0:0:
64,192,108074,128,0,108304:0:0:0:0:
320,192,108304,128,0,108535:0:0:0:0:
448,192,108535,128,0,108766:0:0:0:0:
320,192,108766,128,0,108997:0:0:0:0:
64,192,108997,128,0,109228:0:0:0:0:
192,192,109458,128,0,109689:0:0:0:0:
320,192,109920,128,0,111535:0:0:0:0:
64,192,111535,128,0,111766:0:0:0:0:
192,192,111766,128,0,111997:0:0:0:0:
448,192,111997,128,0,112228:0:0:0:0:
320,192,112228,128,0,112458:0:0:0:0:
448,192,112458,128,0,112689:0:0:0:0:
64,192,112689,128,0,112920:0:0:0:0:
192,192,113151,128,0,113381:0:0:0:0:
320,192,113612,128,0,115689:0:0:0:0:
