osu file format v14

[General]
AudioFilename: audio.mp3
AudioLeadIn: 2000
PreviewTime: 71143
Countdown: 0
SampleSet: None
StackLeniency: 0.7
Mode: 2
LetterboxInBreaks: 0
WidescreenStoryboard: 1

[Editor]
Bookmarks: 48838
DistanceSpacing: 0.7
BeatDivisor: 4
GridSize: 32
TimelineZoom: 3.699999

[Metadata]
Title:Crescent Moon Island Boss Theme
TitleUnicode:초승달 섬 보스 테마
Artist:Studio EIM
ArtistUnicode:스튜디오EIM
Creator:Emiru
Version:Keaghan
Source:마비노기 영웅전
Tags:vindictus season 2 nexon action mmorpg Jungle Troll's Snake God Lakiora Naver Games OST BGM
BeatmapID:1714006
BeatmapSetID:817364

[Difficulty]
HPDrainRate:5
CircleSize:4.2
OverallDifficulty:9.6
ApproachRate:9.6
SliderMultiplier:2.2
SliderTickRate:2

[Events]
//Background and Video events
0,0,"vindictus.jpg",0,0
//Break Periods
//Storyboard Layer 0 (Background)
//Storyboard Layer 1 (Fail)
//Storyboard Layer 2 (Pass)
//Storyboard Layer 3 (Foreground)
//Storyboard Sound Samples

[TimingPoints]
330,348.837209302326,4,2,10,10,1,0
678,-100,4,2,10,35,0,0
1027,-83.3333333333333,4,2,11,60,0,0
1376,348.837209302326,4,2,10,60,1,0
1376,-83.3333333333333,4,2,10,60,0,0
1724,-100,4,2,10,60,0,0
6957,-83.3333333333333,4,2,10,60,0,0
7044,-100,4,2,10,60,0,0
11841,-83.3333333333333,4,2,10,60,0,0
12189,-100,4,2,10,60,0,0
12538,-100,4,2,10,70,0,0
12626,-100,4,2,10,70,0,0
18120,-100,4,2,10,70,0,0
18207,-100,4,2,10,70,0,0
22306,-83.3333333333333,4,2,10,70,0,0
22393,-100,4,2,10,70,0,0
23701,-83.3333333333333,4,2,10,80,0,1
23788,-100,4,2,10,80,0,1
26492,-83.3333333333333,4,2,10,80,0,1
26841,-100,4,2,10,80,0,1
29282,-83.3333333333333,4,2,10,80,0,1
29631,-100,4,2,10,80,0,1
32073,-83.3333333333333,4,2,10,80,0,1
32771,-100,4,2,10,80,0,1
34166,-83.3333333333333,4,2,10,80,0,1
34864,-83.3333333333333,4,2,10,80,0,1
34951,-83.3333333333333,4,2,10,80,0,1
35562,-100,4,2,10,80,0,1
37655,-83.3333333333333,4,2,10,80,0,1
37742,-100,4,2,10,80,0,1
40445,-83.3333333333333,4,2,10,80,0,1
40532,-100,4,2,10,80,0,1
43236,-83.3333333333333,4,2,10,80,0,1
43323,-100,4,2,10,80,0,1
47248,-100,4,2,10,80,0,0
48469,-55.5555555555556,4,2,11,80,0,0
48817,-45.4545454545455,4,2,11,80,0,1
48905,-100,4,2,11,80,0,0
53003,-83.3333333333333,4,2,11,80,0,0
53091,-100,4,2,11,80,0,0
54399,-100,4,2,11,80,0,0
59980,-83.3333333333333,4,2,11,80,0,0
60678,-100,4,2,11,80,0,0
65562,-83.3333333333333,4,2,11,80,0,0
66259,-100,4,2,11,80,0,0
71143,-83.3333333333333,4,2,11,80,0,1
71230,-100,4,2,10,80,0,1
73934,-83.3333333333333,4,2,10,80,0,1
74108,-83.3333333333333,4,2,10,80,0,1
74282,-83.3333333333333,4,2,10,80,0,1
74458,-83.3333333333333,4,2,10,80,0,1
74631,-83.3333333333333,4,2,10,80,0,1
74806,-83.3333333333333,4,2,10,80,0,1
74980,-83.3333333333333,4,2,10,80,0,1
75155,-83.3333333333333,4,2,10,80,0,1
75329,-83.3333333333333,4,2,10,80,0,1
75503,-83.3333333333333,4,2,10,80,0,1
75678,-83.3333333333333,4,2,10,80,0,1
75852,-83.3333333333333,4,2,10,80,0,1
76027,-83.3333333333333,4,2,10,80,0,1
76201,-83.3333333333333,4,2,10,80,0,1
76376,-83.3333333333333,4,2,10,80,0,1
76550,-83.3333333333333,4,2,10,80,0,1
76724,-45.4545454545455,4,2,10,80,0,1
77073,-83.3333333333333,4,2,10,80,0,1
77422,-100,4,2,10,80,0,1
78817,-83.3333333333333,4,2,10,80,0,1
81957,-100,4,2,10,80,0,0
82306,-100,4,2,10,80,0,1
85096,-100,4,2,10,80,0,1
85794,-100,4,2,10,80,0,1
86492,-100,4,2,10,80,0,1
87189,-100,4,2,10,80,0,1
87887,-83.3333333333333,4,2,10,80,0,1
88236,-83.3333333333333,4,2,10,80,0,1
89282,-100,4,2,10,80,0,1
89370,-100,4,2,10,80,0,1
90155,-83.3333333333333,4,2,10,80,0,1
92771,-83.3333333333333,4,2,10,80,0,1
93120,-83.3333333333333,4,2,10,80,0,0
93469,-100,4,2,10,80,0,1
93643,-100,4,2,10,80,0,1
95562,-83.3333333333333,4,2,10,80,0,1
95736,-83.3333333333333,4,2,10,80,0,1
96434,-100,4,2,10,80,0,1
99224,-100,4,2,10,80,0,1
101841,-83.3333333333333,4,2,10,80,0,1
102015,-100,4,2,10,80,0,1
103934,-100,4,2,10,80,0,1
104806,-100,4,2,10,80,0,1
105678,-100,4,2,10,80,0,1
115096,-100,4,2,10,80,0,1
115794,-100,4,2,10,80,0,0
117189,-100,4,2,10,70,0,0
118585,-100,4,2,10,60,0,0
119980,-100,4,2,10,50,0,0
121376,-100,4,2,10,40,0,0
122073,-100,4,2,10,30,0,0
123120,-100,4,2,10,20,0,0
124166,-100,4,2,10,10,0,0
126782,-100,4,2,10,5,0,0

[Colours]
Combo1 : 233,233,233
Combo2 : 2,94,185
Combo3 : 255,223,0
Combo4 : 0,128,0

[HitObjects]
67,50,678,5,0,0:0:0:0:
88,52,707,1,0,0:0:0:0:
60,70,736,1,0,0:0:0:0:
88,77,766,1,0,0:0:0:0:
51,98,795,1,0,0:0:0:0:
91,103,824,1,0,0:0:0:0:
45,123,853,1,0,0:0:0:0:
91,131,882,1,0,0:0:0:0:
40,153,911,1,0,0:0:0:0:
91,163,940,1,0,0:0:0:0:
33,181,969,1,0,0:0:0:0:
92,189,998,1,0,0:0:0:0:
26,227,1027,5,2,0:0:0:0:
104,239,1114,1,0,0:0:0:0:
388,135,1202,2,0,L|287:133,1,65.9999979858399,2|0,0:0|0:0,0:0:0:0:
40,36,1376,6,0,L|257:39,1,197.99999395752,8|0,0:0|0:0,0:0:0:0:
454,221,1724,1,2,0:0:0:0:
311,190,1899,1,0,0:1:0:0:
173,160,2073,1,0,0:0:0:0:
465,88,2248,1,0,0:0:0:0:
300,90,2422,5,2,0:0:0:0:
288,278,2596,1,0,0:0:0:0:
460,196,2771,2,0,L|467:340,1,110,8|0,0:0|0:0,0:0:0:0:
299,137,3120,2,0,L|286:-7,1,110,2|0,0:0|0:0,0:0:0:0:
126,190,3469,2,0,L|110:328,1,110,0|0,0:0|0:0,0:0:0:0:
267,188,3817,6,0,L|330:183,1,55,2|0,0:0|0:0,0:0:0:0:
492,122,3992,2,0,L|497:57,1,55,2|0,0:0|0:0,0:0:0:0:
221,66,4166,6,0,L|88:58,1,110,8|0,0:0|0:0,0:0:0:0:
269,168,4515,2,0,L|405:177,1,110,2|0,0:0|0:0,0:0:0:0:
210,220,4864,2,0,L|201:341,1,110,0|0,0:0|0:0,0:0:0:0:
389,110,5213,2,0,L|334:103,1,55,2|0,0:0|0:0,0:0:0:0:
130,96,5387,2,0,L|121:157,1,55,0|0,0:0|0:0,0:0:0:0:
448,315,5562,6,0,L|338:307,1,110,8|0,0:0|0:0,0:0:0:0:
185,199,5911,2,0,L|294:205,1,110,2|0,0:0|0:0,0:0:0:0:
443,95,6259,2,0,L|325:90,1,110,0|0,0:0|0:0,0:0:0:0:
33,103,6521,6,0,L|26:159,1,55,0|2,0:0|0:0,0:0:0:0:
211,217,6695,2,0,L|275:221,2,55,0|2|0,0:0|0:0|0:0,0:0:0:0:
19,316,6957,2,0,L|264:324,1,230.99999295044,8|0,0:0|0:0,0:0:0:0:
274,311,7306,6,0,L|243:326,6,27.5,2|2|2|2|2|2|2,0:0|0:0|0:0|0:0|0:0|0:0|0:0,0:0:0:0:
439,112,7655,2,0,L|489:115,2,27.5,2|2|2,0:0|0:0|0:0,0:0:0:0:
98,34,7829,2,0,L|320:42,1,220,4|0,0:0|0:0,0:0:0:0:
462,189,8352,5,8,0:0:0:0:
302,224,8527,1,0,0:0:0:0:
293,75,8701,5,2,0:0:0:0:
450,51,8876,1,0,0:0:0:0:
292,18,9050,5,8,0:0:0:0:
138,51,9225,1,0,0:0:0:0:
290,132,9399,2,0,L|361:137,1,55,2|0,0:0|0:0,0:0:0:0:
85,188,9573,2,0,L|139:192,1,55,2|0,0:0|0:0,0:0:0:0:
370,115,9748,6,0,L|359:245,1,110,8|0,0:0|0:0,0:0:0:0:
187,177,10096,2,0,L|193:293,1,110,8|0,0:3|0:0,0:0:0:0:
364,37,10445,2,0,L|371:165,1,110,0|0,0:0|0:0,0:0:0:0:
184,31,10794,6,0,L|181:91,1,55,2|0,0:0|0:0,0:0:0:0:
266,150,10969,2,0,L|336:157,1,55,2|0,0:0|0:0,0:0:0:0:
414,193,11143,2,0,L|416:259,1,55,8|0,0:0|0:0,0:0:0:0:
194,219,11317,6,0,L|198:177,6,27.5,8|0|0|0|8|0|0,0:0|0:0|0:0|0:0|0:0|0:0|0:0,0:0:0:0:
344,87,11666,2,0,L|405:86,1,55,8|0,0:0|0:0,0:0:0:0:
110,57,11841,6,0,L|104:96,9,21.9999993286133,8|0|0|0|0|0|0|0|0|0,0:0|0:0|0:0|0:0|0:0|0:0|0:0|0:0|0:0|0:0,0:0:0:0:
348,34,12189,2,0,L|277:32,1,55,8|8,0:3|0:3,0:0:0:0:
68,147,12364,2,0,L|133:152,1,55,8|8,0:3|0:3,0:0:0:0:
455,295,12538,6,0,L|300:283,1,110,12|0,0:0|0:0,0:0:0:0:
193,277,12887,1,2,0:0:0:0:
37,219,13062,1,0,0:0:0:0:
190,80,13236,2,0,L|196:221,1,110,8|0,0:0|0:0,0:0:0:0:
353,79,13585,1,2,0:0:0:0:
183,21,13759,1,0,0:0:0:0:
349,22,13934,6,0,L|194:16,1,110,8|0,0:0|0:0,0:0:0:0:
44,69,14282,2,0,L|174:76,1,110,2|0,0:0|0:0,0:0:0:0:
350,113,14631,2,0,L|158:107,1,165,8|0,0:0|0:0,0:0:0:0:
10,225,14980,6,0,L|82:231,1,55,10|0,0:0|0:0,0:0:0:0:
320,246,15155,2,0,L|330:183,1,55,10|0,0:0|0:0,0:0:0:0:
156,36,15329,2,0,L|146:187,1,110,4|0,0:0|0:0,0:0:0:0:
312,179,15678,6,0,L|306:253,1,55,2|0,0:0|0:0,0:0:0:0:
25,295,15852,2,0,L|80:300,1,55,0|0,0:0|0:0,0:0:0:0:
244,74,16027,2,0,L|383:78,1,110,8|0,0:0|0:0,0:0:0:0:
214,201,16376,2,0,L|208:259,1,55,2|0,0:0|0:0,0:0:0:0:
453,219,16550,6,0,L|463:86,1,110,0|8,0:0|0:0,0:0:0:0:
281,38,16899,2,0,L|270:156,1,110,0|2,0:0|0:0,0:0:0:0:
120,171,17248,2,0,L|125:238,1,55,0|0,0:0|0:0,0:0:0:0:
480,313,17422,2,0,L|242:307,1,220,8|10,0:0|0:0,0:0:0:0:
189,257,17858,1,0,0:0:0:0:
388,161,17945,2,0,L|470:165,1,55,8|0,0:0|0:0,0:0:0:0:
227,98,18120,6,0,L|66:95,1,110,4|0,0:0|0:0,0:0:0:0:
278,229,18469,2,0,L|392:235,1,110,2|0,0:0|0:0,0:0:0:0:
131,120,18817,2,0,L|11:114,2,110,8|0|2,0:0|0:0|0:0,0:0:0:0:
317,47,19341,1,0,0:0:0:0:
132,208,19515,5,8,0:0:0:0:
126,262,19602,1,0,0:0:0:0:
120,317,19689,1,0,0:0:0:0:
313,195,19864,1,2,0:0:0:0:
140,119,20038,1,0,0:0:0:0:
495,333,20213,6,0,L|259:328,1,220,8|10,0:0|0:0,0:0:0:0:
220,280,20649,1,0,0:0:0:0:
448,138,20736,2,0,L|452:216,1,55,8|0,0:0|0:0,0:0:0:0:
125,99,20910,6,0,L|116:245,1,110,4|0,0:0|0:0,0:0:0:0:
276,78,21259,2,0,L|278:194,1,110,2|0,0:0|0:0,0:0:0:0:
21,196,21608,6,0,L|24:234,6,27.5,8|0|0|0|0|0|0,0:0|0:0|0:0|0:0|0:0|0:0|0:0,0:0:0:0:
265,149,21957,2,0,L|408:157,1,110,2|0,0:0|0:0,0:0:0:0:
425,220,22219,1,0,0:0:0:0:
171,70,22306,2,0,L|24:69,1,131.99999597168,8|0,0:0|0:0,0:0:0:0:
200,209,22655,2,0,L|329:212,1,110,2|0,0:0|0:0,0:0:0:0:
485,67,23003,6,0,L|478:131,1,55,10|0,0:0|0:0,0:0:0:0:
387,182,23178,2,0,L|321:189,1,55,8|0,0:0|0:0,0:0:0:0:
218,183,23352,2,0,L|207:107,1,55,10|0,0:0|0:0,0:0:0:0:
475,278,23527,2,0,L|391:274,1,55,8|0,0:0|0:0,0:0:0:0:
26,99,23701,6,0,L|238:97,1,197.99999395752,4|0,0:0|0:0,0:0:0:0:
472,95,24050,2,0,L|479:252,1,110,8|0,0:0|0:0,0:0:0:0:
195,179,24399,5,0,0:0:0:0:
31,178,24573,1,0,0:0:0:0:
198,262,24748,1,8,0:0:0:0:
27,260,24922,1,0,0:0:0:0:
317,179,25096,5,0,0:0:0:0:
481,178,25270,1,0,0:0:0:0:
314,262,25445,1,8,0:0:0:0:
485,260,25619,1,0,0:0:0:0:
195,179,25794,5,0,0:0:0:0:
31,178,25968,1,0,0:0:0:0:
198,262,26143,1,8,0:0:0:0:
27,260,26317,1,8,0:0:0:0:
494,253,26492,6,0,L|280:251,1,197.99999395752,4|0,0:0|0:0,0:0:0:0:
32,208,26841,2,0,L|165:205,1,110,8|0,0:0|0:0,0:0:0:0:
484,99,27189,5,0,0:0:0:0:
339,131,27363,1,0,0:0:0:0:
173,131,27538,1,8,0:0:0:0:
28,99,27712,1,0,0:0:0:0:
484,99,27887,5,0,0:0:0:0:
339,131,28061,1,0,0:0:0:0:
173,131,28236,1,8,0:0:0:0:
28,99,28410,1,0,0:0:0:0:
484,99,28585,5,0,0:0:0:0:
339,131,28759,1,0,0:0:0:0:
173,131,28934,1,8,0:0:0:0:
28,99,29108,1,8,0:0:0:0:
494,253,29282,6,0,L|280:251,1,197.99999395752,4|0,0:0|0:0,0:0:0:0:
32,208,29631,2,0,L|165:205,1,110,8|0,0:0|0:0,0:0:0:0:
485,260,29980,5,0,0:0:0:0:
314,262,30154,1,0,0:0:0:0:
481,178,30329,1,8,0:0:0:0:
317,179,30503,1,0,0:0:0:0:
27,260,30678,5,0,0:0:0:0:
198,262,30852,1,0,0:0:0:0:
31,178,31027,1,8,0:0:0:0:
195,179,31201,1,0,0:0:0:0:
485,260,31376,5,0,0:0:0:0:
314,262,31550,1,0,0:0:0:0:
481,178,31725,1,8,0:0:0:0:
317,179,31899,1,8,0:0:0:0:
23,152,32073,6,0,L|236:156,1,197.99999395752,4|0,0:0|0:0,0:0:0:0:
489,152,32422,2,0,L|276:156,1,197.99999395752,8|0,0:0|0:0,0:0:0:0:
24,78,32771,2,0,L|121:83,1,55,0|0,0:0|0:0,0:0:0:0:
410,79,32945,5,0,0:0:0:0:
256,151,33120,1,8,0:0:0:0:
102,79,33294,1,0,0:0:0:0:
397,206,33469,6,0,L|392:266,1,55,0|0,0:0|0:0,0:0:0:0:
289,286,33643,2,0,L|228:284,1,55,0|0,0:0|0:0,0:0:0:0:
119,260,33817,2,0,L|115:206,1,55,8|0,0:0|0:0,0:0:0:0:
236,212,33992,2,0,L|308:214,1,55,0|0,0:0|0:0,0:0:0:0:
494,85,34166,6,0,L|330:81,1,131.99999597168,8|8,0:0|0:0,0:0:0:0:
99,48,34428,2,0,L|14:44,1,65.9999979858399,0|8,0:0|0:0,0:0:0:0:
184,119,34602,1,0,0:0:0:0:
260,130,34689,1,8,0:0:0:0:
332,139,34777,1,0,0:0:0:0:
493,251,34864,6,0,L|248:245,1,197.99999395752,4|0,0:0|0:0,0:0:0:0:
19,251,35213,2,0,L|264:245,1,197.99999395752,8|0,0:0|0:0,0:0:0:0:
410,79,35562,5,0,0:0:0:0:
256,151,35737,1,0,0:0:0:0:
102,79,35911,1,8,0:0:0:0:
473,198,36085,6,0,L|418:194,1,55,0|0,0:0|0:0,0:0:0:0:
204,262,36259,2,0,L|258:263,1,55,0|0,0:0|0:0,0:0:0:0:
487,63,36434,2,0,L|344:71,1,110,0|8,0:0|0:0,0:0:0:0:
119,185,36782,2,0,L|213:191,1,55,0|0,0:0|0:0,0:0:0:0:
412,210,36957,2,0,L|352:213,1,55,0|0,0:0|0:0,0:0:0:0:
102,79,37131,5,0,0:0:0:0:
256,151,37306,1,8,0:0:0:0:
410,79,37480,1,8,0:0:0:0:
11,307,37655,6,0,L|224:302,1,197.99999395752,4|0,0:0|0:0,0:0:0:0:
501,307,38003,2,0,L|351:303,1,110,8|0,0:0|0:0,0:0:0:0:
1,75,38352,5,0,0:0:0:0:
152,105,38527,1,0,0:0:0:0:
299,79,38701,1,8,0:0:0:0:
151,177,38876,1,0,0:0:0:0:
511,75,39050,5,0,0:0:0:0:
360,105,39225,1,0,0:0:0:0:
213,79,39399,1,8,0:0:0:0:
361,177,39574,1,0,0:0:0:0:
1,75,39748,5,0,0:0:0:0:
152,105,39923,1,0,0:0:0:0:
299,79,40097,1,8,0:0:0:0:
151,177,40272,1,8,0:0:0:0:
494,307,40445,6,0,L|250:301,1,197.99999395752,4|0,0:0|0:0,0:0:0:0:
18,307,40794,2,0,L|174:302,1,110,8|0,0:0|0:0,0:0:0:0:
484,99,41143,5,0,0:0:0:0:
339,131,41317,1,0,0:0:0:0:
173,131,41492,1,8,0:0:0:0:
28,99,41666,1,0,0:0:0:0:
484,176,41841,5,0,0:0:0:0:
339,208,42015,1,0,0:0:0:0:
173,208,42190,1,8,0:0:0:0:
28,176,42364,1,0,0:0:0:0:
484,266,42538,5,0,0:0:0:0:
339,298,42712,1,0,0:0:0:0:
173,298,42887,1,8,0:0:0:0:
28,266,43061,1,8,0:0:0:0:
489,100,43236,6,0,L|264:94,1,197.99999395752,4|0,0:0|0:0,0:0:0:0:
23,100,43585,2,0,L|221:95,1,165,8|0,0:0|0:0,0:0:0:0:
484,99,43934,5,4,0:0:0:0:
339,131,44108,1,0,0:0:0:0:
173,131,44283,1,8,0:0:0:0:
339,131,44457,1,0,0:0:0:0:
28,99,44631,5,4,0:0:0:0:
173,131,44805,1,0,0:0:0:0:
339,131,44980,1,8,0:0:0:0:
173,131,45154,1,0,0:0:0:0:
460,55,45329,2,0,L|405:56,1,55,4|0,0:0|0:0,0:0:0:0:
23,115,45503,5,0,0:0:0:0:
109,80,45590,1,0,0:0:0:0:
190,49,45678,1,8,0:0:0:0:
489,115,45765,5,0,0:0:0:0:
403,80,45852,1,0,0:0:0:0:
322,49,45940,1,0,0:0:0:0:
39,54,46027,6,0,L|26:128,1,55,12|0,0:0|0:0,0:0:0:0:
186,133,46201,2,0,L|175:218,1,55,8|0,0:0|0:0,0:0:0:0:
334,187,46376,2,0,L|326:133,1,55,8|0,0:0|0:0,0:0:0:0:
483,108,46550,2,0,L|473:54,1,55,8|0,0:0|0:0,0:0:0:0:
96,164,46724,6,0,L|23:170,1,55,12|0,0:0|0:0,0:0:0:0:
292,44,46899,2,0,L|206:54,1,55,8|0,0:0|0:0,0:0:0:0:
471,215,47073,2,0,L|416:220,1,55,8|0,0:0|0:0,0:0:0:0:
39,75,47248,1,4,0:0:0:0:
256,192,47335,12,0,48120,0:0:0:0:
475,52,48469,6,0,L|469:132,6,49.4999984893799,2|0|2|0|2|0|2,0:0|0:0|0:0|0:0|0:0|0:0|0:0,0:0:0:0:
255,183,48817,2,0,B|12:194|12:194|276:184,1,484.000014770508,4|0,0:0|0:0,0:0:0:0:
487,43,49253,2,0,L|492:118,1,55,0|0,0:0|0:0,0:0:0:0:
316,135,49428,2,0,L|240:140,1,55,0|8,0:0|0:0,0:0:0:0:
56,101,49602,6,0,L|127:96,1,55,0|0,0:0|0:0,0:0:0:0:
329,77,49777,2,0,L|340:139,1,55,0|0,0:0|0:0,0:0:0:0:
159,223,49951,2,0,L|152:285,1,55,0|0,0:0|0:0,0:0:0:0:
328,302,50126,2,0,L|399:296,1,55,0|8,0:0|0:0,0:0:0:0:
192,133,50300,6,0,L|118:139,1,55,0|0,0:0|0:0,0:0:0:0:
309,165,50474,2,0,L|315:227,1,55,0|0,0:0|0:0,0:0:0:0:
476,182,50649,2,0,L|481:113,1,55,0|0,0:0|0:0,0:0:0:0:
242,37,50823,2,0,L|307:34,1,55,0|8,0:0|0:0,0:0:0:0:
496,293,50998,6,0,L|436:298,1,55,0|0,0:0|0:0,0:0:0:0:
261,262,51172,2,0,L|245:195,1,55,0|0,0:0|0:0,0:0:0:0:
419,76,51346,2,0,L|489:71,1,55,0|0,0:0|0:0,0:0:0:0:
263,107,51521,2,0,L|195:113,1,55,0|8,0:0|0:0,0:0:0:0:
26,307,51695,6,0,L|112:299,1,55,0|0,0:0|0:0,0:0:0:0:
270,323,51870,2,0,L|278:255,1,55,0|0,0:0|0:0,0:0:0:0:
114,78,52044,2,0,L|106:148,1,55,0|0,0:0|0:0,0:0:0:0:
309,212,52219,2,0,L|372:218,1,55,0|8,0:0|0:0,0:0:0:0:
161,257,52393,6,0,L|101:252,1,55,0|0,0:0|0:0,0:0:0:0:
327,33,52567,2,0,L|316:97,1,55,0|0,0:0|0:0,0:0:0:0:
96,152,52742,2,0,L|86:215,1,55,0|0,0:0|0:0,0:0:0:0:
255,309,52916,2,0,L|314:305,1,55,0|8,0:0|0:0,0:0:0:0:
472,103,53091,6,0,L|480:179,1,55,0|0,0:0|0:0,0:0:0:0:
286,61,53265,2,0,L|226:60,1,55,0|0,0:0|0:0,0:0:0:0:
438,29,53439,2,0,L|496:27,1,55,0|0,0:0|0:0,0:0:0:0:
281,143,53614,2,0,L|278:203,1,55,0|8,0:0|0:0,0:0:0:0:
49,285,53788,6,0,L|43:345,1,55,0|0,0:0|0:0,0:0:0:0:
237,256,53963,2,0,L|301:252,1,55,0|0,0:0|0:0,0:0:0:0:
107,110,54137,2,0,L|37:106,1,55,0|0,0:0|0:0,0:0:0:0:
256,133,54312,2,0,L|265:202,1,55,0|8,0:0|0:0,0:0:0:0:
65,307,54486,6,0,L|60:240,1,55,0|0,0:0|0:0,0:0:0:0:
245,289,54660,2,0,L|299:285,1,55,0|0,0:0|0:0,0:0:0:0:
486,96,54835,2,0,L|401:104,1,55,0|0,0:0|0:0,0:0:0:0:
213,38,55009,2,0,L|206:103,1,55,0|8,0:0|0:0,0:0:0:0:
383,249,55184,6,0,L|392:182,1,55,0|0,0:0|0:0,0:0:0:0:
200,131,55358,2,0,L|136:125,1,55,0|0,0:0|0:0,0:0:0:0:
321,101,55532,2,0,L|387:100,1,55,0|0,0:0|0:0,0:0:0:0:
125,51,55707,2,0,L|131:112,1,55,0|8,0:0|0:0,0:0:0:0:
327,278,55881,6,0,L|341:213,1,55,0|0,0:0|0:0,0:0:0:0:
130,209,56056,2,0,L|209:201,1,55,0|0,0:0|0:0,0:0:0:0:
466,142,56230,2,0,L|385:150,1,55,0|0,0:0|0:0,0:0:0:0:
208,67,56405,2,0,L|204:144,1,55,0|8,0:0|0:0,0:0:0:0:
356,229,56579,6,0,L|426:232,1,55,0|0,0:0|0:0,0:0:0:0:
217,289,56753,2,0,L|151:294,1,55,0|0,0:0|0:0,0:0:0:0:
364,137,56928,2,0,L|371:66,1,55,0|0,0:0|0:0,0:0:0:0:
216,31,57102,2,0,L|151:27,1,55,0|8,0:0|0:0,0:0:0:0:
357,48,57277,6,0,L|421:44,1,55,0|0,0:0|0:0,0:0:0:0:
248,123,57451,2,0,L|238:182,1,55,0|0,0:0|0:0,0:0:0:0:
29,219,57626,2,0,L|34:286,1,55,0|0,0:0|0:0,0:0:0:0:
217,317,57800,2,0,L|278:316,1,55,0|8,0:0|0:0,0:0:0:0:
86,94,57974,6,0,L|20:91,1,55,0|0,0:0|0:0,0:0:0:0:
242,32,58149,2,0,L|247:94,1,55,0|0,0:0|0:0,0:0:0:0:
420,196,58323,2,0,L|428:262,1,55,0|0,0:0|0:0,0:0:0:0:
245,139,58498,2,0,L|162:141,1,55,0|8,0:0|0:0,0:0:0:0:
17,278,58672,6,0,L|95:274,1,55,0|0,0:0|0:0,0:0:0:0:
267,294,58846,2,0,L|278:230,1,55,0|0,0:0|0:0,0:0:0:0:
112,135,59021,2,0,L|41:132,1,55,0|0,0:0|0:0,0:0:0:0:
247,75,59195,2,0,L|305:72,1,55,0|8,0:0|0:0,0:0:0:0:
447,151,59370,2,0,L|510:148,2,55,0|0|0,0:0|0:0|0:0,0:0:0:0:
183,39,59631,6,0,L|192:80,6,27.5,8|0|0|0|8|0|0,0:0|0:0|0:0|0:0|0:0|0:0|0:0,0:0:0:0:
483,53,59980,6,0,L|278:60,1,197.99999395752,4|0,0:0|0:0,0:0:0:0:
29,53,60329,2,0,L|234:60,1,197.99999395752,8|0,0:0|0:0,0:0:0:0:
479,146,60678,6,0,L|475:210,1,55,0|0,0:0|0:0,0:0:0:0:
292,160,60852,2,0,L|229:156,1,55,0|0,0:0|0:0,0:0:0:0:
35,154,61027,2,0,L|25:95,1,55,8|0,0:0|0:0,0:0:0:0:
223,57,61201,2,0,L|307:54,1,55,8|0,0:0|0:0,0:0:0:0:
67,253,61376,6,0,L|5:255,1,55,2|0,0:0|0:0,0:0:0:0:
230,258,61550,2,0,L|238:183,1,55,0|0,0:0|0:0,0:0:0:0:
435,89,61724,2,0,L|441:154,1,55,8|0,0:0|0:0,0:0:0:0:
207,122,61899,2,0,L|275:117,1,55,0|0,0:0|0:0,0:0:0:0:
486,249,62073,6,0,L|418:252,1,55,0|0,0:0|0:0,0:0:0:0:
247,333,62248,2,0,L|241:275,1,55,0|0,0:0|0:0,0:0:0:0:
79,197,62422,2,0,L|73:129,1,55,8|0,0:0|0:0,0:0:0:0:
301,67,62596,2,0,L|219:69,1,55,8|0,0:0|0:0,0:0:0:0:
24,56,62771,2,0,L|97:52,1,55,2|0,0:0|0:0,0:0:0:0:
313,197,62945,6,0,L|317:238,6,27.5,0|0|0|0|8|0|0,0:0|0:0|0:0|0:0|0:0|0:0|0:0,0:0:0:0:
108,91,63294,6,0,L|111:157,1,55,0|0,0:0|0:0,0:0:0:0:
297,94,63469,2,0,L|357:92,1,55,0|0,0:0|0:0,0:0:0:0:
168,253,63643,2,0,L|107:257,1,55,0|0,0:0|0:0,0:0:0:0:
331,308,63817,2,0,L|335:241,1,55,8|0,0:0|0:0,0:0:0:0:
144,42,63992,6,0,L|137:110,1,55,8|0,0:0|0:0,0:0:0:0:
333,179,64166,2,0,L|261:171,1,55,2|0,0:0|0:0,0:0:0:0:
23,248,64341,2,0,L|84:257,1,55,0|0,0:0|0:0,0:0:0:0:
247,319,64515,2,0,L|258:253,1,55,8|0,0:0|0:0,0:0:0:0:
462,99,64689,6,0,L|452:159,1,55,0|0,0:0|0:0,0:0:0:0:
277,54,64864,2,0,L|213:52,1,55,0|0,0:0|0:0,0:0:0:0:
20,162,65038,2,0,L|91:154,1,55,0|0,0:0|0:0,0:0:0:0:
252,161,65213,2,0,L|257:219,1,55,8|0,0:0|0:0,0:0:0:0:
66,254,65387,2,0,L|61:315,1,55,8|0,0:0|0:0,0:0:0:0:
477,66,65562,6,0,L|270:72,1,197.99999395752,2|0,0:0|0:0,0:0:0:0:
35,66,65910,2,0,L|242:72,1,197.99999395752,4|0,0:0|0:0,0:0:0:0:
467,137,66259,6,0,L|509:132,6,27.5,0|0|0|0|0|0|0,0:0|0:0|0:0|0:0|0:0|0:0|0:0,0:0:0:0:
288,68,66608,6,0,L|221:72,1,55,8|0,0:0|0:0,0:0:0:0:
431,234,66782,2,0,L|491:231,1,55,8|0,0:0|0:0,0:0:0:0:
263,266,66957,2,0,L|255:207,1,55,2|0,0:0|0:0,0:0:0:0:
36,48,67131,2,0,L|45:107,1,55,0|0,0:0|0:0,0:0:0:0:
284,133,67306,6,0,L|210:138,1,55,8|0,0:0|0:0,0:0:0:0:
39,241,67480,2,0,L|105:234,1,55,0|0,0:0|0:0,0:0:0:0:
277,225,67655,2,0,L|281:160,1,55,0|0,0:0|0:0,0:0:0:0:
458,82,67829,2,0,L|463:142,1,55,0|0,0:0|0:0,0:0:0:0:
250,34,68003,6,0,L|245:77,6,27.5,8|0|0|0|8|0|0,0:0|0:0|0:0|0:0|0:0|0:0|0:0,0:0:0:0:
471,261,68352,6,0,L|398:265,1,55,2|0,0:0|0:0,0:0:0:0:
200,203,68527,2,0,L|278:201,1,55,0|0,0:0|0:0,0:0:0:0:
471,71,68701,2,0,L|469:137,1,55,8|0,0:0|0:0,0:0:0:0:
286,97,68876,2,0,L|228:102,1,55,0|0,0:0|0:0,0:0:0:0:
28,157,69050,6,0,L|34:213,1,55,0|0,0:0|0:0,0:0:0:0:
225,272,69224,2,0,L|283:271,1,55,0|0,0:0|0:0,0:0:0:0:
70,344,69399,2,0,L|14:341,1,55,8|0,0:0|0:0,0:0:0:0:
214,43,69573,2,0,L|217:110,1,55,8|0,0:0|0:0,0:0:0:0:
389,251,69748,6,0,L|393:311,1,55,2|0,0:0|0:0,0:0:0:0:
156,223,69922,2,0,L|230:217,1,55,0|0,0:0|0:0,0:0:0:0:
420,129,70096,2,0,L|358:132,1,55,8|0,0:0|0:0,0:0:0:0:
157,142,70271,2,0,L|153:77,1,55,0|0,0:0|0:0,0:0:0:0:
346,265,70445,6,0,L|349:200,1,55,0|0,0:0|0:0,0:0:0:0:
98,317,70620,2,0,L|176:305,1,55,0|0,0:0|0:0,0:0:0:0:
368,79,70794,2,0,L|444:69,1,55,8|0,0:0|0:0,0:0:0:0:
242,41,70969,2,0,L|177:40,1,55,8|0,0:0|0:0,0:0:0:0:
473,162,71143,6,0,L|324:167,1,131.99999597168,4|0,0:0|0:0,0:0:0:0:
0,249,71492,1,8,0:0:0:0:
408,89,71841,5,0,0:0:0:0:
252,153,72015,1,0,0:0:0:0:
104,89,72189,1,8,0:0:0:0:
411,223,72364,1,0,0:0:0:0:
105,260,72538,6,0,L|183:267,1,55,0|0,0:0|0:0,0:0:0:0:
408,305,72713,2,0,L|332:313,1,55,0|0,0:0|0:0,0:0:0:0:
118,173,72887,1,8,0:0:0:0:
379,195,73236,5,0,0:0:0:0:
133,195,73410,1,0,0:0:0:0:
438,119,73585,1,8,0:0:0:0:
74,119,73759,1,0,0:0:0:0:
461,95,73934,6,0,L|396:91,1,65.9999979858399,4|0,0:0|0:0,0:0:0:0:
145,121,74108,2,0,L|214:127,1,65.9999979858399,2|0,0:0|0:0,0:0:0:0:
408,232,74282,2,0,L|342:227,1,65.9999979858399,10|0,0:0|0:0,0:0:0:0:
103,229,74457,2,0,L|181:233,1,65.9999979858399,2|0,0:0|0:0,0:0:0:0:
488,26,74631,6,0,L|494:124,1,65.9999979858399,4|0,0:0|0:0,0:0:0:0:
335,55,74806,2,0,L|338:134,1,65.9999979858399,2|0,0:0|0:0,0:0:0:0:
172,120,74980,2,0,L|177:55,1,65.9999979858399,10|0,0:0|0:0,0:0:0:0:
19,91,75155,2,0,L|24:26,1,65.9999979858399,2|0,0:0|0:0,0:0:0:0:
295,118,75329,6,0,L|202:124,1,65.9999979858399,4|0,0:0|0:0,0:0:0:0:
21,212,75503,2,0,L|114:203,1,65.9999979858399,2|0,0:0|0:0,0:0:0:0:
360,211,75677,2,0,L|262:218,1,65.9999979858399,10|0,0:0|0:0,0:0:0:0:
89,292,75852,2,0,L|190:285,1,65.9999979858399,2|0,0:0|0:0,0:0:0:0:
488,26,76027,6,0,L|494:115,1,65.9999979858399,4|0,0:0|0:0,0:0:0:0:
335,55,76202,2,0,L|337:134,1,65.9999979858399,2|0,0:0|0:0,0:0:0:0:
175,120,76376,2,0,L|177:55,1,65.9999979858399,10|0,0:0|0:0,0:0:0:0:
18,91,76551,2,0,L|24:26,1,65.9999979858399,10|8,0:0|0:0,0:0:0:0:
491,324,76724,6,0,L|219:318,1,242.000007385254,4|0,0:0|0:0,0:0:0:0:
15,102,77073,2,0,L|222:103,1,197.99999395752,8|0,0:0|0:0,0:0:0:0:
481,87,77422,5,0,0:0:0:0:
344,111,77596,1,2,0:0:0:0:
190,150,77771,1,10,0:0:0:0:
475,175,77945,1,2,0:0:0:0:
139,58,78120,6,0,L|225:63,1,55,0|0,0:0|0:0,0:0:0:0:
465,239,78294,2,0,L|372:232,1,55,0|0,0:0|0:0,0:0:0:0:
98,161,78469,2,0,L|300:169,1,165,8|0,0:0|0:0,0:0:0:0:
494,47,78817,6,0,L|323:43,2,131.99999597168,0|2|10,0:0|0:0|0:0,0:0:0:0:
100,52,79341,2,0,L|198:55,1,65.9999979858399,2|0,0:0|0:0,0:0:0:0:
413,104,79515,2,0,L|311:109,1,65.9999979858399,4|0,0:0|0:0,0:0:0:0:
147,154,79689,6,0,L|47:161,2,65.9999979858399,2|0|10,0:0|0:0|0:0,0:0:0:0:
365,154,79951,2,0,L|465:161,2,65.9999979858399,0|2|0,0:0|0:0|0:0,0:0:0:0:
85,66,80213,2,0,L|151:70,1,65.9999979858399,4|0,0:0|0:0,0:0:0:0:
486,85,80387,5,2,0:0:0:0:
408,71,80474,1,0,0:0:0:0:
330,61,80562,1,10,0:0:0:0:
26,85,80649,5,0,0:0:0:0:
104,71,80736,1,2,0:0:0:0:
182,61,80824,1,0,0:0:0:0:
469,144,80910,6,0,L|403:138,1,65.9999979858399,4|0,0:0|0:0,0:0:0:0:
70,162,81085,2,0,L|150:164,2,65.9999979858399,2|0|10,0:0|0:0|0:0,0:0:0:0:
442,162,81346,2,0,L|362:164,2,65.9999979858399,0|2|0,0:0|0:0|0:0,0:0:0:0:
34,54,81608,6,0,L|99:55,1,65.9999979858399,4|0,0:0|0:0,0:0:0:0:
486,85,81782,5,2,0:0:0:0:
408,71,81869,1,0,0:0:0:0:
330,61,81957,1,10,0:0:0:0:
26,85,82044,5,0,0:0:0:0:
104,71,82131,1,10,0:0:0:0:
182,61,82219,1,8,0:0:0:0:
458,151,82306,6,0,L|403:145,1,55,4|0,0:0|0:0,0:0:0:0:
134,194,82480,1,0,0:0:0:0:
378,194,82655,1,8,0:0:0:0:
129,119,83003,5,0,0:0:0:0:
384,119,83178,1,0,0:0:0:0:
74,40,83352,1,8,0:0:0:0:
438,40,83527,1,0,0:0:0:0:
121,189,83701,1,0,0:0:0:0:
116,249,83788,1,0,0:0:0:0:
113,304,83876,1,0,0:0:0:0:
380,226,84050,1,8,0:0:0:0:
133,195,84399,5,0,0:0:0:0:
379,195,84573,1,0,0:0:0:0:
74,119,84748,1,8,0:0:0:0:
444,119,84922,1,0,0:0:0:0:
209,24,85096,6,0,L|207:92,1,55,4|0,0:0|0:0,0:0:0:0:
303,24,85271,2,0,L|305:92,1,55,0|0,0:0|0:0,0:0:0:0:
198,113,85445,2,0,L|182:174,1,55,8|0,0:0|0:0,0:0:0:0:
314,113,85620,2,0,L|330:174,1,55,0|0,0:0|0:0,0:0:0:0:
155,252,85794,6,0,L|98:268,1,55,4|0,0:0|0:0,0:0:0:0:
357,252,85969,2,0,L|414:268,1,55,0|0,0:0|0:0,0:0:0:0:
133,320,86143,2,0,L|69:325,1,55,8|0,0:0|0:0,0:0:0:0:
379,320,86317,2,0,L|443:325,1,55,0|0,0:0|0:0,0:0:0:0:
79,324,86492,6,0,L|133:320,1,55,4|0,0:0|0:0,0:0:0:0:
434,324,86666,2,0,L|379:320,1,55,0|0,0:0|0:0,0:0:0:0:
103,266,86840,2,0,L|155:252,1,55,8|0,0:0|0:0,0:0:0:0:
410,266,87015,2,0,L|357:252,1,55,0|0,0:0|0:0,0:0:0:0:
207,78,87189,6,0,L|209:24,1,55,4|0,0:0|0:0,0:0:0:0:
304,78,87364,2,0,L|303:24,1,55,0|0,0:0|0:0,0:0:0:0:
184,166,87538,2,0,L|198:113,1,55,8|0,0:0|0:0,0:0:0:0:
327,166,87713,2,0,L|314:113,1,55,8|8,0:0|0:0,0:0:0:0:
1,45,87887,6,0,L|204:53,1,197.99999395752,4|0,0:0|0:0,0:0:0:0:
511,45,88236,2,0,L|236:57,1,263.99999194336,8|0,0:0|0:0,0:0:0:0:
72,122,88759,1,0,0:0:0:0:
497,231,88934,6,0,L|492:279,2,32.99999899292,8|0|0,0:0|0:0|0:0,0:0:0:0:
256,160,89108,2,0,L|258:210,2,32.99999899292,8|0|8,0:0|0:0|0:0,0:0:0:0:
503,64,89282,6,0,L|313:60,1,165,0|0,0:0|0:0,0:0:0:0:
21,108,89631,2,0,L|250:121,1,220,8|0,0:0|0:0,0:0:0:0:
478,52,90155,2,0,L|301:47,2,131.99999597168,0|8|8,0:0|0:0|0:0,0:0:0:0:
97,88,90678,6,0,L|30:92,1,65.9999979858399,4|0,0:0|0:0,0:0:0:0:
416,153,90852,1,0,0:0:0:0:
256,202,91027,1,8,0:0:0:0:
96,153,91201,1,0,0:0:0:0:
416,87,91376,6,0,L|484:93,1,65.9999979858399,4|0,0:0|0:0,0:0:0:0:
96,153,91550,1,0,0:0:0:0:
256,202,91725,1,8,0:0:0:0:
416,153,91899,1,0,0:0:0:0:
96,81,92073,6,0,L|11:74,1,65.9999979858399,4|0,0:0|0:0,0:0:0:0:
486,85,92248,5,0,0:0:0:0:
408,71,92335,1,0,0:0:0:0:
330,61,92423,1,8,0:0:0:0:
26,85,92509,5,0,0:0:0:0:
104,71,92596,1,8,0:0:0:0:
182,61,92684,1,8,0:0:0:0:
486,51,92771,6,0,L|265:62,1,197.99999395752,4|0,0:0|0:0,0:0:0:0:
19,134,93120,2,0,L|237:149,1,197.99999395752,8|0,0:0|0:0,0:0:0:0:
473,240,93469,2,0,L|418:236,1,55,4|0,0:0|0:0,0:0:0:0:
63,39,93643,6,0,P|301:70|49:299,1,770,8|0,0:0|0:0,0:0:0:0:
495,82,95562,6,0,L|293:67,1,197.99999395752,2|0,0:0|0:0,0:0:0:0:
18,144,95910,2,0,L|249:166,1,197.99999395752,8|0,0:0|0:0,0:0:0:0:
416,240,96259,2,0,L|350:231,1,65.9999979858399,2|0,0:0|0:0,0:0:0:0:
53,21,96434,6,0,P|27:322|461:13,1,1210,8|0,0:0|0:0,0:0:0:0:
45,51,99050,2,0,L|100:56,1,55,0|0,0:0|0:0,0:0:0:0:
453,21,99224,2,0,P|420:391|86:-7,1,1210,4|0,0:0|0:0,0:0:0:0:
379,44,101492,5,8,0:0:0:0:
128,92,101841,2,0,L|112:183,1,65.9999979858399,0|0,0:0|0:0,0:0:0:0:
454,42,102015,6,0,P|487:185|34:238,1,770,4|0,0:0|0:0,0:0:0:0:
384,42,103934,2,0,L|395:168,1,110,8|0,0:0|0:0,0:0:0:0:
219,139,104282,2,0,L|212:267,1,110,8|0,0:0|0:0,0:0:0:0:
392,160,104631,6,0,L|397:234,1,55,8|0,0:0|0:0,0:0:0:0:
20,71,104806,2,0,L|262:90,1,220,4|0,0:0|0:0,0:0:0:0:
486,259,105242,6,0,L|411:265,1,55,0|8,0:0|0:0,0:0:0:0:
221,276,105416,2,0,L|212:207,1,55,0|0,0:0|0:0,0:0:0:0:
408,95,105591,2,0,L|470:91,1,55,0|2,0:0|0:0,0:0:0:0:
252,110,105765,2,0,L|174:116,1,55,0|2,0:0|0:0,0:0:0:0:
21,245,105939,6,0,L|95:241,1,55,0|10,0:0|0:0,0:0:0:0:
280,249,106114,2,0,L|284:180,1,55,0|0,0:0|0:0,0:0:0:0:
101,61,106288,2,0,L|91:132,1,55,0|0,0:0|0:0,0:0:0:0:
259,63,106463,2,0,L|323:66,1,55,0|0,0:0|0:0,0:0:0:0:
488,222,106637,6,0,L|431:215,1,55,0|8,0:0|0:0,0:0:0:0:
242,179,106812,2,0,L|233:246,1,55,0|0,0:0|0:0,0:0:0:0:
406,342,106986,2,0,L|416:268,1,55,0|0,0:0|0:0,0:0:0:0:
244,106,107160,2,0,L|171:97,1,55,0|0,0:0|0:0,0:0:0:0:
376,77,107335,6,0,L|441:85,1,55,0|8,0:0|0:0,0:0:0:0:
247,217,107509,2,0,L|238:275,1,55,0|8,0:0|0:0,0:0:0:0:
37,325,107684,2,0,L|32:252,1,55,0|0,0:0|0:0,0:0:0:0:
193,154,107858,2,0,L|269:152,1,55,0|0,0:0|0:0,0:0:0:0:
76,81,108032,6,0,L|14:78,1,55,0|8,0:0|0:0,0:0:0:0:
215,46,108207,2,0,L|220:113,1,55,0|0,0:0|0:0,0:0:0:0:
388,184,108381,2,0,L|384:245,1,55,0|2,0:0|0:0,0:0:0:0:
184,322,108556,2,0,L|264:318,1,55,0|2,0:0|0:0,0:0:0:0:
441,325,108730,6,0,L|381:328,1,55,0|10,0:0|0:0,0:0:0:0:
182,236,108905,2,0,L|171:170,1,55,0|0,0:0|0:0,0:0:0:0:
350,107,109079,2,0,L|418:100,1,55,0|0,0:0|0:0,0:0:0:0:
206,53,109253,2,0,L|149:58,1,55,0|0,0:0|0:0,0:0:0:0:
308,191,109428,6,0,L|315:252,1,55,0|8,0:0|0:0,0:0:0:0:
489,334,109602,2,0,L|432:338,1,55,0|0,0:0|0:0,0:0:0:0:
184,316,109777,2,0,L|263:310,1,55,0|0,0:0|0:0,0:0:0:0:
387,256,109951,2,0,L|394:187,1,55,0|0,0:0|0:0,0:0:0:0:
229,142,110126,6,0,L|166:139,1,55,0|8,0:0|0:0,0:0:0:0:
367,90,110300,2,0,L|426:87,1,55,0|8,0:0|0:0,0:0:0:0:
224,31,110474,2,0,L|219:86,1,55,0|0,0:0|0:0,0:0:0:0:
38,234,110649,2,0,L|120:230,1,55,0|0,0:0|0:0,0:0:0:0:
324,249,110823,6,0,L|242:255,1,55,0|8,0:0|0:0,0:0:0:0:
50,49,110998,2,0,L|46:122,1,55,0|0,0:0|0:0,0:0:0:0:
211,177,111172,2,0,L|276:182,1,55,0|0,0:0|0:0,0:0:0:0:
479,221,111346,2,0,L|483:290,1,55,0|0,0:0|0:0,0:0:0:0:
313,91,111521,6,0,L|254:89,1,55,0|8,0:0|0:0,0:0:0:0:
441,67,111695,2,0,L|500:67,1,55,0|0,0:0|0:0,0:0:0:0:
311,179,111870,2,0,L|306:244,1,55,0|0,0:0|0:0,0:0:0:0:
105,336,112044,2,0,L|181:334,1,55,0|0,0:0|0:0,0:0:0:0:
372,324,112219,6,0,L|301:328,1,55,0|8,0:0|0:0,0:0:0:0:
96,259,112393,2,0,L|86:177,1,55,0|0,0:0|0:0,0:0:0:0:
232,106,112567,2,0,L|305:103,1,55,0|0,0:0|0:0,0:0:0:0:
482,120,112742,2,0,L|477:52,1,55,0|0,0:0|0:0,0:0:0:0:
283,192,112916,6,0,L|209:196,1,55,0|8,0:0|0:0,0:0:0:0:
404,279,113091,2,0,L|476:274,1,55,0|0,0:0|0:0,0:0:0:0:
269,318,113265,2,0,L|259:247,1,55,0|0,0:0|0:0,0:0:0:0:
56,198,113439,2,0,L|43:128,1,55,0|0,0:0|0:0,0:0:0:0:
256,74,113614,6,0,L|191:78,1,55,0|8,0:0|0:0,0:0:0:0:
24,287,113788,2,0,L|109:278,1,55,0|0,0:0|0:0,0:0:0:0:
252,256,113963,2,0,L|258:193,1,55,0|8,0:0|0:0,0:0:0:0:
91,113,114137,2,0,L|18:116,1,55,0|0,0:0|0:0,0:0:0:0:
210,146,114312,6,0,L|274:142,1,55,0|8,0:0|0:0,0:0:0:0:
471,154,114486,2,0,L|475:217,1,55,0|0,0:0|0:0,0:0:0:0:
293,239,114660,2,0,L|228:243,1,55,0|8,0:0|0:0,0:0:0:0:
420,314,114835,2,0,L|488:310,2,55,0|0|0,0:0|0:0|0:0,0:0:0:0:
106,54,115096,6,0,L|160:55,1,55,4|0,0:0|0:0,0:0:0:0:
407,54,115271,2,0,L|352:55,1,55,4|0,0:0|0:0,0:0:0:0:
20,135,115445,2,0,L|102:140,1,55,4|0,0:0|0:0,0:0:0:0:
492,135,115620,2,0,L|410:140,1,55,4|0,0:0|0:0,0:0:0:0:
176,179,115794,6,0,L|168:295,1,110,8|0,0:0|0:0,0:0:0:0:
336,179,116143,2,0,L|344:295,2,110,2|0|8,0:0|0:0|0:0,0:0:0:0:
180,60,116666,1,0,0:0:0:0:
339,70,116841,6,0,L|449:67,2,110,2|0|8,0:0|0:0|0:0,0:0:0:0:
177,198,117364,1,0,0:0:0:0:
345,203,117538,1,2,0:0:0:0:
350,257,117625,1,0,0:0:0:0:
355,312,117712,1,0,0:0:0:0:
178,88,117887,2,0,L|45:82,1,110,8|0,0:0|0:0,0:0:0:0:
209,187,118236,6,0,L|213:251,1,55,10|0,0:0|0:0,0:0:0:0:
39,308,118410,2,0,L|35:251,1,55,8|0,0:0|0:0,0:0:0:0:
336,179,118585,6,0,L|344:295,1,110,4|0,0:0|0:0,0:0:0:0:
176,179,118934,2,0,L|168:295,2,110,2|0|8,0:0|0:0|0:0,0:0:0:0:
332,60,119457,1,0,0:0:0:0:
173,70,119632,6,0,L|63:67,2,110,2|0|8,0:0|0:0|0:0,0:0:0:0:
335,198,120155,1,0,0:0:0:0:
173,121,120329,1,2,0:0:0:0:
345,203,120503,5,0,0:0:0:0:
350,257,120590,1,0,0:0:0:0:
355,312,120677,1,8,0:0:0:0:
170,195,120852,1,0,0:0:0:0:
452,138,121027,2,0,L|457:66,1,55,10|0,0:0|0:0,0:0:0:0:
273,77,121201,2,0,L|268:142,1,55,8|0,0:0|0:0,0:0:0:0:
478,251,121376,6,0,L|360:254,1,110,4|0,0:0|0:0,0:0:0:0:
229,193,121724,1,2,0:0:0:0:
92,86,121899,2,0,L|88:148,1,55,0|0,0:0|0:0,0:0:0:0:
342,70,122073,6,0,L|472:67,1,110,8|0,0:0|0:0,0:0:0:0:
306,205,122422,2,0,L|175:216,1,110,2|0,0:0|0:0,0:0:0:0:
65,109,122771,2,0,L|201:103,1,110,8|0,0:0|0:0,0:0:0:0:
331,48,123120,2,0,L|194:43,1,110,2|0,0:0|0:0,0:0:0:0:
384,142,123469,2,0,L|514:151,1,110,8|0,0:0|0:0,0:0:0:0:
321,171,123817,6,0,L|316:293,1,110,10|8,0:0|0:0,0:0:0:0:
472,317,124166,1,4,0:0:0:0:
256,192,124253,12,0,126782,0:0:0:0:
