osu file format v14

[General]
AudioFilename: audio.mp3
AudioLeadIn: 0
PreviewTime: 35108
Countdown: 0
SampleSet: Soft
StackLeniency: 0.3
Mode: 0
LetterboxInBreaks: 0
WidescreenStoryboard: 1

[Editor]
Bookmarks: 5146,14746,25546,35146,44746,54346,63946,73546,83146,92746,102346,111946,121546
DistanceSpacing: 1.2
BeatDivisor: 2
GridSize: 4
TimelineZoom: 1

[Metadata]
Title:Gymnopedie 009
TitleUnicode:Gymnopedie 009
Artist:Studio Bongo Mango feat. Junko Wada (BE THE VOICE)
ArtistUnicode:Studio Bongo Mango feat. Junko Wada (BE THE VOICE)
Creator:Antlia-
Version:Normal
Source:beatmania IIDX 16 EMPRESS + PREMIUM BEST
Tags:jpop j-pop Pop Erik Satie 3 gymnopedies no. 1 Lent et douloureux electronic japanese Project Railgun Eni french BOSSA ELECTRO Hiroyuki Togo 藤後浩之
BeatmapID:3322518
BeatmapSetID:1409205

[Difficulty]
HPDrainRate:4
CircleSize:3
OverallDifficulty:4
ApproachRate:5.5
SliderMultiplier:0.9
SliderTickRate:1

[Events]
//Background and Video events
0,0,"69324917_p0.jpg",0,0
//Break Periods
//Storyboard Layer 0 (Background)
//Storyboard Layer 1 (Fail)
//Storyboard Layer 2 (Pass)
//Storyboard Layer 3 (Foreground)
//Storyboard Layer 4 (Overlay)
//Storyboard Sound Samples

[TimingPoints]
5146,300,4,2,0,25,1,0
5146,-125,4,2,0,25,0,0
8746,-125,4,2,0,15,0,0
8896,-125,4,2,0,25,0,0
15796,-125,4,2,0,15,0,0
15946,-125,4,2,0,25,0,0
16058,-125,4,2,0,15,0,0
16208,-125,4,2,0,30,0,0
16396,-125,4,2,0,25,0,0
18346,-125,4,2,0,15,0,0
18646,-125,4,2,0,30,0,0
18796,-125,4,2,0,25,0,0
25546,-100,4,1,0,40,0,0
35146,-105.263157894737,4,1,0,35,0,0
35149,-105.263157894737,4,1,0,35,0,0
37096,-100,4,1,0,35,0,0
37546,-105.263157894737,4,1,0,35,0,0
39496,-100,4,1,0,35,0,0
39946,-105.263157894737,4,1,0,35,0,0
41896,-104.166666666667,4,1,0,35,0,0
42346,-100,4,1,0,35,0,1
44746,-100,4,1,0,45,0,0
46696,-97.5609756097561,4,1,0,45,0,0
47146,-100,4,1,0,45,0,0
49096,-97.5609756097561,4,1,0,45,0,0
49546,-100,4,1,0,45,0,0
51946,-97.5609756097561,4,1,0,45,0,0
54346,-95.2380952380952,4,1,0,45,0,1
54946,-95.2380952380952,4,1,0,38,0,1
55246,-95.2380952380952,4,1,0,45,0,1
56446,-95.2380952380952,4,1,0,38,0,1
56596,-95.2380952380952,4,1,0,45,0,1
59746,-95.2380952380952,4,1,0,38,0,1
60046,-95.2380952380952,4,1,0,45,0,1
61246,-95.2380952380952,4,1,0,38,0,1
61396,-95.2380952380952,4,1,0,45,0,1
63871,-95.2380952380952,4,1,0,45,0,0
63946,-95.2380952380952,4,1,0,45,0,1
64546,-95.2380952380952,4,1,0,38,0,1
64846,-95.2380952380952,4,1,0,45,0,1
66046,-95.2380952380952,4,1,0,38,0,1
66196,-95.2380952380952,4,1,0,45,0,1
69346,-95.2380952380952,4,1,0,38,0,1
69646,-95.2380952380952,4,1,0,45,0,1
72346,-95.2380952380952,4,1,0,45,0,0
73546,-93.0232558139535,4,1,0,50,0,0
77896,-93.0232558139535,4,1,0,30,0,0
78346,-93.0232558139535,4,1,0,50,0,0
83146,-90.9090909090909,4,1,0,50,0,0
85546,-93.0232558139535,4,1,0,50,0,0
89146,-95.2380952380952,4,1,0,50,0,0
90346,-93.0232558139535,4,2,0,40,0,0
91096,-93.0232558139535,4,2,0,35,0,0
91546,-93.0232558139535,4,2,0,40,0,0
92296,-93.0232558139535,4,2,0,30,0,0
92446,-93.0232558139535,4,2,0,20,0,0
92746,-125,4,2,0,30,0,0
93046,-125,4,2,0,20,0,0
93121,-125,4,2,0,30,0,0
95446,-117.647058823529,4,2,0,20,0,0
95521,-117.647058823529,4,2,0,30,0,0
95896,-125,4,2,0,30,0,0
99346,-117.647058823529,4,2,0,30,0,0
99646,-125,4,2,0,30,0,0
100171,-125,4,2,0,20,0,0
100321,-125,4,2,0,30,0,0
102346,-111.111111111111,4,2,0,30,0,0
109546,-105.263157894737,4,2,0,40,0,0
111046,-100,4,2,0,40,0,0
111496,-80,4,2,0,40,0,1
111946,-99.9999999999999,4,1,0,55,0,0

[Colours]
Combo1 : 17,254,176
Combo2 : 173,255,95
Combo3 : 255,88,100
Combo4 : 255,94,55

[HitObjects]
428,348,5146,6,0,P|388:332|312:336,2,108,2|0|0,0:2|0:0|0:0,0:0:0:0:
500,292,6346,2,0,P|476:244|484:172,2,108,2|0|0,0:0|0:0|0:0,0:0:0:0:
428,348,7546,2,0,P|388:332|312:336,2,108,2|0|0,0:0|0:0|0:0,0:0:0:0:
512,384,8746,1,4,0:0:0:0:
512,128,9946,6,0,P|452:56|272:100,1,288,2|0,0:0|0:0,0:0:0:0:
4,368,12346,2,0,P|132:228|236:244,1,288
430,223,14746,6,0,L|413:360,2,108,2|2|2,0:2|0:1|0:0,0:0:0:0:
380,152,15946,2,0,L|366:44,2,108,2|2|2,0:2|0:3|0:0,0:0:0:0:
343,229,17146,2,0,L|326:366,2,108,2|2|2,0:2|0:3|0:0,0:0:0:0:
291,160,18346,2,0,B|247:166|247:166|231:163|231:163|174:178,1,108,4|0,0:2|3:0,0:0:0:0:
92,352,19546,6,0,L|64:244,1,108,2|0,0:0|0:0,0:0:0:0:
212,70,20746,2,0,L|185:174,1,108,0|2,0:0|0:0,0:0:0:0:
256,192,21946,12,0,24646,0:0:0:0:
40,56,25546,6,0,P|100:32|152:48,1,90,4|8,0:0|0:0,0:0:0:0:
168,68,25996,2,0,L|160:176,2,90,0|8|0,1:0|0:0|0:0,0:0:0:0:
324,28,27045,5,8,1:0:0:0:
324,28,27195,1,0,1:0:0:0:
324,28,27346,2,0,L|388:36,1,45,0|8,1:0|0:0,0:0:0:0:
480,152,27946,6,0,P|440:128|380:140,1,90,4|8,0:2|0:0,0:0:0:0:
364,172,28396,2,0,L|380:276,2,90,0|8|0,1:0|0:0|0:0,0:0:0:0:
228,88,29446,5,8,0:0:0:0:
228,88,29596,1,0,1:0:0:0:
228,88,29746,2,0,L|160:80,1,45,0|8,1:0|0:0,0:0:0:0:
44,164,30346,6,0,P|44:200|84:264,1,90,2|8,0:0|0:0,0:0:0:0:
108,284,30796,2,0,P|140:260|196:264,1,90,0|8,1:0|0:0,0:0:0:0:
332,336,31546,6,0,B|396:364|396:364|460:300,2,135,2|2|10,1:0|1:0|0:0,0:0:0:0:
228,304,32746,5,6,0:0:0:0:
172,212,33046,2,0,P|172:180|180:148,1,45,8|0,0:0|1:0,0:0:0:0:
256,96,33496,1,8,0:0:0:0:
338,167,33796,2,0,P|390:163|430:127,1,90,2|8,0:2|0:0,0:0:0:0:
472,48,34396,1,4,0:0:0:0:
472,48,34546,2,0,B|432:40|432:40|416:44|416:44|364:36,1,90,0|4,0:0|0:0,0:0:0:0:
280,24,35146,5,4,0:0:0:0:
188,68,35446,2,0,P|200:88|220:100,2,42.7499988584519,8|0|0,0:0|0:0|0:0,0:0:0:0:
96,24,36046,1,0,0:0:0:0:
96,24,36196,2,0,P|44:28|0:64,2,85.4999977169037,0|2|4,0:0|0:2|0:2,0:0:0:0:
185,69,37096,2,2,B|201:77|201:77|341:49,1,135,10|4,0:0|0:0,0:0:0:0:
426,65,37846,6,0,P|398:81|382:133,1,85.4999977169037,8|0,0:0|0:0,0:0:0:0:
441,215,38446,1,0,2:0:0:0:
441,215,38596,2,0,P|477:239|485:299,1,85.4999977169037,2|2,0:2|0:2,0:0:0:0:
481,327,39046,2,0,L|449:375,1,42.7499988584519,8|0,0:0|0:0,0:0:0:0:
348,353,39496,2,2,B|332:349|332:349|292:197,1,135,10|4,0:0|0:2,0:0:0:0:
296,133,40246,6,0,L|304:61,2,42.7499988584519,8|0|0,0:0|0:0|0:0,0:0:0:0:
208,185,40846,1,0,0:0:0:0:
208,185,40996,2,0,L|92:161,2,85.4999977169037,2|0|2,0:2|0:0|0:0,0:0:0:0:
301,234,41896,2,2,B|320:241|320:241|400:209,1,86.4000021093751,10|2,0:0|2:1,0:0:0:0:
428,185,42346,6,0,P|424:125|495:74,2,135,2|2|2,0:0|0:0|0:0,0:0:0:0:
348,320,43696,2,0,B|317:319|289:347|289:347|265:315|229:325,1,135,0|0,0:0|0:0,0:0:0:0:
184,352,44296,1,8,0:0:0:0:
44,268,44746,5,4,0:0:0:0:
44,268,44896,2,0,P|32:240|32:208,1,45,0|8,0:0|0:0,0:0:0:0:
64,124,45346,1,0,0:0:0:0:
64,124,45496,1,8,0:0:0:0:
148,56,45796,2,0,L|240:68,1,90,2|4,0:2|0:2,0:0:0:0:
328,128,46396,1,2,0:0:0:0:
256,212,46696,2,0,B|212:204|212:204|168:224|168:224|104:212,1,138.375002111435,10|4,0:0|0:0,0:0:0:0:
24,176,47446,6,0,P|20:232|52:276,1,90,8|0,0:0|0:0,0:0:0:0:
116,332,48046,1,0,0:0:0:0:
116,332,48196,1,2,0:2:0:0:
196,260,48496,2,0,L|214:171,1,90,2|0,0:2|0:0,0:0:0:0:
292,92,49096,2,0,B|340:112|340:112|352:64,1,92.2500014076233,8|4,0:0|0:2,0:0:0:0:
380,28,49546,1,6,0:0:0:0:
496,140,49996,5,0,0:0:0:0:
496,140,50146,2,0,P|448:168|440:216,1,90,0|0,0:0|0:0,0:0:0:0:
436,252,50596,1,2,0:2:0:0:
332,220,50896,1,4,0:2:0:0:
256,296,51196,1,2,0:0:0:0:
180,220,51496,2,0,P|136:212|96:256,1,90,10|0,0:0|2:0,0:0:0:0:
60,272,51946,6,0,B|48:236|48:236|36:224|36:224|24:176,1,92.2500014076233,4|8,0:2|0:0,0:0:0:0:
56,140,52396,2,0,B|64:104|64:104|76:88|76:88|88:32,1,92.2500014076233,4|8,0:2|0:0,0:0:0:0:
136,44,52846,2,0,B|172:32|172:32|196:36|196:36|236:20,1,92.2500014076233,4|0,0:2|0:0,0:0:0:0:
336,24,53446,6,0,P|368:52|404:60,1,46.1250007038117,4|8,0:2|0:0,0:0:0:0:
424,68,53746,1,12,0:2:0:0:
424,180,54046,2,0,L|400:240,1,46.1250007038117,12|8,0:2|0:0,0:0:0:0:
388,276,54346,6,0,P|433:331|525:343,2,141.749995674133,6|8|10,0:0|0:0|0:0,0:0:0:0:
308,196,55546,2,0,P|276:240|272:304,1,94.499997116089,2|8,0:0|0:0,0:0:0:0:
232,320,55996,2,0,P|200:352|136:360,1,94.499997116089,4|8,0:2|0:0,0:0:0:0:
96,360,56446,1,0,2:0:0:0:
20,276,56746,6,0,P|8:212|48:132,2,141.749995674133,2|10|10,0:0|0:0|0:0,0:0:0:0:
96,360,57946,1,4,0:2:0:0:
188,296,58246,2,0,P|208:268|220:216,1,47.2499985580445,8|0,0:0|0:0,0:0:0:0:
247,212,58546,2,0,P|243:156|223:104,1,94.499997116089,8|0,0:0|0:0,0:0:0:0:
157,42,59146,6,0,B|211:34|211:34|310:55,2,141.749995674133,6|10|8,0:0|0:0|0:0,0:0:0:0:
46,13,60346,1,2,0:0:0:0:
0,176,60796,1,4,0:2:0:0:
0,176,60946,2,0,P|24:224|72:260,1,94.499997116089,0|0,0:0|2:0,0:0:0:0:
124,160,61546,6,0,P|100:104|152:44,2,141.749995674133,2|10|10,0:0|0:0|0:0,0:0:0:0:
204,240,62746,1,4,0:2:0:0:
296,304,63046,2,0,P|328:296|344:280,1,47.2499985580445,8|2,0:0|0:3,0:0:0:0:
396,292,63346,2,0,P|424:256|448:188,1,94.499997116089,0|0,0:0|0:0,0:0:0:0:
432,100,63946,6,0,B|356:108|380:40|272:52,2,141.749995674133,2|8|8,0:0|0:0|0:0,0:0:0:0:
337,160,65146,1,2,0:0:0:0:
305,208,65296,1,0,0:0:0:0:
208,240,65596,1,2,0:0:0:0:
168,280,65746,2,0,P|112:308|56:312,1,94.499997116089,2|8,0:0|2:0,0:0:0:0:
4,232,66346,6,0,B|-23:185|-15:141|-15:141|28:96,2,141.749995674133,6|10|10,0:0|0:0|0:0,0:0:0:0:
119,223,67546,1,2,0:0:0:0:
232,212,67846,2,0,L|297:236,1,47.2499985580445,8|0,0:0|0:0,0:0:0:0:
279,286,68146,2,0,L|163:306,1,94.499997116089,8|0,0:0|0:0,0:0:0:0:
80,356,68746,6,0,P|21:376|12:315,2,141.749995674133,2|8|8,0:0|0:0|0:0,0:0:0:0:
124,324,69796,1,0,0:0:0:0:
120,268,69946,1,2,0:0:0:0:
239,296,70246,1,8,0:0:0:0:
239,296,70396,1,0,0:0:0:0:
239,296,70546,2,0,L|359:260,1,94.499997116089,2|4,0:0|0:2,0:0:0:0:
436,240,71146,6,0,L|468:96,2,141.749995674133,2|10|10,0:0|0:0|0:0,0:0:0:0:
338,182,72346,1,12,0:0:0:0:
306,134,72496,1,8,0:0:0:0:
274,86,72646,1,8,0:0:0:0:
0,248,73546,5,4,0:0:0:0:
64,344,73846,2,0,P|112:356|188:304,1,145.125002214432,8|8,0:0|0:0,0:0:0:0:
224,260,74446,1,2,0:0:0:0:
332,216,74746,2,0,B|408:256|364:304|464:308,2,145.125002214432,2|2|4,0:0|0:1|0:2,0:0:0:0:
240,144,75946,2,0,B|236:60|292:92|296:0,2,145.125002214432,2|2|2,0:0|0:0|0:0,0:0:0:0:
136,196,77146,6,2,B|164:240|140:264|180:296,1,96.7500014762879,2|10,0:0|0:0,0:0:0:0:
200,336,77596,1,0,0:0:0:0:
200,336,77746,2,4,P|232:352|276:352,1,48.3750007381439,2|2,2:3|2:3,0:0:0:0:
304,348,78046,1,0,0:0:0:0:
400,280,78346,5,6,0:0:0:0:
500,220,78646,2,0,P|464:176|376:172,1,145.125002214432,8|8,0:0|0:0,0:0:0:0:
328,196,79246,1,2,0:0:0:0:
228,136,79546,2,0,B|228:96|260:48|260:48|228:36|200:-8,2,145.125002214432,6|2|2,0:0|0:0|0:0,0:0:0:0:
132,204,80746,5,2,0:0:0:0:
56,292,81046,2,0,B|96:332|96:332|144:296|216:328,1,145.125002214432,8|8,0:0|0:0,0:0:0:0:
228,348,81646,1,2,0:0:0:0:
324,284,81946,2,2,B|380:272|389:223|389:223|341:171|401:111,1,193.500002952576,2|0,0:0|0:0,0:0:0:0:
129,72,83146,6,0,P|171:57|226:55,1,99.0000030212403,4|8,0:0|0:0,0:0:0:0:
324,40,83746,1,2,0:0:0:0:
380,60,83896,1,8,0:0:0:0:
432,84,84046,1,0,0:0:0:0:
448,204,84346,2,0,P|392:200|344:156,1,99.0000030212403,4|8,0:2|0:0,0:0:0:0:
256,116,84946,2,0,P|232:108|192:112,1,49.5000015106202,2|8,0:0|0:0,0:0:0:0:
156,136,85246,1,0,0:0:0:0:
76,220,85546,6,0,P|40:232|36:148,2,145.125002214432,4|2|2,0:0|0:0|0:0,0:0:0:0:
176,280,86746,2,0,P|188:344|104:328,2,145.125002214432,2|2|4,0:0|0:0|0:2,0:0:0:0:
292,276,87946,6,0,P|316:320|376:344,1,96.7500014762879,4|8,0:0|0:0,0:0:0:0:
408,368,88396,2,0,P|452:372|500:316,1,96.7500014762879,2|8,0:0|0:0,0:0:0:0:
512,288,88846,1,2,0:0:0:0:
448,188,89146,6,0,B|396:184|360:212|360:212|336:252|292:280|292:280|244:260|176:300,1,283.499991348267,4|4,0:0|0:2,0:0:0:0:
116,364,90346,5,6,1:3:0:0:
116,364,90496,1,2,1:3:0:0:
116,364,90646,2,0,P|92:328|92:268,1,96.7500014762879,2|0,1:3|0:0,0:0:0:0:
60,228,91096,1,12,0:2:0:0:
224,168,91546,5,6,1:3:0:0:
224,168,91696,1,2,1:3:0:0:
224,168,91846,2,0,P|252:128|228:56,1,96.7500014762879,2|0,1:3|0:0,0:0:0:0:
268,28,92296,1,4,1:2:0:0:
416,16,92746,5,2,0:3:0:0:
488,80,93046,2,0,P|444:108|372:100,4,108,4|0|0|2|2,0:2|0:0|0:3|0:0|0:0,0:0:0:0:
416,16,95146,5,2,0:3:0:0:
320,44,95446,2,0,L|200:28,1,114.750002188683,4|2,0:2|0:0,0:0:0:0:
112,20,96196,1,2,0:0:0:0:
416,16,97546,5,2,0:3:0:0:
488,80,97846,2,0,P|444:108|372:100,2,108,4|0|0,0:2|0:0|0:3,0:0:0:0:
512,220,99196,1,2,0:0:0:0:
512,220,99346,2,0,P|464:244|424:248,1,76.5000014591217,2|0,0:0|0:0,0:0:0:0:
372,188,99946,5,2,0:3:0:0:
305,124,100246,2,0,P|256:102|208:123,1,108,12|2,0:2|0:0,0:0:0:0:
140,188,100996,1,2,0:0:0:0:
473,307,102346,6,0,P|489:250|480:190,2,121.499996292114,2|4|2,1:2|1:2|0:2,0:0:0:0:
376,360,103546,2,0,P|332:380|268:372,1,80.9999975280763,2|0,1:2|0:0,0:0:0:0:
256,352,103996,2,0,P|216:336|160:348,1,80.9999975280763,4|0,1:2|0:1,0:0:0:0:
132,368,104446,1,2,0:2:0:0:
40,307,104746,2,0,P|24:250|33:190,2,121.499996292114,2|4|2,1:2|1:2|0:0,0:0:0:0:
132,368,105946,1,2,1:2:0:0:
68,20,107146,6,0,L|168:64,1,80.9999975280763,2|8,1:2|0:1,0:0:0:0:
172,96,107596,2,0,L|268:72,1,80.9999975280763,0|8,1:0|0:1,0:0:0:0:
300,56,108046,1,0,0:0:0:0:
404,44,108346,2,0,P|404:80|372:124,1,80.9999975280763,2|8,1:2|0:1,0:0:0:0:
360,168,108796,2,0,P|392:224|428:248,1,80.9999975280763,0|8,1:0|0:1,0:0:0:0:
448,264,109246,1,0,0:0:0:0:
368,344,109546,6,0,L|252:332,2,85.4999977169037,0|8|0,1:0|1:2|1:0,0:0:0:0:
448,264,110446,1,0,1:0:0:0:
456,152,110746,1,0,1:0:0:0:
456,152,110896,1,2,0:3:0:0:
456,152,111046,2,0,B|436:108|436:108|396:128,1,90,2|8,1:2|0:0,0:0:0:0:
352,144,111496,6,2,B|264:144|304:44|192:64,1,168.75,2|4,1:0|0:0,1:0:0:0:
32,208,112546,2,0,L|112:336,1,135,2|0,0:0|0:0,0:0:0:0:
156,344,113146,2,0,L|312:328,2,135,2|2|2,0:0|0:0|0:0,0:0:0:0:
140,233,114346,6,0,P|160:189|204:165,1,90,2|2,0:0|0:0,0:0:0:0:
300,154,114946,2,0,P|344:166|372:218,1,90,2|8,0:0|0:3,0:0:0:0:
413,289,115546,2,0,P|485:205|413:49,1,270,4|4,0:0|0:2,0:0:0:0:
340,24,116746,6,0,L|232:40,1,90,2|2,0:0|0:0,0:0:0:0:
209,72,117196,2,0,L|97:56,1,90,2|2,0:0|0:0,0:0:0:0:
66,54,117646,1,2,0:0:0:0:
31,170,117946,2,0,L|67:226,1,45,2|2,0:0|0:0,0:0:0:0:
87,258,118246,1,2,0:0:0:0:
164,340,118546,2,0,P|200:312|212:248,1,90,4|0,0:2|0:0,0:0:0:0:
256,160,119146,6,0,B|276:88|204:100|232:20,2,135,2|2|2,0:0|0:0|0:0,0:0:0:0:
332,252,120346,1,8,0:0:0:0:
376,292,120496,1,8,0:0:0:0:
432,304,120646,1,8,0:0:0:0:
