osu file format v14

[General]
AudioFilename: audio.mp3
AudioLeadIn: 0
PreviewTime: 35108
Countdown: 0
SampleSet: Soft
StackLeniency: 0.6
Mode: 0
LetterboxInBreaks: 0
WidescreenStoryboard: 1

[Editor]
Bookmarks: 5146,14746,25546,25846,34846,35146,44746,54346,73546,92746,102346,111946,121546
DistanceSpacing: 0.2
BeatDivisor: 4
GridSize: 32
TimelineZoom: 1.8

[Metadata]
Title:Gymnopedie 009
TitleUnicode:Gymnopedie 009
Artist:Studio Bongo Mango feat. Junko Wada (BE THE VOICE)
ArtistUnicode:Studio Bongo Mango feat. Junko Wada (BE THE VOICE)
Creator:Antlia-
Version:Hyper
Source:beatmania IIDX 16 EMPRESS + PREMIUM BEST
Tags:jpop j-pop Pop Erik Satie 3 gymnopedies no. 1 Lent et douloureux electronic japanese Project Railgun Eni french BOSSA ELECTRO Hiroyuki Togo 藤後浩之
BeatmapID:3059355
BeatmapSetID:1409205

[Difficulty]
HPDrainRate:5
CircleSize:4
OverallDifficulty:6
ApproachRate:8
SliderMultiplier:1.4
SliderTickRate:2

[Events]
//Background and Video events
0,0,"69324917_p0.jpg",0,0
//Break Periods
//Storyboard Layer 0 (Background)
//Storyboard Layer 1 (Fail)
//Storyboard Layer 2 (Pass)
//Storyboard Layer 3 (Foreground)
//Storyboard Layer 4 (Overlay)
//Storyboard Sound Samples

[TimingPoints]
5146,300,4,2,0,25,1,0
5146,-125,4,2,0,25,0,0
25246,-125,4,2,0,5,0,0
25546,-100,4,1,0,40,0,0
35296,-100,4,1,0,35,0,0
44746,-100,4,1,0,45,0,0
73546,-100,4,1,0,50,0,0
77746,-100,4,1,0,30,0,0
78046,-100,4,1,0,50,0,0
90346,-100,4,1,0,40,0,0
91096,-100,4,2,0,35,0,0
91546,-100,4,1,0,40,0,0
92296,-100,4,2,0,30,0,0
92746,-100,4,2,0,30,0,0
101146,-133.333333333333,4,2,0,35,0,0
109546,-133.333333333333,4,2,0,40,0,0
111496,-111.111111111111,4,2,0,35,0,0
111946,-100,4,1,0,50,0,1
112096,-100,4,1,0,50,0,0

[Colours]
Combo1 : 17,254,176
Combo2 : 173,255,95
Combo3 : 255,88,100
Combo4 : 255,94,55

[HitObjects]
294,152,5146,6,0,P|352:113|451:143,2,168,2|0|0,0:0|0:0|0:0,0:0:0:0:
238,235,6346,6,0,P|242:304|167:375,2,168,2|0|0,0:0|0:0|0:0,0:0:0:0:
194,145,7546,6,0,P|131:114|107:13,2,168,2|0|0,0:0|0:0|0:0,0:0:0:0:
194,145,8746,1,4,0:0:0:0:
202,153,9946,5,2,0:0:0:0:
43,78,14746,6,0,P|120:47|212:68,1,168,2|2,0:0|0:3,0:0:0:0:
369,56,15646,1,0,0:0:0:0:
446,156,15946,6,0,B|394:140|394:140|278:160,1,168,2|2,0:0|0:3,0:0:0:0:
105,160,16846,1,0,0:0:0:0:
46,253,17146,6,0,L|229:258,1,168,2|2,0:0|0:3,0:0:0:0:
350,243,18046,1,0,0:0:0:0:
460,324,18346,5,4,0:0:0:0:
460,324,19546,1,2,0:0:0:0:
325,334,21346,1,0,0:0:0:0:
192,311,23146,1,2,0:0:0:0:
256,192,24346,12,0,25246,0:0:0:0:
13,40,25546,6,0,P|77:19|149:36,1,140,4|8,0:0|0:0,0:0:0:0:
209,87,25996,1,0,0:0:0:0:
209,87,26146,1,0,0:0:0:0:
209,87,26296,2,0,L|205:171,1,70,8|0,0:0|2:0,0:0:0:0:
391,61,26746,6,0,L|387:130,1,70,0|2,0:0|2:0,0:0:0:0:
454,165,27046,1,8,0:0:0:0:
447,240,27195,1,0,0:0:0:0:
372,253,27346,1,0,0:0:0:0:
335,185,27496,2,0,P|267:172|199:196,1,140,8|0,0:0|2:0,0:0:0:0:
107,266,27946,6,0,B|156:288|156:288|251:260,1,140,4|8,0:2|0:0,0:0:0:0:
288,203,28396,1,0,0:0:0:0:
288,203,28546,1,0,0:0:0:0:
288,203,28696,2,0,L|293:116,1,70,8|0,0:0|2:0,0:0:0:0:
117,172,29146,6,0,P|125:205|118:239,1,70,0|2,0:0|2:0,0:0:0:0:
53,274,29446,1,8,0:0:0:0:
60,349,29595,1,0,0:0:0:0:
135,362,29746,1,0,0:0:0:0:
172,294,29896,2,0,B|217:270|217:270|306:296,1,140,8|0,0:0|2:0,0:0:0:0:
411,243,30346,6,0,P|386:286|292:288,1,140,4|8,0:2|0:0,0:0:0:0:
332,225,30796,1,0,0:0:0:0:
332,225,30946,1,0,0:0:0:0:
332,225,31096,2,0,L|337:154,1,70,8|0,0:0|2:0,2:0:0:0:
460,86,31546,5,0,0:0:0:0:
338,315,31996,1,4,0:2:0:0:
200,94,32446,1,2,0:0:0:0:
339,177,32746,6,0,P|274:159|199:207,1,140,4|8,0:0|0:0,0:0:0:0:
162,247,33196,2,0,B|114:265|114:265|22:242,2,140,2|8|0,0:0|0:0|0:0,0:0:0:0:
211,189,33946,6,0,L|212:269,1,70,2|0,0:0|0:0,0:0:0:0:
210,290,34171,1,0,0:0:0:0:
210,290,34246,2,0,P|222:303|249:292,4,35,0|0|0|0|2,0:0|0:0|0:0|0:0|0:0,0:0:0:0:
46,254,34846,1,10,0:0:0:0:
162,131,35146,5,4,0:0:0:0:
162,131,35446,2,0,L|158:33,1,70,8|0,0:0|0:0,0:0:0:0:
95,17,35746,2,0,P|171:-13|224:26,1,140,4|0,0:2|0:0,0:0:0:0:
280,62,36196,6,0,L|283:156,1,70,2|0,0:2|0:0,0:0:0:0:
361,106,36496,2,0,L|364:200,1,70,4|8,0:2|0:0,0:0:0:0:
276,213,36796,2,0,L|279:307,1,70,2|0,0:2|0:0,0:0:0:0:
357,257,37096,2,2,B|391:319|391:319|431:255,1,140,10|2,0:0|2:1,0:0:0:0:
278,282,37546,5,4,0:0:0:0:
278,282,37846,2,0,P|235:277|194:295,1,70,8|0,0:0|0:0,0:0:0:0:
135,327,38146,2,0,P|105:356|98:391,1,70,2|8,0:2|0:0,0:0:0:0:
9,382,38446,1,0,0:0:0:0:
53,299,38596,6,0,L|55:211,1,70,2|0,0:2|0:0,0:0:0:0:
72,202,38896,2,0,L|76:47,1,140,4|0,0:2|0:0,0:0:0:0:
259,33,39496,2,2,L|255:188,1,140
323,249,39946,5,4,0:0:0:0:
323,249,40246,2,0,P|352:257|389:237,1,70,8|0,0:0|0:0,0:0:0:0:
408,175,40546,2,0,P|388:234|445:300,1,140,4|0,0:2|2:0,0:0:0:0:
465,227,40996,6,0,L|371:230,1,70,2|0,0:2|0:0,0:0:0:0:
421,308,41296,2,0,L|327:311,1,70,4|8,0:2|0:0,0:0:0:0:
315,226,41596,2,0,L|221:229,1,70,2|0,0:2|0:0,0:0:0:0:
143,247,41896,2,2,B|81:216|42:221|48:292|92:262,1,140
136,163,42346,6,0,P|153:89|103:25,1,140,2|8,0:2|0:0,0:0:0:0:
216,30,42796,2,0,B|280:57|280:57|344:10,1,140,4|8,0:2|0:0,0:0:0:0:
425,39,43246,2,0,L|435:188,1,140,4|0,0:0|0:0,0:0:0:0:
439,254,43696,5,2,0:3:0:0:
181,342,44146,1,2,0:3:0:0:
181,342,44296,1,2,0:3:0:0:
0,38,44746,6,0,L|159:42,1,140,4|8,0:0|0:0,0:0:0:0:
207,97,45196,1,0,0:0:0:0:
207,97,45346,1,0,0:0:0:0:
207,97,45496,2,0,L|292:99,1,70,8|0,0:0|0:0,0:0:0:0:
334,43,45796,6,0,P|353:74|340:135,1,70,2|0,0:2|0:0,0:0:0:0:
438,84,46096,2,0,P|440:120|400:168,1,70,2|8,0:2|0:0,0:0:0:0:
510,169,46396,2,0,P|494:202|437:225,1,70,2|0,0:2|0:0,0:0:0:0:
502,286,46696,2,2,B|460:303|460:303|354:292,1,140,10|2,0:0|0:0,0:1:0:0:
261,277,47146,5,4,0:0:0:0:
95,252,47446,1,8,0:0:0:0:
95,252,47596,1,0,0:0:0:0:
95,252,47746,2,0,L|101:153,1,70,0|8,0:0|0:0,0:0:0:0:
146,102,48046,1,0,0:0:0:0:
46,104,48196,2,0,P|17:130|9:179,1,70
99,182,48496,6,0,L|260:189,1,140,4|0,0:2|0:0,0:2:0:0:
360,73,49096,1,0,0:0:0:0:
408,233,49396,1,0,0:0:0:0:
336,173,49546,6,0,P|315:237|374:314,1,140,4|8,0:0|0:0,0:0:0:0:
431,317,49996,1,0,0:0:0:0:
346,298,50146,2,0,B|303:284|303:284|197:303,1,140,2|0,0:2|0:0,0:0:0:0:
109,274,50596,6,0,L|13:258,1,70,2|0,0:2|0:0,0:0:0:0:
26,180,50896,2,0,L|122:196,1,70,2|0,0:2|0:0,0:0:0:0:
205,215,51196,2,0,L|301:199,1,70,4|0,0:2|0:0,0:0:0:0:
288,121,51496,2,0,L|192:137,1,70,4|0,0:0|0:0,0:0:0:0:
45,39,51946,6,0,L|58:78,7,35,4|0|0|0|0|0|0|0,0:2|0:0|0:0|0:0|0:0|0:0|0:0|0:0,0:0:0:0:
88,45,52546,2,0,L|101:84,7,35,4|0|0|0|0|0|0|0,0:2|0:0|0:0|0:0|0:0|0:0|0:0|0:0,0:0:0:0:
145,105,53146,6,0,L|132:144,3,35,4|0|0|0,0:2|0:0|0:0|0:0,0:0:0:0:
163,172,53446,6,0,L|176:211,3,35,4|0|0|0,0:2|0:0|0:0|0:0,0:0:0:0:
208,237,53746,5,4,0:2:0:0:
208,237,53896,1,8,0:0:0:0:
298,230,54046,1,4,0:2:0:0:
371,176,54196,1,0,0:0:0:0:
451,128,54346,6,0,P|382:90|297:116,1,140,2|8,0:0|0:0,0:0:0:0:
251,133,54796,2,0,B|201:152|201:152|116:124,1,140,2|0,0:0|3:2,0:0:0:0:
76,51,55246,1,2,0:0:0:0:
40,256,55546,6,0,P|105:241|189:276,1,140,2|8,0:0|0:0,0:0:0:0:
91,372,55996,2,0,P|77:328|111:372,1,140,2|8,0:0|0:0,0:0:0:0:
127,357,56446,1,0,2:0:0:0:
259,261,56746,6,0,B|293:250|293:250|362:278|362:278|406:266,1,140,2|8,0:0|0:0,0:0:0:0:
401,349,57196,2,0,P|471:303|464:237,1,140,2|0,0:0|0:0,0:0:0:0:
417,195,57646,2,0,L|340:166,1,70,2|0,0:0|0:0,0:0:0:0:
390,270,57946,5,2,0:0:0:0:
381,38,59146,6,0,B|416:99|416:99|441:23,1,140,2|8,0:0|0:0,0:0:0:0:
302,81,59596,2,0,B|262:99|262:99|152:87,1,140,2|0,0:0|0:0,0:0:0:0:
100,25,60046,1,2,0:0:0:0:
53,203,60346,6,0,P|105:183|91:209,1,140,2|8,0:0|0:0,0:0:0:0:
67,277,60796,2,0,B|103:326|103:326|166:263,1,140,2|0,0:0|0:0,0:0:0:0:
159,269,61246,1,0,2:0:0:0:
336,244,61546,5,2,0:0:0:0:
336,244,61696,2,0,P|370:239|413:252,1,70,2|0,0:0|2:0,0:0:0:0:
475,286,61996,2,0,P|452:327|356:306,1,140,2|0,0:0|0:0,0:0:0:0:
404,247,62446,2,0,L|401:102,1,140,10|4,0:0|0:0,0:0:0:0:
136,340,63946,5,2,0:0:0:0:
136,340,64096,2,0,L|228:342,1,70,2|0,0:0|0:0,0:0:0:0:
252,263,64396,2,0,L|79:259,1,140,2|0,0:0|0:0,0:0:0:0:
39,214,64846,2,0,P|26:246|31:281,1,70,2|0,0:0|2:0,0:0:0:0:
194,173,65146,5,2,0:0:0:0:
194,173,65296,2,0,B|148:118|148:118|112:193,1,140,2|2,0:0|0:0,0:0:0:0:
118,180,65746,1,2,0:0:0:0:
391,60,66346,6,0,B|422:64|445:45|445:45|464:43|464:43|470:69|470:69|429:92,1,140,2|0,0:0|0:0,0:0:0:0:
354,134,66796,2,0,P|343:199|389:270,1,140,2|0,0:0|0:0,0:0:0:0:
461,285,67246,1,2,0:0:0:0:
296,329,67546,5,2,0:0:0:0:
214,330,68746,5,2,0:0:0:0:
214,330,68896,2,0,L|141:335,1,70,2|0,0:0|0:0,0:0:0:0:
45,312,69196,2,0,B|73:259|73:259|46:157,1,140,2|0,0:0|0:0,0:0:0:0:
119,105,69646,5,2,0:0:0:0:
20,91,69796,1,2,0:0:0:0:
52,181,69946,2,0,L|208:186,1,140,2|10,0:0|0:0,0:0:0:0:
274,122,70396,1,2,0:0:0:0:
274,122,70546,2,0,P|288:79|272:38,2,70,2|2|4,0:0|0:0|0:2,0:0:0:0:
429,45,71146,6,0,B|406:95|406:95|432:198,1,140,2|8,0:0|0:0,0:0:0:0:
480,241,71596,2,0,P|468:297|457:242,1,140,2|0,0:0|0:0,0:0:0:0:
444,254,72046,1,2,0:0:0:0:
291,297,72346,5,12,0:0:0:0:
285,300,72496,5,8,0:0:0:0:
279,304,72646,5,8,0:0:0:0:
166,29,73546,6,0,P|197:93|149:168,1,140,6|8,0:0|0:0,0:0:0:0:
79,202,73996,2,0,P|48:138|96:63,1,140,6|8,0:0|0:0,0:0:0:0:
166,29,74446,2,0,L|251:21,1,70,2|0,0:0|0:0,0:0:0:0:
404,76,74746,6,0,B|353:63|353:63|258:99,1,140,2|8,0:0|0:0,0:0:0:0:
249,217,75196,2,0,L|314:191,1,70,2|0,0:0|0:0,0:0:0:0:
405,176,75496,1,8,0:0:0:0:
458,252,75646,1,4,0:2:0:0:
400,330,75796,1,0,0:0:0:0:
303,296,75946,6,0,P|257:273|156:309,1,140,2|8,0:0|0:0,0:0:0:0:
83,212,76396,2,0,L|90:61,1,140,2|8,0:0|0:0,0:0:0:0:
192,103,76846,2,0,P|226:110|269:95,1,70,2|0,0:0|0:0,0:0:0:0:
284,21,77146,6,2,P|272:69|348:119,1,140,2|10,0:0|0:0,0:0:0:0:
426,86,77596,1,0,0:0:0:0:
426,86,77746,2,0,L|418:172,1,70,2|2,2:3|2:3,0:0:0:0:
473,331,78346,6,0,L|312:338,1,140,6|8,0:0|0:0,0:0:0:0:
240,281,78796,2,0,L|79:288,1,140,2|8,0:0|0:0,0:0:0:0:
55,160,79246,2,0,P|43:195|49:251,1,70,2|0,0:0|0:0,0:0:0:0:
150,174,79546,6,0,B|172:128|172:128|125:22,1,140,2|8,0:0|0:0,0:0:0:0:
255,43,79996,2,0,L|349:38,1,70,2|0,0:0|0:0,0:0:0:0:
432,29,80296,1,8,0:0:0:0:
331,50,80446,1,4,0:2:0:0:
353,150,80596,1,0,0:0:0:0:
450,131,80746,6,0,L|443:288,1,140,2|8,0:0|0:0,0:0:0:0:
368,341,81196,2,0,P|301:306|220:315,1,140,2|8,0:0|0:0,0:0:0:0:
139,297,81646,2,0,P|129:322|160:318,1,70,2|0,0:0|0:0,0:0:0:0:
253,221,81946,6,2,B|273:176|273:176|250:76,1,140,2|10,0:0|0:0,0:0:0:0:
164,44,82396,2,0,L|73:38,1,70,4|0,0:2|0:0,0:0:0:0:
13,102,83146,6,0,B|57:87|57:87|157:112,1,140,6|8,0:0|0:0,0:0:0:0:
122,237,83596,1,0,0:0:0:0:
122,237,83746,2,0,P|101:200|103:166,1,70,2|8,0:0|0:0,0:0:0:0:
228,115,84046,2,0,P|249:152|247:186,1,70,0|8,0:0|0:0,0:0:0:0:
198,270,84346,6,0,P|261:303|345:281,1,140,6|0,0:0|0:0,0:0:0:0:
326,292,84796,1,0,0:0:0:0:
428,322,84946,2,0,L|516:323,2,70,2|8|0,0:0|0:0|0:0,0:0:0:0:
428,322,85396,1,0,0:0:0:0:
434,229,85546,6,0,B|418:196|434:158|434:158|450:129|440:92,1,140,2|8,0:0|0:0,0:0:0:0:
328,51,85996,2,0,B|256:8|199:55|255:105|297:63,1,140,2|8,0:0|0:0,0:0:0:0:
335,162,86446,2,0,P|311:193|258:199,1,70,2|8,0:0|0:0,0:0:0:0:
145,171,86746,6,0,B|93:220|93:220|52:147,1,140,2|8,0:0|0:0,0:0:0:0:
24,80,87196,2,0,P|40:27|66:86,1,140,2|0,0:0|0:0,0:0:0:0:
58,177,87646,2,0,L|48:262,1,70,2|0,0:0|0:0,0:0:0:0:
109,354,87946,6,0,P|164:318|244:347,1,140,2|8,0:0|0:0,0:0:0:0:
288,273,88396,1,0,0:0:0:0:
288,273,88546,2,0,L|386:275,1,70,2|8,0:0|0:0,0:0:0:0:
464,183,88846,2,0,L|366:185,1,70,2|8,0:0|0:0,0:0:0:0:
333,98,89146,6,0,B|269:126|269:126|190:110,1,140,2|8,0:0|0:0,0:0:0:0:
16,212,89746,2,0,L|14:306,1,70,2|8,0:3|0:0,0:3:0:0:
100,247,90046,2,0,L|98:341,1,70,0|2,0:0|0:3,0:0:0:0:
208,336,90346,5,6,0:3:0:0:
214,339,90496,5,2,0:3:0:0:
220,343,90646,5,2,0:3:0:0:
452,293,91096,1,12,0:2:0:0:
303,233,91546,5,6,0:3:0:0:
297,236,91696,5,2,0:3:0:0:
291,240,91846,5,2,0:3:0:0:
59,190,92296,1,4,0:2:0:0:
195,44,92746,6,0,L|163:28,3,23.3333333333333,2|0|0|0,0:3|0:0|0:0|0:0,0:0:0:0:
195,44,93046,5,2,0:0:0:0:
278,110,93496,1,0,0:0:0:0:
211,194,93946,1,0,0:0:0:0:
128,127,94396,1,2,0:0:0:0:
128,127,94846,1,2,0:0:0:0:
42,172,95146,6,0,L|10:188,3,23.3333333333333,2|0|0|0,0:3|0:0|0:0|0:0,0:0:0:0:
42,172,95446,1,2,0:0:0:0:
154,266,95896,1,0,0:0:0:0:
154,266,96196,1,2,0:0:0:0:
333,49,97546,6,0,L|365:33,3,23.3333333333333,2|0|0|0,0:3|0:0|0:0|0:0,0:0:0:0:
333,49,97846,5,2,0:0:0:0:
250,115,98296,1,0,0:0:0:0:
317,199,98746,1,0,0:0:0:0:
400,132,99196,1,2,0:0:0:0:
400,132,99346,2,0,L|431:118,4,35,2|0|0|0|2,0:0|0:0|0:0|0:0|0:0,0:0:0:0:
480,219,99946,6,0,L|512:235,3,23.3333333333333,2|0|0|0,0:3|0:0|0:0|0:0,0:0:0:0:
480,219,100246,1,2,0:0:0:0:
368,313,100696,1,0,0:0:0:0:
368,313,100996,1,2,0:0:0:0:
292,337,101146,6,0,P|269:345|224:341,1,52.5000020027161,0|8,0:0|0:0,0:0:0:0:
159,331,101446,2,0,P|129:314|109:281,1,52.5000020027161,0|8,0:0|0:0,0:0:0:0:
79,229,101746,2,0,P|74:202|82:156,1,52.5000020027161,0|8,0:0|0:0,0:0:0:0:
96,96,102046,1,8,0:0:0:0:
226,20,102346,6,0,P|199:20|170:26,2,52.5000020027161,2|0|8,0:2|0:0|0:0,0:0:0:0:
329,38,102796,2,0,B|352:84|352:84|336:209,1,157.500006008148,4|2,0:0|0:0,0:0:0:0:
488,142,103546,6,0,L|494:81,2,52.5000020027161,2|0|8,0:0|0:0|0:0,0:0:0:0:
459,222,103996,2,0,P|476:290|423:373,1,157.500006008148,4|2,0:0|0:0,0:0:0:0:
347,264,104746,6,0,P|318:257|319:290,2,52.5000020027161,2|0|8,0:0|0:0|0:0,0:0:0:0:
352,346,105196,2,0,L|180:357,1,157.500006008148,4|0,0:2|0:0,0:0:0:0:
101,327,105946,1,2,0:0:0:0:
94,64,107146,6,0,L|37:69,2,52.5000020027161,2|0|8,0:0|0:0|0:0,0:0:0:0:
154,125,107596,2,0,L|206:122,1,52.5000020027161,4|0,0:0|0:0,0:0:0:0:
258,53,107896,2,0,P|309:45|374:66,1,105.000004005432,8|0,0:0|0:0,0:0:0:0:
454,108,108346,6,0,B|459:134|459:134|457:147|457:147|463:174,2,52.5000020027161,2|0|8,0:0|0:0|0:0,0:0:0:0:
367,149,108796,2,0,P|362:180|366:219,1,52.5000020027161,4|0,0:0|0:0,0:0:0:0:
438,254,109096,2,0,L|435:375,1,105.000004005432,8|0,0:0|0:0,0:0:0:0:
334,314,109546,6,0,L|264:315,1,52.5000020027161,0|2,1:0|0:3,0:0:0:0:
154,241,109846,2,0,L|224:240,1,52.5000020027161,8|2,0:0|0:3,0:0:0:0:
206,367,110146,6,0,L|205:314,1,52.5000020027161,0|2,1:0|0:3,0:0:0:0:
279,187,110446,2,0,L|279:239,1,52.5000020027161,0|2,1:0|0:3,0:0:0:0:
367,149,110746,5,0,1:0:0:0:
293,93,110896,1,2,0:3:0:0:
208,132,111046,2,0,L|159:134,2,26.2500010013581,2|2|2,0:0|0:0|0:0,0:0:0:0:
94,162,111346,1,0,0:0:0:0:
94,162,111496,6,2,B|106:197|89:236|89:236|74:285|91:334,1,157.499995193482,4|0,0:2|0:0,0:0:0:0:
88,329,111946,5,6,0:0:0:0:
183,294,112096,2,0,L|170:376,1,70,0|2,0:0|0:0,0:0:0:0:
321,237,112546,5,2,0:0:0:0:
348,338,112696,1,2,0:0:0:0:
490,106,113146,5,2,0:0:0:0:
463,207,113296,1,2,0:0:0:0:
302,55,113596,5,2,0:0:0:0:
204,62,113746,1,2,0:0:0:0:
261,141,113896,2,0,L|265:223,1,70,0|4,0:0|0:2,0:0:0:0:
17,61,114346,5,2,0:0:0:0:
111,36,114496,2,0,L|98:118,1,70,0|2,0:0|0:0,0:0:0:0:
264,210,114946,5,2,0:0:0:0:
170,185,115096,2,0,L|183:267,1,70,0|2,0:0|0:0,0:0:0:0:
22,323,115546,5,2,0:0:0:0:
119,336,115696,1,2,0:0:0:0:
216,349,115846,2,0,L|302:360,1,70,0|2,0:0|0:0,0:0:0:0:
383,350,116146,2,0,L|442:320,2,35
383,350,116446,1,4,0:2:0:0:
271,200,116746,6,0,P|277:167|302:133,1,70,2|2,0:0|0:0,0:0:0:0:
381,87,117046,1,0,0:0:0:0:
465,36,117196,6,0,L|390:43,1,70,2|2,0:0|0:0,0:0:0:0:
296,46,117496,1,0,0:0:0:0:
199,30,117646,2,0,L|189:108,1,70,2|2,0:0|0:0,0:0:0:0:
95,126,117946,5,0,0:0:0:0:
166,193,118096,2,0,L|176:270,2,70,2|0|2,0:0|0:0|0:0,0:0:0:0:
166,193,118546,1,4,0:2:0:0:
399,330,119146,6,0,L|468:325,2,70,2|0|2,0:0|0:0|0:0,0:0:0:0:
407,234,119596,2,0,L|337:238,2,70,2|0|2,0:0|0:0|0:0,0:0:0:0:
407,234,120046,1,4,0:2:0:0:
457,87,120346,5,12,0:0:0:0:
463,90,120496,5,8,0:0:0:0:
469,94,120646,5,8,0:0:0:0:
