osu file format v14

[General]
AudioFilename: audio.mp3
AudioLeadIn: 0
PreviewTime: 35108
Countdown: 0
SampleSet: Soft
StackLeniency: 0.3
Mode: 0
LetterboxInBreaks: 0
WidescreenStoryboard: 1

[Editor]
Bookmarks: 5146,14746,25546,25846,34846,35146,44746,54346,73546,102346,111946,121546
DistanceSpacing: 0.1
BeatDivisor: 4
GridSize: 32
TimelineZoom: 1.8

[Metadata]
Title:Gymnopedie 009
TitleUnicode:Gymnopedie 009
Artist:Studio Bongo Mango feat. Junko Wada (BE THE VOICE)
ArtistUnicode:Studio Bongo Mango feat. Junko Wada (BE THE VOICE)
Creator:Antlia-
Version:Another
Source:beatmania IIDX 16 EMPRESS + PREMIUM BEST
Tags:jpop j-pop Pop Erik Satie 3 gymnopedies no. 1 Lent et douloureux electronic japanese Project Railgun Eni french BOSSA ELECTRO Hiroyuki Togo 藤後浩之
BeatmapID:2905788
BeatmapSetID:1409205

[Difficulty]
HPDrainRate:6
CircleSize:4
OverallDifficulty:7.8
ApproachRate:9
SliderMultiplier:1.6
SliderTickRate:2

[Events]
//Background and Video events
0,0,"69324917_p0.jpg",0,0
//Break Periods
//Storyboard Layer 0 (Background)
//Storyboard Layer 1 (Fail)
//Storyboard Layer 2 (Pass)
//Storyboard Layer 3 (Foreground)
//Storyboard Layer 4 (Overlay)
//Storyboard Sound Samples

[TimingPoints]
5146,300,4,2,0,25,1,0
5146,-200,4,2,0,25,0,0
8746,-200,4,2,0,15,0,0
8896,-200,4,2,0,25,0,0
15796,-200,4,2,0,15,0,0
15946,-200,4,2,0,25,0,0
16058,-200,4,2,0,15,0,0
16208,-200,4,2,0,30,0,0
16396,-200,4,2,0,25,0,0
18346,-200,4,2,0,15,0,0
18646,-200,4,2,0,30,0,0
18796,-200,4,2,0,25,0,0
25545,-200,4,2,0,25,0,0
25546,-100,4,1,0,40,0,0
35149,-100,4,1,0,35,0,0
44746,-100,4,1,0,45,0,0
46696,-100,4,1,0,45,0,0
51946,-100,4,1,0,45,0,0
54346,-100,4,1,0,45,0,0
54946,-100,4,1,0,38,0,0
55246,-100,4,1,0,45,0,0
56446,-100,4,1,0,38,0,0
56596,-100,4,1,0,45,0,0
59746,-100,4,1,0,38,0,0
60046,-100,4,1,0,45,0,0
61246,-100,4,1,0,38,0,0
61396,-100,4,1,0,45,0,0
63046,-100,4,1,0,45,0,0
63946,-100,4,1,0,45,0,0
64546,-100,4,1,0,38,0,0
64846,-100,4,1,0,45,0,0
66046,-100,4,1,0,38,0,0
66196,-100,4,1,0,45,0,0
69346,-100,4,1,0,38,0,0
69646,-100,4,1,0,45,0,0
73546,-100,4,1,0,50,0,0
77896,-100,4,1,0,30,0,0
78346,-100,4,1,0,50,0,0
83371,-100,4,1,0,50,0,0
83446,-100,4,1,0,50,0,0
90346,-100,4,2,0,40,0,0
91096,-100,4,2,0,35,0,0
91546,-100,4,2,0,40,0,0
92296,-100,4,2,0,30,0,0
92446,-100,4,2,0,20,0,0
92746,-133.333333333333,4,2,0,30,0,0
93046,-133.333333333333,4,2,0,20,0,0
93121,-133.333333333333,4,2,0,30,0,0
95446,-133.333333333333,4,2,0,20,0,0
95521,-133.333333333333,4,2,0,30,0,0
100171,-133.333333333333,4,2,0,20,0,0
100321,-133.333333333333,4,2,0,30,0,0
102346,-133.333333333333,4,2,0,30,0,0
109546,-133.333333333333,4,2,0,40,0,0
111946,-100,4,1,0,55,0,1
112021,-100,4,1,0,55,0,0

[Colours]
Combo1 : 17,254,176
Combo2 : 173,255,95
Combo3 : 255,88,100
Combo4 : 255,94,55

[HitObjects]
26,59,5146,5,2,0:2:0:0:
104,44,5596,1,0,0:0:0:0:
181,62,6046,1,0,0:0:0:0:
226,125,6346,5,2,0:0:0:0:
251,198,6796,1,0,0:0:0:0:
251,198,7246,1,0,0:0:0:0:
283,268,7546,5,2,0:0:0:0:
352,303,7996,1,0,0:0:0:0:
429,292,8446,1,0,0:0:0:0:
475,229,8746,5,4,0:0:0:0:
256,281,9946,1,2,0:0:0:0:
70,199,14746,5,2,0:0:0:0:
145,247,15196,2,0,L|139:260,1,10,2|0,0:3|0:0,0:0:0:0:
150,159,15646,2,0,B|198:162,1,40,0|0,0:0|1:0,0:0:0:0:
275,185,15946,6,0,L|319:188,2,40,2|0|0,0:0|1:0|3:0,0:0:0:0:
430,204,16396,2,0,B|446:205,1,10,2|0,0:3|0:0,0:0:0:0:
430,204,16846,1,0,0:0:0:0:
446,107,17146,5,2,0:0:0:0:
343,66,17596,2,0,L|327:65,1,10,2|0,0:3|0:0,0:0:0:0:
240,102,18046,1,0,0:0:0:0:
143,54,18346,6,0,L|96:53,2,40,4|0|0,0:2|1:0|3:0,0:0:0:0:
166,64,18796,2,0,L|182:64,1,10,2|0,0:3|0:0,0:0:0:0:
256,218,19546,1,2,0:0:0:0:
349,175,21346,1,2,0:0:0:0:
383,73,23146,1,2,0:0:0:0:
256,192,24346,12,0,25471,0:0:0:0:
16,353,25546,6,0,P|95:332|173:367,1,160,4|8,0:0|0:0,0:0:0:0:
211,297,25996,1,0,1:0:0:0:
252,366,26146,1,0,1:0:0:0:
166,361,26296,6,0,B|198:348|198:348|219:222,1,160,8|0,0:0|0:0,0:0:0:0:
182,103,26746,2,0,P|154:102|181:124,1,80,0|0,0:0|0:0,0:0:0:0:
371,237,27046,5,8,1:0:0:0:
306,98,27196,1,0,1:0:0:0:
218,224,27346,1,0,1:0:0:0:
301,181,27496,2,0,P|380:168|469:203,1,160,8|0,0:0|0:0,0:0:0:0:
295,339,27946,6,0,B|292:280|292:280|304:234|304:234|300:179,1,160,4|8,0:2|0:0,0:0:0:0:
454,193,28396,1,0,1:0:0:0:
378,158,28546,1,0,1:0:0:0:
314,85,28696,6,0,B|287:51|280:17|297:-14|337:-16|366:25|316:38,1,160,8|0,0:0|0:0,0:0:0:0:
94,91,29146,2,0,B|111:54|111:54|137:92,1,80,0|0,1:0|0:0,0:0:0:0:
29,230,29446,5,8,0:0:0:0:
94,91,29596,1,0,1:0:0:0:
182,217,29746,1,0,1:0:0:0:
29,230,29896,2,0,P|12:311|43:379,1,160,8|0,0:0|0:0,0:0:0:0:
266,233,30346,6,0,B|226:214|226:214|105:221,1,160,6|8,0:0|0:0,0:0:0:0:
312,376,30796,1,0,1:0:0:0:
312,376,30946,2,0,P|318:333|305:296,1,80,0|8,1:0|0:0,0:0:0:0:
261,156,31246,2,0,P|253:189|268:236,1,80,0|0,0:0|0:0,0:0:0:0:
509,236,31546,5,2,1:0:0:0:
399,335,31696,2,0,P|405:292|392:255,1,80,0|8,0:0|2:1,0:0:0:0:
509,236,31996,5,2,1:0:0:0:
393,257,32146,2,0,P|387:214|400:177,1,80,0|8,1:0|2:1,0:0:0:0:
509,236,32446,5,10,0:0:0:0:
398,179,32596,1,4,0:2:0:0:
509,103,32746,2,0,P|475:86|478:108,1,80,6|0,0:0|0:0,0:0:0:0:
254,24,33046,5,8,0:0:0:0:
244,102,33196,2,0,L|233:207,1,80,0|0,1:0|1:0,0:0:0:0:
154,346,33496,2,0,L|161:261,1,80,8|0,0:0|0:0,0:0:0:0:
317,271,33796,2,0,L|232:264,1,80,0|2,0:0|0:0,0:0:0:0:
112,128,34096,5,8,0:0:0:0:
68,226,34246,1,10,2:0:0:0:
68,226,34321,1,10,2:0:0:0:
68,226,34396,2,0,L|62:277,1,40,4|0,0:0|0:0,0:0:0:0:
160,266,34546,6,2,B|188:275|188:275|245:263,1,80,0|12,0:0|0:0,0:0:0:0:
407,205,34846,2,2,B|379:196|379:196|322:208,1,80,4|0,0:0|0:0,0:0:0:0:
481,353,35146,5,4,0:0:0:0:
481,353,35446,1,8,0:0:0:0:
426,289,35596,1,0,0:0:0:0:
407,205,35746,2,0,B|393:168|393:168|409:117,1,80,0|8,0:0|0:0,0:0:0:0:
508,60,36046,1,0,0:0:0:0:
508,60,36196,2,0,B|519:99|519:99|507:136,1,80,0|0,0:0|0:0,0:0:0:0:
405,215,36496,6,0,L|313:212,1,80,2|8,0:2|0:0,0:0:0:0:
305,219,36796,2,0,P|299:258|319:293,1,80,2|0,0:2|0:0,0:0:0:0:
394,125,37096,2,2,B|421:81|382:-25|320:41|373:97|417:7,1,160,10|2,0:0|2:1,0:0:0:0:
402,33,37546,6,0,L|233:40,1,160,4|8,0:0|0:0,0:0:0:0:
151,58,37996,1,0,0:0:0:0:
212,127,38146,1,0,0:0:0:0:
242,39,38296,1,8,0:0:0:0:
151,58,38446,5,0,0:0:0:0:
113,176,38596,2,0,P|144:203|184:209,1,80,2|0,0:2|0:0,0:0:0:0:
41,41,38896,2,0,P|40:80|66:123,1,80,2|8,0:2|0:0,0:0:0:0:
113,176,39196,1,0,0:0:0:0:
113,176,39496,6,2,B|123:205|123:205|158:177|221:177|249:208,1,160,10|2,0:0|2:1,0:1:0:0:
398,166,39946,2,0,B|350:235|350:235|321:150,1,160,4|8,0:2|0:0,0:0:0:0:
243,202,40396,1,0,0:0:0:0:
185,268,40546,1,0,0:0:0:0:
206,353,40696,1,8,0:0:0:0:
291,373,40846,1,0,0:0:0:0:
272,285,40996,6,0,P|305:303|347:303,1,80,2|0,0:2|0:0,0:0:0:0:
408,174,41296,2,0,P|375:193|354:229,1,80,2|8,0:2|0:0,0:0:0:0:
436,347,41596,2,0,P|435:309|414:273,1,80,2|0,0:0|0:0,0:0:0:0:
408,174,41896,2,2,B|434:133|430:87|397:58|397:58|447:81,1,160,10|2,0:0|2:1,0:0:0:0:
292,151,42346,6,0,P|258:162|215:159,1,80,2|0,0:0|0:0,0:0:0:0:
174,15,42646,1,8,0:0:0:0:
215,159,42796,6,0,B|178:183|178:183|142:154,1,80,2|0,0:0|0:0,0:0:0:0:
174,15,43096,1,8,0:0:0:0:
150,160,43246,2,0,P|106:158|54:198,2,80,2|0|0,0:0|0:0|0:0,0:0:0:0:
120,300,43696,6,0,L|121:322,1,20
125,232,43846,2,0,L|131:322,1,80,8|0,0:0|0:0,0:0:0:0:
244,286,44146,6,0,L|245:308,1,20,0|0,0:0|0:0,0:0:0:0:
353,266,44296,6,0,L|354:288,1,20,8|0,0:0|0:0,0:0:0:0:
388,297,44746,6,0,B|366:280|366:280|373:205,2,80,4|0|8,0:0|0:0|0:0,0:0:0:0:
478,221,45196,1,0,0:0:0:0:
370,228,45346,1,0,0:0:0:0:
417,130,45496,2,0,P|427:86|411:37,1,80,8|0,0:0|0:0,0:0:0:0:
264,36,45796,6,0,P|224:47|199:91,1,80,2|0,0:2|0:0,0:0:0:0:
133,37,46096,2,0,P|109:71|118:120,1,80,4|8,0:2|0:0,0:0:0:0:
35,132,46396,2,0,P|38:173|68:211,1,80,2|0,0:0|0:0,0:0:0:0:
25,287,46696,6,0,P|100:312|178:301,1,160,10|0,0:0|0:0,0:0:0:0:
436,258,47146,2,0,B|382:316|382:316|367:237,1,160,4|8,0:0|0:0,0:0:0:0:
355,161,47596,5,0,0:0:0:0:
355,161,47746,2,0,P|352:201|368:238,1,80,0|8,0:0|0:0,0:0:0:0:
404,99,48046,1,0,0:0:0:0:
404,99,48196,2,0,P|407:59|389:15,1,80,2|0,0:2|0:0,0:0:0:0:
241,70,48496,2,0,P|282:61|339:72,1,80,2|8,0:2|0:0,0:0:0:0:
508,179,48796,2,0,P|470:190|410:177,1,80,4|0,0:2|0:0,0:0:0:0:
319,65,49096,5,8,0:0:0:0:
321,46,49396,1,4,0:2:0:0:
300,194,49546,2,0,P|242:232|265:181,1,160,6|8,0:0|0:0,0:0:0:0:
94,245,49996,5,0,0:0:0:0:
94,245,50146,2,0,B|98:205|98:205|120:248,1,80,0|8,0:0|0:0,0:0:0:0:
192,365,50446,1,0,0:0:0:0:
192,365,50596,6,0,L|288:358,1,80,2|0,0:2|0:0,0:0:0:0:
171,293,50896,2,0,L|250:238,1,80,4|8,0:2|0:0,0:0:0:0:
117,241,51196,2,0,L|158:154,1,80,2|0,0:0|0:0,0:0:0:0:
44,222,51496,2,0,L|36:126,1,80,10|0,0:0|0:0,0:0:0:0:
38,142,51796,1,0,2:0:0:0:
156,79,51946,5,4,0:2:0:0:
156,79,52021,1,0,0:0:0:0:
156,79,52096,2,0,L|213:76,1,40,0|0,0:0|0:0,0:0:0:0:
340,110,52246,2,0,L|283:113,3,40,8|0|0|0,0:0|0:0|0:0|0:0,0:0:0:0:
174,163,52546,5,4,0:2:0:0:
174,163,52621,1,0,0:0:0:0:
174,163,52696,2,0,L|231:160,1,40,8|0,0:0|0:0,0:0:0:0:
358,194,52846,2,0,L|301:197,3,40
277,332,53146,5,4,0:2:0:0:
277,332,53221,1,0,0:0:0:0:
277,332,53296,2,0,L|317:331,1,40,8|0,0:0|0:0,0:0:0:0:
434,273,53446,5,4,0:2:0:0:
434,273,53521,1,0,0:0:0:0:
434,273,53596,2,0,L|395:275,1,40,8|0,0:0|0:0,0:0:0:0:
462,255,53746,6,0,L|461:229,1,20,12|0,0:2|0:0,0:0:0:0:
328,230,53896,5,8,0:0:0:0:
194,203,54046,6,0,L|193:177,1,20,12|0,0:2|0:0,0:0:0:0:
60,184,54196,5,8,0:0:0:0:
39,57,54346,6,0,P|126:41|201:79,1,160,6|0,0:0|0:0,0:0:0:0:
274,27,54796,1,8,0:0:0:0:
274,27,54946,2,0,L|359:22,1,80,8|8,2:0|2:0,0:0:0:0:
469,128,55246,2,0,L|384:133,1,80,10|0,0:0|0:0,0:0:0:0:
253,151,55546,6,0,B|216:171|160:161|133:132|153:80|222:96|207:143,1,160,2|8,0:0|0:0,0:0:0:0:
223,247,55996,2,0,B|251:269|247:312|222:346|222:346|285:301,1,160,4|8,0:2|0:0,0:0:0:0:
325,264,56446,1,0,2:0:0:0:
325,264,56596,1,0,2:0:0:0:
31,353,56746,6,0,P|72:274|43:176,1,160,2|0,0:0|0:0,0:0:0:0:
125,105,57196,2,0,B|72:117|26:77|26:77|4:103|47:131,1,160,10|0,0:0|0:0,0:0:0:0:
245,101,57646,2,0,P|288:100|338:70,1,80,10|0,0:0|0:0,0:0:0:0:
482,135,57946,2,0,P|439:136|390:166,1,80,4|0,0:2|0:0,0:0:0:0:
341,254,58246,5,8,0:0:0:0:
461,259,58396,1,0,0:0:0:0:
406,151,58546,1,8,0:0:0:0:
43,272,59146,6,0,B|96:288|96:288|229:268,1,160,6|0,0:0|0:0,0:0:0:0:
243,346,59596,1,10,0:0:0:0:
243,346,59746,2,0,P|204:356|165:352,1,80,8|8,2:0|2:0,0:0:0:0:
154,202,60046,2,0,P|192:191|232:196,1,80,8|0,0:0|0:0,0:0:0:0:
396,270,60346,6,0,B|374:233|374:233|377:281|354:320|299:330,1,160,2|8,0:0|0:0,0:0:0:0:
378,61,60796,2,0,B|363:113|394:158|394:158|422:153|436:123|413:94,1,160,4|8,0:2|0:0,0:0:0:0:
306,104,61246,1,0,2:0:0:0:
306,104,61396,1,0,2:0:0:0:
297,247,61546,5,2,0:0:0:0:
181,89,61696,2,0,B|234:66|234:66|178:40,1,120,2|0,0:0|2:0,0:0:0:0:
306,104,61996,2,0,P|332:174|288:253,1,160,10|0,0:0|0:0,0:0:0:0:
122,250,62446,2,0,P|77:247|25:276,1,80,10|0,0:0|0:0,0:0:0:0:
219,256,62746,2,0,P|264:259|316:230,1,80,4|0,0:2|0:0,0:0:0:0:
222,157,63046,6,0,P|222:174|239:150,1,80,8|2,0:0|0:3,0:0:0:0:
371,297,63946,5,2,0:0:0:0:
491,302,64096,2,0,L|369:297,1,120,2|0,0:0|2:0,0:0:0:0:
296,339,64396,1,8,0:0:0:0:
296,339,64546,2,0,L|205:335,1,80,8|8,2:0|2:0,0:0:0:0:
68,258,64846,2,0,L|147:261,1,80,8|0,0:0|0:0,0:0:0:0:
459,174,65146,5,2,0:0:0:0:
371,297,65296,2,0,P|355:255|365:216,1,80,0|8,0:0|0:0,0:0:0:0:
361,221,65596,1,2,0:0:0:0:
450,99,65746,2,0,P|466:141|456:180,1,80,2|8,0:0|0:0,0:0:0:0:
459,174,66046,1,8,2:0:0:0:
459,174,66196,1,0,2:0:0:0:
341,35,66346,6,0,B|290:24|290:24|182:51,1,160,6|0,0:0|0:0,0:0:0:0:
81,179,66796,2,0,B|114:213|114:213|85:142|140:90,1,160,10|0,0:0|0:0,0:0:0:0:
177,368,67246,2,0,L|182:288,1,80,10|0,0:0|0:0,0:0:0:0:
81,179,67546,2,0,L|75:258,1,80,2|0,0:0|0:0,0:0:0:0:
102,367,67846,5,8,0:0:0:0:
183,288,67996,1,0,0:0:0:0:
75,258,68146,1,8,0:0:0:0:
298,331,68746,5,2,0:0:0:0:
398,322,68896,2,2,B|373:295|373:295|272:344,1,120,2|0,0:0|2:0,0:0:0:0:
224,363,69196,1,8,0:0:0:0:
371,295,69346,2,0,P|357:247|376:208,1,80,8|8,2:0|2:0,0:0:0:0:
446,41,69646,5,8,0:0:0:0:
511,143,69796,1,0,0:0:0:0:
387,148,69946,2,0,B|359:141|359:141|292:168,1,80,2|0,0:0|0:0,0:0:0:0:
79,212,70246,5,8,0:0:0:0:
293,242,70396,1,0,0:0:0:0:
228,185,70546,2,0,P|237:221|208:284,2,80,2|0|4,0:0|0:0|0:2,0:0:0:0:
228,185,70996,1,0,0:0:0:0:
79,212,71146,6,0,B|123:274|99:343|16:312|65:258,1,160,2|0,0:0|0:0,0:0:0:0:
341,150,71596,2,0,B|306:132|306:132|339:162|337:218|298:246,1,160,10|0,0:0|0:0,0:0:0:0:
117,78,72046,2,0,P|122:44|140:76,1,80,10|0,0:0|0:0,0:0:0:0:
358,186,72346,5,12,0:0:0:0:
239,183,72496,5,8,0:0:0:0:
120,179,72646,5,8,0:0:0:0:
109,43,73546,6,0,B|158:41|158:41|212:53|212:53|299:49,1,160,4|8,0:0|0:0,0:0:0:0:
141,231,73996,2,0,P|121:193|146:126,1,80,2|0,0:0|0:0,0:0:0:0:
267,50,74296,2,0,P|287:88|262:155,1,80,8|2,0:0|0:0,0:0:0:0:
444,119,74596,1,8,0:0:0:0:
444,119,74746,6,0,L|263:124,1,160,2|8,0:0|0:0,0:0:0:0:
124,157,75196,2,0,B|148:181|148:181|171:111,1,80,2|0,0:1|0:0,0:0:0:0:
71,72,75496,1,8,0:0:0:0:
10,156,75646,1,4,0:2:0:0:
64,244,75796,1,0,0:0:0:0:
24,340,75946,6,0,B|65:330|65:330|187:349,1,160,2|8,0:0|0:0,0:0:0:0:
421,332,76396,2,0,P|444:355|418:336,1,80,2|0,0:0|0:0,0:0:0:0:
254,277,76696,5,8,0:0:0:0:
355,263,76846,1,2,0:0:0:0:
314,358,76996,1,8,0:0:0:0:
287,157,77146,6,2,B|272:106|280:62|280:62|318:58|333:103|317:126,1,160,2|10,0:0|0:0,0:0:0:0:
182,112,77596,1,0,0:0:0:0:
182,112,77746,2,4,P|142:112|103:119,1,80,2|2,2:3|2:3,0:0:0:0:
21,345,78346,6,0,P|106:337|198:392,1,160,6|8,0:0|0:0,0:0:0:0:
253,203,78796,2,0,P|218:194|156:222,1,80,2|0,0:0|0:0,0:0:0:0:
29,262,79096,1,8,0:0:0:0:
100,336,79246,2,0,P|135:345|197:317,1,80,2|8,0:0|0:0,0:0:0:0:
253,203,79546,6,0,L|245:33,1,160,6|8,0:0|0:0,0:0:0:0:
470,96,79996,2,0,B|431:89|431:89|391:99,1,80,2|0,0:0|0:0,0:0:0:0:
253,203,80296,1,8,0:0:0:0:
253,203,80446,2,0,B|290:213|290:213|333:199,1,80,2|0,0:0|0:0,0:0:0:0:
135,329,80746,6,0,B|81:370|21:356|9:288|58:276|94:327,1,160,2|8,0:0|0:0,0:0:0:0:
306,322,81196,2,0,B|298:336|298:359|298:359|267:331,1,80,2|0,0:0|0:0,0:0:0:0:
399,134,81496,5,8,0:0:0:0:
456,216,81646,1,2,0:0:0:0:
356,224,81796,1,8,0:0:0:0:
402,188,81946,6,2,P|318:177|235:213,1,160,2|10,0:0|0:0,0:0:0:0:
142,189,82396,1,4,0:2:0:0:
71,124,82546,1,0,0:0:0:0:
9,58,83146,6,0,B|64:43|64:43|176:59,1,160,4|8,0:0|0:0,0:0:0:0:
250,89,83596,1,0,0:0:0:0:
456,51,83746,5,2,0:0:0:0:
426,144,83896,1,8,0:0:0:0:
333,114,84046,1,0,0:0:0:0:
363,21,84196,1,8,0:0:0:0:
303,195,84346,6,0,P|235:178|145:222,1,160,4|8,0:2|0:0,0:0:0:0:
58,242,84796,1,0,0:0:0:0:
112,336,84946,2,0,P|145:326|118:305,1,80,2|8,0:0|0:0,0:0:0:0:
58,242,85246,1,0,0:0:0:0:
58,242,85396,1,0,0:0:0:0:
375,249,85546,6,0,B|336:321|336:321|290:229,1,160,4|8,0:0|0:0,0:0:0:0:
451,186,85996,1,2,0:0:0:0:
355,167,86146,1,0,0:0:0:0:
379,41,86296,1,8,0:0:0:0:
475,60,86446,1,2,0:0:0:0:
451,186,86596,1,8,0:0:0:0:
190,149,86746,6,0,P|205:208|148:173,1,160,2|8,0:0|0:0,0:0:0:0:
9,125,87196,2,0,B|-8:70|-3:20|56:4|71:60|37:77,1,160,2|0,0:0|0:0,0:0:0:0:
14,268,87646,2,0,P|62:261|116:277,1,80,2|0,0:0|0:0,0:0:0:0:
219,307,87946,6,0,B|267:322|267:322|403:305,1,160,4|8,0:0|0:0,0:0:0:0:
393,159,88396,1,2,0:0:0:0:
296,172,88546,1,0,0:0:0:0:
278,321,88696,1,8,0:0:0:0:
375,308,88846,1,2,0:0:0:0:
278,321,88996,1,8,0:0:0:0:
393,159,89146,6,0,L|219:153,1,160,4|8,0:0|0:0,0:0:0:0:
233,153,89596,1,0,0:0:0:0:
92,39,89746,2,0,L|171:42,1,80,0|8,0:0|0:0,0:0:0:0:
318,157,90046,2,0,L|238:153,1,80,4|0,0:2|0:0,0:0:0:0:
95,140,90346,5,6,1:3:0:0:
238,153,90496,5,2,1:3:0:0:
381,169,90646,5,2,1:3:0:0:
466,179,91096,6,0,P|485:180|461:185,1,80,12|0,0:2|0:0,0:0:0:0:
379,178,91546,5,6,1:3:0:0:
236,162,91696,5,2,1:3:0:0:
93,149,91846,5,2,1:3:0:0:
0,130,92296,6,0,B|15:174|15:174|17:129,1,80,4|8,1:2|0:0,0:0:0:0:
386,52,92746,6,0,L|410:47,3,20.0000007629395,2|0|0|0,0:3|0:0|0:0|0:0,0:0:0:0:
267,43,93046,5,4,0:2:0:0:
258,162,93496,1,0,0:0:0:0:
377,171,93946,1,0,0:3:0:0:
386,52,94396,1,2,0:0:0:0:
386,52,94846,1,2,0:0:0:0:
139,171,95146,6,0,L|104:166,3,20.0000007629395,2|0|0|0,0:3|0:0|0:0|0:0,0:0:0:0:
258,162,95446,5,4,0:2:0:0:
206,269,95896,1,2,0:0:0:0:
139,171,96196,1,2,0:0:0:0:
139,171,96346,6,0,P|195:152|266:164,2,120.000004577637,0|0|0,3:0|3:0|3:0,0:0:0:0:
139,171,97096,2,0,L|134:247,1,60.0000022888184,0|8,3:0|0:0,0:0:0:0:
126,52,97546,6,0,L|91:47,3,20.0000007629395,2|0|0|0,0:3|0:0|0:0|0:0,0:0:0:0:
250,44,97846,5,4,0:2:0:0:
259,163,98296,1,0,0:0:0:0:
140,172,98746,1,0,0:3:0:0:
131,53,99196,1,2,0:0:0:0:
131,53,99346,2,0,L|128:12,4,30.0000011444092,2|0|0|0|0,0:0|0:0|0:0|0:0|0:0,0:0:0:0:
388,172,99946,6,0,L|425:167,3,20.0000007629395,2|0|0|0,0:3|0:0|0:0|0:0,0:0:0:0:
259,163,100246,5,12,0:2:0:0:
315,279,100696,1,2,0:0:0:0:
388,172,100996,1,2,0:0:0:0:
324,206,101296,5,0,1:0:0:0:
324,206,101446,1,8,0:0:0:0:
341,80,101596,1,0,1:0:0:0:
341,80,101746,1,8,0:0:0:0:
324,206,101896,1,8,0:0:0:0:
341,80,102046,1,8,0:0:0:0:
14,128,102346,5,2,1:2:0:0:
84,89,102496,1,0,0:0:0:0:
163,83,102646,1,0,0:2:0:0:
236,115,102796,6,0,L|367:112,1,120,4|0,1:2|0:3,0:0:0:0:
486,28,103246,2,0,L|407:30,1,60.0000022888184,2|0,0:2|0:0,0:0:0:0:
356,113,103546,5,2,1:2:0:0:
349,36,103696,1,0,0:0:0:0:
426,29,103846,1,0,0:0:0:0:
433,106,103996,6,0,B|448:148|448:148|433:224,1,120.000004577637,4|0,1:2|0:1,0:0:0:0:
302,262,104446,2,0,P|333:257|360:262,1,60.0000022888184,2|0,0:2|0:0,0:0:0:0:
329,338,104746,5,2,1:2:0:0:
252,355,104896,1,0,0:0:0:0:
174,353,105046,1,0,0:0:0:0:
99,329,105196,6,0,B|63:340|31:318|19:293|35:271|77:264|67:312,1,120.000004577637,4|0,1:2|0:1,0:0:0:0:
160,271,105646,2,0,L|231:275,1,60.0000022888184,2|0,0:0|0:0,0:0:0:0:
298,211,105946,5,2,1:2:0:0:
314,311,106096,1,0,0:0:0:0:
219,274,106246,1,0,0:0:0:0:
298,211,106396,6,0,L|305:79,1,120.000004577637,4|0,1:0|0:1,0:0:0:0:
424,46,106846,2,0,B|404:39|404:39|351:45,1,60.0000022888184,2|0,0:0|0:0,0:0:0:0:
198,120,107146,5,2,1:2:0:0:
304,91,107296,1,0,0:0:0:0:
226,14,107446,1,8,0:1:0:0:
198,120,107596,5,0,1:0:0:0:
198,120,107746,1,0,1:0:0:0:
93,103,107896,1,8,0:1:0:0:
93,103,108046,2,0,P|89:126|97:167,1,60.0000022888184,0|8,0:0|0:0,0:0:0:0:
138,233,108346,5,2,1:2:0:0:
208,265,108496,1,0,0:0:0:0:
285,255,108646,1,8,0:1:0:0:
237,192,108796,5,0,1:0:0:0:
237,192,108946,1,0,1:0:0:0:
174,145,109096,1,8,0:1:0:0:
174,145,109246,2,0,L|179:69,1,60.0000022888184,0|0,0:0|0:0,0:0:0:0:
18,223,109546,5,0,1:0:0:0:
34,323,109696,1,2,0:3:0:0:
126,211,109846,5,0,1:0:0:0:
126,313,109996,1,2,0:3:0:0:
249,224,110146,5,0,3:0:0:0:
216,322,110296,1,2,0:3:0:0:
355,271,110446,5,0,1:0:0:0:
286,362,110596,1,2,0:3:0:0:
365,348,110746,5,0,1:0:0:0:
274,279,110896,1,2,0:3:0:0:
414,265,111046,5,2,0:0:0:0:
384,271,111121,1,2,0:0:0:0:
354,270,111196,1,2,0:0:0:0:
230,173,111346,1,8,0:0:0:0:
256,192,111364,12,0,111908,0:0:0:0:
230,173,111946,5,4,0:0:0:0:
290,30,112096,1,0,0:0:0:0:
136,51,112246,2,0,P|95:49|47:67,1,80,2|0,0:0|0:0,0:0:0:0:
290,30,112546,5,2,0:0:0:0:
82,217,112696,2,2,B|77:148|77:148|63:111|63:111|57:51,1,160
221,93,113146,5,2,0:0:0:0:
82,217,113296,1,4,0:2:0:0:
82,217,113596,5,0,0:0:0:0:
258,275,113746,1,2,0:0:0:0:
221,93,113896,1,2,0:0:0:0:
186,189,114046,2,0,L|284:190,1,80,2|0,0:0|0:0,0:0:0:0:
417,173,114346,5,0,0:0:0:0:
265,189,114496,1,0,0:0:0:0:
281,341,114646,1,2,0:0:0:0:
281,341,114946,5,2,0:0:0:0:
433,325,115096,1,2,0:0:0:0:
417,173,115246,2,2,B|443:206|443:206|394:206,1,80
257,264,115546,5,2,0:0:0:0:
417,173,115696,1,2,0:0:0:0:
257,264,115846,1,2,0:0:0:0:
417,173,115996,1,4,0:2:0:0:
258,79,116146,2,2,L|254:17,3,40,2|2|2|2,2:0|2:0|2:0|2:0,2:0:0:0:
255,39,116446,2,0,P|217:37|164:58,1,80,4|0,0:2|0:0,0:0:0:0:
79,165,116746,5,2,0:0:0:0:
227,192,116896,1,2,0:0:0:0:
177,49,117046,1,2,0:0:0:0:
372,220,117196,5,2,0:0:0:0:
249,112,117346,1,2,0:0:0:0:
405,61,117496,1,2,0:0:0:0:
227,192,117646,5,0,0:0:0:0:
107,230,117796,1,2,0:0:0:0:
227,192,117946,1,2,0:0:0:0:
265,312,118096,5,2,0:0:0:0:
145,350,118246,1,2,0:0:0:0:
107,230,118396,1,2,0:0:0:0:
107,230,118546,2,0,B|81:263|81:263|130:263,2,80,4|0|0,0:2|0:0|0:0,0:0:0:0:
443,103,119146,5,2,0:0:0:0:
395,213,119296,1,2,0:0:0:0:
273,203,119446,1,2,0:0:0:0:
350,22,119596,5,2,0:0:0:0:
246,85,119746,1,2,0:0:0:0:
273,203,119896,1,2,0:0:0:0:
443,103,120046,2,0,B|454:80|444:52|444:52|425:54|417:69,1,80,2|0,0:0|0:0,0:0:0:0:
98,191,120346,5,8,0:0:0:0:
273,203,120496,5,8,0:0:0:0:
448,209,120646,5,8,0:0:0:0:
