osu file format v14

[General]
AudioFilename: audio.mp3
AudioLeadIn: 0
PreviewTime: -1
Countdown: 0
SampleSet: Soft
StackLeniency: 0.7
Mode: 0
LetterboxInBreaks: 0
WidescreenStoryboard: 1

[Editor]
Bookmarks: 9057,26511,35237
DistanceSpacing: 0.7
BeatDivisor: 4
GridSize: 8
TimelineZoom: 1.1

[Metadata]
Title:tous les memes
TitleUnicode:tous les mêmes
Artist:Stromae
ArtistUnicode:Stromae
Creator:Zeorii
Version:Facile
Source:
Tags:Stromae, Tous Les Memes
BeatmapID:1158239
BeatmapSetID:546829

[Difficulty]
HPDrainRate:2
CircleSize:3
OverallDifficulty:1.3
ApproachRate:3
SliderMultiplier:1.1
SliderTickRate:1

[Events]
//Background and Video events
0,0,"Stromae 2.jpg",0,0
Video,0,"Video800x600.avi"
//Break Periods
2,61620,68708
2,113984,125435
2,157620,173435
//Storyboard Layer 0 (Background)
//Storyboard Layer 1 (Fail)
//Storyboard Layer 2 (Pass)
//Storyboard Layer 3 (Foreground)
//Storyboard Sound Samples

[TimingPoints]
328,545.454545454546,4,2,1,70,1,0
330,545.454545454546,4,2,1,70,1,0
26509,-76.9230769230769,4,2,1,70,0,1
35237,-100,4,2,1,70,0,0
70148,-76.9230769230769,4,2,1,70,0,1
78875,-100,4,2,1,70,0,0
131784,-76.9230769230769,4,2,1,70,0,1
139966,-100,4,2,1,70,0,0
153057,-80,4,2,1,70,0,0
155239,-100,4,2,1,70,0,0
174875,-76.9230769230769,4,2,1,70,0,1
191784,-100,4,2,1,70,0,0

[Colours]
Combo1 : 238,234,57
Combo2 : 231,185,236
Combo3 : 252,170,158
Combo4 : 47,170,96
Combo5 : 134,223,223
Combo6 : 128,0,64
Combo7 : 204,0,102

[HitObjects]
136,240,9057,5,0,0:0:0:0:
125,151,9602,2,0,P|191:162|224:208,2,110
104,72,11239,2,0,P|224:80|304:160,1,220
296,248,12875,1,0,0:0:0:0:
400,264,13420,5,0,0:0:0:0:
454,174,13966,1,0,0:0:0:0:
454,174,14511,2,0,L|454:54,2,110
456,184,16148,2,0,L|352:248,1,110
461,266,17239,6,0,B|429:299|368:336|376:304,1,110
264,320,18330,1,0,0:0:0:0:
240,216,18875,1,0,0:0:0:0:
312,136,19420,5,0,0:0:0:0:
312,152,19966,2,0,P|176:168|136:112,1,220
152,96,21602,1,0,0:0:0:0:
152,96,22148,2,0,L|272:56,1,110
344,48,23239,2,0,P|456:80|456:184,1,220
384,128,24875,5,0,0:0:0:0:
256,192,24966,12,0,26511,0:0:0:0:
256,200,27057,6,0,L|256:40,1,142.99999345398
256,48,28148,2,0,B|408:48,1,142.99999345398
400,80,29239,1,0,0:0:0:0:
400,80,29784,2,0,L|400:232,2,142.99999345398
328,122,31420,6,0,L|256:176,2,71.4999967269899
268,61,32511,1,0,0:0:0:0:
190,112,33057,1,0,0:0:0:0:
104,144,33602,2,0,L|104:288,1,142.99999345398
176,328,34693,1,8,0:0:0:0:
178,158,35239,5,0,0:0:0:0:
257,106,35784,1,8,0:0:0:0:
264,200,36330,1,0,0:0:0:0:
344,136,36875,1,8,0:0:0:0:
352,224,37420,2,0,L|488:224,1,110,0|8,0:0|0:0,0:0:0:0:
440,312,38511,2,0,L|312:312,1,110
459,255,39602,5,0,0:0:0:0:
459,255,40148,1,8,0:0:0:0:
464,263,40693,2,0,L|464:128,1,110,0|8,0:0|0:0,0:0:0:0:
461,120,41784,2,0,L|328:120,1,110,0|8,0:0|0:0,0:0:0:0:
318,119,42875,1,0,0:0:0:0:
318,119,43420,1,8,0:0:0:0:
385,87,46148,6,0,P|321:46|272:64,1,110
269,151,47239,1,0,0:0:0:0:
160,152,47784,2,0,L|64:56,1,110
55,55,48875,1,0,0:0:0:0:
16,131,49420,2,0,L|128:208,2,110
68,69,51057,5,0,0:0:0:0:
148,35,51602,1,0,0:0:0:0:
226,70,52148,1,0,0:0:0:0:
188,144,52693,1,0,0:0:0:0:
274,144,53239,1,0,0:0:0:0:
343,204,53784,6,0,P|325:256|256:248,3,110,0|8|0|8,0:0|0:0|0:0|0:0,0:0:0:0:
250,251,55966,1,0,0:0:0:0:
250,251,56511,2,0,P|300:214|288:152,1,110
285,65,57602,1,8,0:0:0:0:
370,62,58148,2,0,P|424:23|480:32,3,110,0|8|0|8,0:0|0:0|0:0|0:0,0:0:0:0:
491,41,60330,2,0,L|488:176,1,110,0|8,0:0|0:0,0:0:0:0:
488,179,61420,1,4,0:0:0:0:
306,53,70148,6,0,L|464:48,2,142.99999345398
304,52,71784,1,8,0:0:0:0:
309,155,72330,2,0,P|279:201|440:264,2,285.99998690796
308,153,75057,1,0,0:0:0:0:
224,154,75602,1,0,0:0:0:0:
224,154,76148,2,0,L|224:304,3,142.99999345398,8|0|8|0,0:0|0:0|0:0|0:0,0:0:0:0:
151,297,78875,6,0,B|60:270|104:259|107:256|160:256|152:232,3,110
154,218,81057,1,0,0:0:0:0:
160,140,81602,1,0,0:0:0:0:
160,140,82148,2,0,L|48:72,1,110,0|8,0:0|0:0,0:0:0:0:
46,66,83239,5,0,0:0:0:0:
4,148,83784,1,0,0:0:0:0:
79,196,84330,1,0,0:0:0:0:
79,196,84875,2,0,L|208:192,2,110
80,195,86511,2,0,L|80:64,1,110,0|8,0:0|0:0,0:0:0:0:
182,53,87602,5,0,0:0:0:0:
254,110,88148,1,0,0:0:0:0:
322,171,88693,1,0,0:0:0:0:
322,171,89239,2,0,B|322:92|321:92|341:116|376:152,2,110
322,171,90875,1,0,0:0:0:0:
322,171,91420,1,8,0:0:0:0:
380,158,91966,6,0,P|374:217|320:224,3,110
256,192,94148,12,0,96330,0:0:0:0:
254,102,98511,6,0,L|368:168,1,110,0|8,0:0|0:0,0:0:0:0:
374,173,99602,2,0,L|272:248,1,110,0|8,0:0|0:0,0:0:0:0:
255,246,100693,2,0,L|368:304,2,110
167,242,102330,2,0,L|32:240,1,110,8|0,0:0|0:0,0:0:0:0:
29,239,103420,1,8,0:0:0:0:
89,159,103966,6,0,P|146:104|176:128,1,110,0|8,0:0|0:0,0:0:0:0:
177,133,105057,2,0,P|211:166|280:136,1,110,0|8,0:0|0:0,0:0:0:0:
286,132,106148,2,0,P|347:107|384:144,1,110,0|8,0:0|0:0,0:0:0:0:
376,249,107239,1,0,0:0:0:0:
376,249,107784,2,0,L|144:248,1,220,8|0,0:0|0:0,0:0:0:0:
94,248,109420,1,0,0:0:0:0:
99,170,109966,6,0,L|96:48,3,110,8|0|8|0,0:0|0:0|0:0|0:0,0:0:0:0:
96,28,112148,2,0,L|232:32,1,110
233,25,113239,2,8,L|232:152,1,110,8|12,0:0|0:0,0:0:0:0:
256,192,126875,12,0,131239,0:0:0:0:
255,90,131784,6,0,L|400:88,1,142.99999345398
443,173,132875,2,0,L|296:176,2,142.99999345398
441,173,134511,1,0,0:0:0:0:
441,173,135057,2,8,L|488:312,1,142.99999345398
446,315,136148,6,0,L|288:320,1,142.99999345398
305,316,137239,2,0,L|304:160,1,142.99999345398
300,174,138330,2,0,L|136:176,3,142.99999345398
160,88,140511,1,0,0:0:0:0:
243,134,141057,1,0,0:0:0:0:
328,88,141602,1,8,0:0:0:0:
328,88,142148,2,0,L|416:176,2,110,0|8|0,0:0|0:0|0:0,0:0:0:0:
326,86,143784,1,8,0:0:0:0:
240,91,144330,6,0,L|240:224,1,110,0|8,0:0|0:0,0:0:0:0:
240,232,145420,2,0,L|112:232,1,110,0|8,0:0|0:0,0:0:0:0:
98,229,146511,2,0,B|160:264|112:144|184:184,3,110,0|8|0|8,0:0|0:0|0:0|0:0,0:0:0:0:
186,103,148693,5,0,0:0:0:0:
186,103,149239,1,8,0:0:0:0:
187,192,149784,1,0,0:0:0:0:
187,192,150330,1,8,0:0:0:0:
208,192,150875,2,0,L|329:191,3,110,0|8|0|8,0:0|0:0|0:0|0:0,0:0:0:0:
326,191,153057,6,8,B|298:224|252:176|252:176|213:230|172:176|172:176|127:228|88:192|88:192,2,275,0|0|0,0:0|0:0|0:0,0:0:0:0:
326,191,155784,1,0,0:0:0:0:
326,191,156330,1,0,0:0:0:0:
408,200,156875,2,0,L|408:64,1,110,8|12,0:0|0:0,0:0:0:0:
336,113,174875,5,0,0:0:0:0:
275,186,175420,1,8,0:0:0:0:
343,251,175966,1,0,0:0:0:0:
273,316,176511,1,8,0:0:0:0:
273,316,177057,1,0,0:0:0:0:
180,316,177602,5,8,0:0:0:0:
180,230,178148,1,0,0:0:0:0:
180,230,178693,2,0,P|159:160|224:144,1,142.99999345398,8|0,0:0|0:0,0:0:0:0:
209,137,179784,6,0,L|344:56,1,142.99999345398,8|8,0:0|0:0,0:0:0:0:
352,64,180875,2,0,L|352:216,1,142.99999345398,8|0,0:0|0:0,0:0:0:0:
432,176,181966,2,0,L|432:24,1,142.99999345398,8|0,0:0|0:0,0:0:0:0:
310,43,183057,2,8,P|231:79|240:144,1,142.99999345398,8|0,0:0|0:0,0:0:0:0:
236,123,184148,5,0,0:0:0:0:
236,123,184693,1,8,0:0:0:0:
236,123,185239,2,0,B|281:172|281:172|341:121|352:112,3,142.99999345398,0|8|0|8,0:0|0:0|0:0|0:0,0:0:0:0:
336,120,187420,2,8,L|504:120,1,142.99999345398
472,144,188511,6,0,L|472:296,1,142.99999345398,0|8,0:0|0:0,0:0:0:0:
456,296,189602,2,0,L|304:296,1,142.99999345398,0|8,0:0|0:0,0:0:0:0:
312,264,190693,2,0,L|312:120,1,142.99999345398
345,117,191784,1,2,0:0:0:0:
