osu file format v14

[General]
AudioFilename: audio.mp3
AudioLeadIn: 0
PreviewTime: -1
Countdown: 1
SampleSet: Normal
StackLeniency: 0.3
Mode: 0
LetterboxInBreaks: 0
WidescreenStoryboard: 0

[Editor]
DistanceSpacing: 1.2
BeatDivisor: 6
GridSize: 8
TimelineZoom: 1

[Metadata]
Title:Harumachi Clover (Clarinet/Drums Cover)
TitleUnicode:Harumachi Clover (Clarinet/Drums Cover)
Artist:Strife & Xelvion
ArtistUnicode:Strife & Xelvion
Creator:Mikojel
Version:Peaceful
Source:One Room
Tags:花坂結衣 CV:M・A・O Hanasaka Yui M.A.O kantoku カントク one room ワンルーム cover strife36 xelvion
BeatmapID:1815334
BeatmapSetID:868503

[Difficulty]
HPDrainRate:6
CircleSize:4
OverallDifficulty:6
ApproachRate:9
SliderMultiplier:2
SliderTickRate:1

[Events]
//Background and Video events
0,0,"1486002772173.png",0,0
//Break Periods
//Storyboard Layer 0 (Background)
//Storyboard Layer 1 (Fail)
//Storyboard Layer 2 (Pass)
//Storyboard Layer 3 (Foreground)
//Storyboard Sound Samples

[TimingPoints]
1727,352.941176470588,4,1,1,30,1,0
2432,-100,4,1,1,35,0,0
4550,-133.333333333333,4,1,1,35,0,0
5256,-100,4,1,1,35,0,0
7374,-133.333333333333,4,1,1,35,0,0
7844,-100,4,1,1,35,0,0
9550,-133.333333333333,4,1,1,35,0,0
9903,-100,4,1,1,35,0,0
10844,-133.333333333333,4,1,1,35,0,0
12197,-100,4,1,1,35,0,0
13550,-100,4,1,1,40,0,0
13903,-66.6666666666667,4,1,1,45,0,1
25197,-100,4,1,1,40,0,0

[HitObjects]
25,81,1727,6,0,P|74:93|115:121,1,100,0|0,1:0|1:0,1:0:0:0:
93,224,2079,1,0,1:0:0:0:
93,224,2197,2,0,P|126:226|157:217,1,66.6666666666667,0|0,1:0|1:0,1:0:0:0:
127,35,2432,6,0,P|183:71|197:100,1,100,0|0,1:0|1:0,1:0:0:0:
252,168,2785,1,0,1:0:0:0:
272,153,2903,2,0,P|274:120|267:88,1,66.6666666666667,8|0,1:0|1:0,1:0:0:0:
348,113,3138,2,0,P|348:64|365:17,1,100,0|0,1:0|1:0,1:0:0:0:
428,66,3491,1,0,1:0:0:0:
444,83,3609,2,0,P|446:116|443:149,1,66.6666666666667,8|0,1:0|1:0,1:0:0:0:
376,274,3844,6,0,P|364:227|372:178,1,100,0|0,1:0|1:0,1:0:0:0:
276,239,4197,1,0,0:0:0:0:
270,254,4315,2,0,P|282:284|304:309,1,66.6666666666667,8|0,0:0|0:0,0:0:0:0:
363,366,4550,2,0,P|282:310|185:323,1,200.000007629395,0|8,0:0|0:0,0:0:0:0:
68,354,5257,6,0,P|107:322|126:276,1,100,0|0,1:0|1:0,1:0:0:0:
8,192,5609,1,0,1:0:0:0:
21,199,5726,2,0,P|42:224|56:253,1,66.6666666666667,8|0,1:0|1:0,1:0:0:0:
90,367,5962,2,0,P|139:365|179:337,1,100,0|0,1:0|1:0,1:0:0:0:
167,254,6315,1,0,1:0:0:0:
187,253,6432,2,0,P|218:262|243:284,1,66.6666666666667,8|0,1:0|1:0,1:0:0:0:
404,368,6668,6,0,P|408:318|393:270,1,100,0|0,1:0|1:0,1:0:0:0:
387,184,7021,1,0,1:0:0:0:
401,185,7139,2,0,P|430:203|448:231,1,66.6666666666667,8|0,1:0|1:0,1:0:0:0:
497,306,7374,2,0,P|469:213|509:123,1,200.000007629395,0|8,1:0|1:0,1:0:0:0:
459,32,8080,6,0,P|449:80|422:122,1,100,0|0,1:0|1:0,1:0:0:0:
343,55,8432,1,0,1:0:0:0:
339,44,8550,2,0,P|308:30|275:25,1,66.6666666666667,8|0,1:0|1:0,1:0:0:0:
170,80,8785,2,0,P|215:100|264:101,1,100,0|0,1:0|1:0,1:0:0:0:
215,179,9138,1,0,1:0:0:0:
206,172,9256,2,0,P|158:156|109:160,1,100,8|0,1:0|1:0,1:0:0:0:
122,233,9550,2,0,P|73:227|41:190,1,100.000003814697,0|0,1:0|1:0,1:0:0:0:
22,42,9903,5,0,1:0:0:0:
34,44,10021,2,0,P|76:71|86:118,1,100,8|0,1:0|1:0,1:0:0:0:
78,248,10374,2,0,P|36:221|27:170,2,100,0|0|8,1:0|1:0|1:0,1:0:0:0:
147,208,10844,2,0,B|173:256|151:307|104:324|104:324|139:297|205:301|231:330|231:330|260:355|315:349|348:313|350:250|300:223,1,475.000018119813,0|0,1:0|1:0,1:0:0:0:
234,216,12197,5,0,1:0:0:0:
218,137,12374,2,0,P|264:117|295:79,1,100,0|0,1:0|1:0,1:0:0:0:
335,9,12668,1,0,1:0:0:0:
346,16,12785,2,0,P|372:57|371:107,1,100,8|0,1:0|1:0,1:0:0:0:
383,193,13079,2,0,P|428:172|453:129,2,100,0|0|0,1:0|1:0|1:0,1:0:0:0:
341,196,13549,5,4,0:0:0:0:
307,178,13638,1,4,0:0:0:0:
137,96,13903,5,0,1:0:0:0:
270,313,14079,1,4,1:0:0:0:
297,68,14256,5,0,1:0:0:0:
202,272,14432,1,4,1:0:0:0:
366,38,14609,5,0,1:0:0:0:
407,289,14785,1,4,1:0:0:0:
473,89,14962,5,0,1:0:0:0:
289,316,15138,1,4,1:0:0:0:
139,152,15315,5,0,1:0:0:0:
232,372,15491,1,4,1:0:0:0:
73,126,15668,1,0,1:0:0:0:
53,294,15844,2,0,P|121:321|194:305,1,150.000005722046,4|0,1:0|1:0,1:0:0:0:
247,95,16197,2,0,P|239:168|193:226,1,150.000005722046,4|0,1:0|1:0,1:0:0:0:
142,27,16550,5,4,1:0:0:0:
84,196,16726,5,0,1:0:0:0:
317,75,16903,1,4,1:0:0:0:
102,102,17079,5,0,1:0:0:0:
332,230,17256,1,4,1:0:0:0:
212,296,17432,5,0,1:0:0:0:
392,73,17609,1,4,1:0:0:0:
455,342,17785,5,0,1:0:0:0:
312,77,17962,1,4,1:0:0:0:
142,332,18138,5,0,1:0:0:0:
48,57,18315,1,4,1:0:0:0:
238,268,18491,1,0,1:0:0:0:
284,32,18668,2,0,P|356:35|396:95,1,150.000005722046,4|0,1:0|1:0,1:0:0:0:
361,316,19021,2,0,P|421:276|426:204,1,150.000005722046,4|0,1:0|1:0,1:0:0:0:
285,187,19374,5,4,1:0:0:0:
498,90,19550,5,0,1:0:0:0:
438,329,19726,1,4,1:0:0:0:
359,62,19903,5,0,1:0:0:0:
502,299,20079,1,4,1:0:0:0:
436,52,20256,5,0,1:0:0:0:
318,302,20432,1,4,1:0:0:0:
235,91,20609,5,0,1:0:0:0:
406,347,20785,2,0,P|470:314|472:242,1,150.000005722046,4|0,1:0|1:0,1:0:0:0:
34,214,21138,5,4,1:0:0:0:
147,55,21315,5,0,1:0:0:0:
45,305,21491,1,4,1:0:0:0:
0,38,21668,5,0,1:0:0:0:
108,341,21844,1,4,1:0:0:0:
253,78,22021,1,0,1:0:0:0:
0,265,22197,2,0,P|32:340|121:334,1,150.000005722046,4|0,1:0|1:0,1:0:0:0:
493,23,22903,5,4,1:0:0:0:
497,30,23256,1,4,1:0:0:0:
212,180,23432,1,4,1:0:0:0:
510,219,23609,1,4,1:0:0:0:
304,23,23785,5,0,1:0:0:0:
260,328,23962,1,4,1:0:0:0:
150,66,24138,5,0,1:0:0:0:
27,341,24315,1,4,1:0:0:0:
47,20,24491,5,0,1:0:0:0:
202,261,24668,1,4,1:0:0:0:
374,26,24844,5,4,1:0:0:0:
7,373,25197,1,4,1:0:0:0:
