osu file format v14

[General]
AudioFilename: audio.mp3
AudioLeadIn: 0
PreviewTime: 133766
Countdown: 0
SampleSet: Normal
StackLeniency: 0.7
Mode: 3
LetterboxInBreaks: 0
SpecialStyle: 0
WidescreenStoryboard: 0

[Editor]
DistanceSpacing: 0.8
BeatDivisor: 8
GridSize: 32
TimelineZoom: 2.8

[Metadata]
Title:Alive (Relect Hardcore Rave Edit Speed Up Ver.)
TitleUnicode:Alive (Relect Hardcore Rave Edit Speed Up Ver.)
Artist:Streex
ArtistUnicode:Streex
Creator:X_Devil
Version:(^_^)
Source:
Tags:7k double stairs
BeatmapID:2191202
BeatmapSetID:1048309

[Difficulty]
HPDrainRate:8
CircleSize:7
OverallDifficulty:8
ApproachRate:5
SliderMultiplier:1.4
SliderTickRate:1

[Events]
//Background and Video events
0,0,"fate-grand-order-sword-katana-sakura-pink-ken-blade-kimono-g.jpg",0,0
//Break Periods
//Storyboard Layer 0 (Background)
//Storyboard Layer 1 (Fail)
//Storyboard Layer 2 (Pass)
//Storyboard Layer 3 (Foreground)
//Storyboard Layer 4 (Overlay)
//Storyboard Sound Samples

[TimingPoints]
90,294.117647058824,4,1,0,15,1,0

[HitObjects]
36,192,90,5,0,0:0:0:0:
256,192,90,1,0,0:0:0:0:
109,192,90,1,0,0:0:0:0:
402,192,237,1,0,0:0:0:0:
109,192,237,1,0,0:0:0:0:
329,192,310,1,0,0:0:0:0:
182,192,310,1,0,0:0:0:0:
36,192,384,1,0,0:0:0:0:
402,192,384,1,0,0:0:0:0:
109,192,384,1,0,0:0:0:0:
256,192,384,1,0,0:0:0:0:
182,192,531,1,0,0:0:0:0:
329,192,531,1,0,0:0:0:0:
36,192,678,1,0,0:0:0:0:
109,192,678,1,0,0:0:0:0:
256,192,678,1,0,0:0:0:0:
182,192,825,1,0,0:0:0:0:
109,192,825,1,0,0:0:0:0:
475,192,972,1,0,0:0:0:0:
402,192,972,1,0,0:0:0:0:
329,192,972,1,0,0:0:0:0:
256,192,972,1,0,0:0:0:0:
182,192,1119,1,0,0:0:0:0:
329,192,1119,1,0,0:0:0:0:
109,192,1192,1,0,0:0:0:0:
402,192,1192,1,0,0:0:0:0:
256,192,1266,1,0,0:0:0:0:
329,192,1266,1,0,0:0:0:0:
475,192,1266,1,0,0:0:0:0:
109,192,1413,1,0,0:0:0:0:
402,192,1413,1,0,0:0:0:0:
36,192,1560,1,0,0:0:0:0:
182,192,1560,1,0,0:0:0:0:
329,192,1560,1,0,0:0:0:0:
256,192,1560,1,0,0:0:0:0:
109,192,1707,1,0,0:0:0:0:
182,192,1707,1,0,0:0:0:0:
402,192,1854,1,0,0:0:0:0:
256,192,1854,1,0,0:0:0:0:
475,192,1854,1,0,0:0:0:0:
475,192,2001,1,0,0:0:0:0:
36,192,2001,1,0,0:0:0:0:
109,192,2075,1,0,0:0:0:0:
402,192,2075,1,0,0:0:0:0:
256,192,2148,1,0,0:0:0:0:
182,192,2148,1,0,0:0:0:0:
36,192,2148,1,0,0:0:0:0:
329,192,2148,1,0,0:0:0:0:
329,192,2295,1,0,0:0:0:0:
109,192,2295,1,0,0:0:0:0:
475,192,2442,1,0,0:0:0:0:
402,192,2442,1,0,0:0:0:0:
182,192,2442,1,0,0:0:0:0:
329,192,2590,1,0,0:0:0:0:
109,192,2590,1,0,0:0:0:0:
256,192,2663,1,0,0:0:0:0:
402,192,2663,1,0,0:0:0:0:
36,192,2737,1,0,0:0:0:0:
182,192,2737,1,0,0:0:0:0:
109,192,2737,1,0,0:0:0:0:
329,192,2737,1,0,0:0:0:0:
256,192,2884,1,0,0:0:0:0:
402,192,2884,1,0,0:0:0:0:
36,192,3031,1,0,0:0:0:0:
182,192,3031,1,0,0:0:0:0:
329,192,3031,1,0,0:0:0:0:
109,192,3178,1,0,0:0:0:0:
256,192,3178,1,0,0:0:0:0:
475,192,3325,1,0,0:0:0:0:
402,192,3325,1,0,0:0:0:0:
329,192,3325,1,0,0:0:0:0:
182,192,3325,1,0,0:0:0:0:
256,192,3472,1,0,0:0:0:0:
36,192,3472,1,0,0:0:0:0:
329,192,3545,1,0,0:0:0:0:
109,192,3545,1,0,0:0:0:0:
475,192,3619,1,0,0:0:0:0:
402,192,3619,1,0,0:0:0:0:
182,192,3619,1,0,0:0:0:0:
256,192,3766,1,0,0:0:0:0:
329,192,3766,1,0,0:0:0:0:
36,192,3913,1,0,0:0:0:0:
109,192,3913,1,0,0:0:0:0:
475,192,3913,1,0,0:0:0:0:
402,192,3913,1,0,0:0:0:0:
182,192,4060,1,0,0:0:0:0:
256,192,4060,1,0,0:0:0:0:
475,192,4207,1,0,0:0:0:0:
109,192,4207,1,0,0:0:0:0:
329,192,4207,1,0,0:0:0:0:
36,192,4281,1,0,0:0:0:0:
256,192,4281,1,0,0:0:0:0:
402,192,4354,1,0,0:0:0:0:
182,192,4354,1,0,0:0:0:0:
109,192,4428,1,0,0:0:0:0:
329,192,4428,1,0,0:0:0:0:
36,192,4501,1,0,0:0:0:0:
182,192,4501,1,0,0:0:0:0:
402,192,4501,1,0,0:0:0:0:
256,192,4501,1,0,0:0:0:0:
109,192,4648,1,0,0:0:0:0:
182,192,4648,1,0,0:0:0:0:
36,192,4795,1,0,0:0:0:0:
256,192,4795,1,0,0:0:0:0:
402,192,4795,1,0,0:0:0:0:
109,192,4942,1,0,0:0:0:0:
329,192,4942,1,0,0:0:0:0:
36,192,5016,1,0,0:0:0:0:
182,192,5016,1,0,0:0:0:0:
256,192,5090,1,0,0:0:0:0:
329,192,5090,1,0,0:0:0:0:
402,192,5090,1,0,0:0:0:0:
475,192,5090,1,0,0:0:0:0:
36,192,5237,1,0,0:0:0:0:
182,192,5237,1,0,0:0:0:0:
402,192,5384,1,0,0:0:0:0:
256,192,5384,1,0,0:0:0:0:
109,192,5384,1,0,0:0:0:0:
182,192,5531,1,0,0:0:0:0:
329,192,5531,1,0,0:0:0:0:
475,192,5678,1,0,0:0:0:0:
402,192,5678,1,0,0:0:0:0:
36,192,5678,1,0,0:0:0:0:
109,192,5678,1,0,0:0:0:0:
182,192,5825,1,0,0:0:0:0:
329,192,5825,1,0,0:0:0:0:
109,192,5898,1,0,0:0:0:0:
256,192,5898,1,0,0:0:0:0:
36,192,5972,1,0,0:0:0:0:
182,192,5972,1,0,0:0:0:0:
329,192,5972,1,0,0:0:0:0:
402,192,6119,1,0,0:0:0:0:
109,192,6119,1,0,0:0:0:0:
329,192,6266,1,0,0:0:0:0:
475,192,6266,1,0,0:0:0:0:
36,192,6266,1,0,0:0:0:0:
256,192,6266,1,0,0:0:0:0:
109,192,6413,1,0,0:0:0:0:
36,192,6413,1,0,0:0:0:0:
475,192,6560,1,0,0:0:0:0:
402,192,6560,1,0,0:0:0:0:
329,192,6560,1,0,0:0:0:0:
182,192,6560,1,0,0:0:0:0:
109,192,6707,1,0,0:0:0:0:
402,192,6707,1,0,0:0:0:0:
182,192,6781,1,0,0:0:0:0:
329,192,6781,1,0,0:0:0:0:
402,192,6854,1,0,0:0:0:0:
256,192,6854,1,0,0:0:0:0:
109,192,6854,1,0,0:0:0:0:
36,192,6854,1,0,0:0:0:0:
182,192,7001,1,0,0:0:0:0:
329,192,7001,1,0,0:0:0:0:
256,192,7148,1,0,0:0:0:0:
402,192,7148,1,0,0:0:0:0:
109,192,7148,1,0,0:0:0:0:
36,192,7295,1,0,0:0:0:0:
182,192,7295,1,0,0:0:0:0:
109,192,7369,1,0,0:0:0:0:
256,192,7369,1,0,0:0:0:0:
182,192,7442,1,0,0:0:0:0:
329,192,7442,1,0,0:0:0:0:
475,192,7442,1,0,0:0:0:0:
402,192,7442,1,0,0:0:0:0:
402,192,7590,1,0,0:0:0:0:
109,192,7590,1,0,0:0:0:0:
256,192,7737,1,0,0:0:0:0:
36,192,7737,1,0,0:0:0:0:
182,192,7737,1,0,0:0:0:0:
402,192,7884,1,0,0:0:0:0:
109,192,7884,1,0,0:0:0:0:
329,192,8031,1,0,0:0:0:0:
182,192,8031,1,0,0:0:0:0:
36,192,8031,1,0,0:0:0:0:
256,192,8031,1,0,0:0:0:0:
256,192,8178,1,0,0:0:0:0:
402,192,8178,1,0,0:0:0:0:
329,192,8251,1,0,0:0:0:0:
182,192,8251,1,0,0:0:0:0:
109,192,8325,1,0,0:0:0:0:
36,192,8325,1,0,0:0:0:0:
256,192,8325,1,0,0:0:0:0:
402,192,8472,1,0,0:0:0:0:
182,192,8472,1,0,0:0:0:0:
109,192,8619,1,0,0:0:0:0:
256,192,8619,1,0,0:0:0:0:
329,192,8619,1,0,0:0:0:0:
475,192,8619,1,0,0:0:0:0:
36,192,8766,1,0,0:0:0:0:
182,192,8766,1,0,0:0:0:0:
256,192,8913,1,0,0:0:0:0:
402,192,9060,1,0,0:0:0:0:
109,192,9060,1,0,0:0:0:0:
329,192,9134,1,0,0:0:0:0:
182,192,9134,1,0,0:0:0:0:
475,192,9207,1,0,0:0:0:0:
402,192,9207,1,0,0:0:0:0:
36,192,9207,1,0,0:0:0:0:
109,192,9207,1,0,0:0:0:0:
36,192,9354,1,0,0:0:0:0:
182,192,9354,1,0,0:0:0:0:
329,192,9354,1,0,0:0:0:0:
475,192,9354,1,0,0:0:0:0:
475,192,9501,5,0,0:0:0:0:
256,192,9501,1,0,0:0:0:0:
402,192,9501,1,0,0:0:0:0:
109,192,9648,1,0,0:0:0:0:
402,192,9648,1,0,0:0:0:0:
182,192,9722,1,0,0:0:0:0:
329,192,9722,1,0,0:0:0:0:
475,192,9795,1,0,0:0:0:0:
36,192,9795,1,0,0:0:0:0:
109,192,9795,1,0,0:0:0:0:
402,192,9795,1,0,0:0:0:0:
329,192,9942,1,0,0:0:0:0:
182,192,9942,1,0,0:0:0:0:
475,192,10090,1,0,0:0:0:0:
402,192,10090,1,0,0:0:0:0:
256,192,10090,1,0,0:0:0:0:
329,192,10237,1,0,0:0:0:0:
402,192,10237,1,0,0:0:0:0:
36,192,10384,1,0,0:0:0:0:
109,192,10384,1,0,0:0:0:0:
182,192,10384,1,0,0:0:0:0:
256,192,10384,1,0,0:0:0:0:
329,192,10531,1,0,0:0:0:0:
182,192,10531,1,0,0:0:0:0:
402,192,10604,1,0,0:0:0:0:
109,192,10604,1,0,0:0:0:0:
256,192,10678,1,0,0:0:0:0:
182,192,10678,1,0,0:0:0:0:
36,192,10678,1,0,0:0:0:0:
402,192,10825,1,0,0:0:0:0:
109,192,10825,1,0,0:0:0:0:
475,192,10972,1,0,0:0:0:0:
329,192,10972,1,0,0:0:0:0:
256,192,10972,1,0,0:0:0:0:
36,192,10972,1,0,0:0:0:0:
402,192,11119,1,0,0:0:0:0:
329,192,11119,1,0,0:0:0:0:
109,192,11266,1,0,0:0:0:0:
256,192,11266,1,0,0:0:0:0:
36,192,11266,1,0,0:0:0:0:
109,192,11413,1,0,0:0:0:0:
475,192,11413,1,0,0:0:0:0:
402,192,11487,1,0,0:0:0:0:
182,192,11487,1,0,0:0:0:0:
256,192,11560,1,0,0:0:0:0:
329,192,11560,1,0,0:0:0:0:
475,192,11560,1,0,0:0:0:0:
109,192,11560,1,0,0:0:0:0:
182,192,11707,1,0,0:0:0:0:
402,192,11707,1,0,0:0:0:0:
36,192,11854,1,0,0:0:0:0:
109,192,11854,1,0,0:0:0:0:
329,192,11854,1,0,0:0:0:0:
182,192,12001,1,0,0:0:0:0:
402,192,12001,1,0,0:0:0:0:
256,192,12075,1,0,0:0:0:0:
109,192,12075,1,0,0:0:0:0:
475,192,12148,1,0,0:0:0:0:
329,192,12148,1,0,0:0:0:0:
402,192,12148,1,0,0:0:0:0:
182,192,12148,1,0,0:0:0:0:
256,192,12295,1,0,0:0:0:0:
109,192,12295,1,0,0:0:0:0:
475,192,12442,1,0,0:0:0:0:
329,192,12442,1,0,0:0:0:0:
182,192,12442,1,0,0:0:0:0:
402,192,12590,1,0,0:0:0:0:
256,192,12590,1,0,0:0:0:0:
36,192,12737,1,0,0:0:0:0:
109,192,12737,1,0,0:0:0:0:
182,192,12737,1,0,0:0:0:0:
329,192,12737,1,0,0:0:0:0:
256,192,12884,1,0,0:0:0:0:
475,192,12884,1,0,0:0:0:0:
182,192,12957,1,0,0:0:0:0:
402,192,12957,1,0,0:0:0:0:
36,192,13031,1,0,0:0:0:0:
109,192,13031,1,0,0:0:0:0:
329,192,13031,1,0,0:0:0:0:
256,192,13178,1,0,0:0:0:0:
182,192,13178,1,0,0:0:0:0:
475,192,13325,1,0,0:0:0:0:
402,192,13325,1,0,0:0:0:0:
36,192,13325,1,0,0:0:0:0:
109,192,13325,1,0,0:0:0:0:
329,192,13472,1,0,0:0:0:0:
256,192,13472,1,0,0:0:0:0:
36,192,13619,1,0,0:0:0:0:
402,192,13619,1,0,0:0:0:0:
182,192,13619,1,0,0:0:0:0:
475,192,13692,1,0,0:0:0:0:
256,192,13692,1,0,0:0:0:0:
109,192,13766,1,0,0:0:0:0:
329,192,13766,1,0,0:0:0:0:
402,192,13840,1,0,0:0:0:0:
182,192,13840,1,0,0:0:0:0:
475,192,13913,1,0,0:0:0:0:
329,192,13913,1,0,0:0:0:0:
256,192,13913,1,0,0:0:0:0:
109,192,13913,1,0,0:0:0:0:
402,192,14060,1,0,0:0:0:0:
329,192,14060,1,0,0:0:0:0:
475,192,14207,1,0,0:0:0:0:
256,192,14207,1,0,0:0:0:0:
109,192,14207,1,0,0:0:0:0:
402,192,14354,1,0,0:0:0:0:
182,192,14354,1,0,0:0:0:0:
475,192,14428,1,0,0:0:0:0:
329,192,14428,1,0,0:0:0:0:
256,192,14501,1,0,0:0:0:0:
182,192,14501,1,0,0:0:0:0:
109,192,14501,1,0,0:0:0:0:
36,192,14501,1,0,0:0:0:0:
475,192,14648,1,0,0:0:0:0:
329,192,14648,1,0,0:0:0:0:
109,192,14795,1,0,0:0:0:0:
256,192,14795,1,0,0:0:0:0:
402,192,14795,1,0,0:0:0:0:
329,192,14942,1,0,0:0:0:0:
182,192,14942,1,0,0:0:0:0:
36,192,15090,1,0,0:0:0:0:
109,192,15090,1,0,0:0:0:0:
475,192,15090,1,0,0:0:0:0:
402,192,15090,1,0,0:0:0:0:
329,192,15237,1,0,0:0:0:0:
182,192,15237,1,0,0:0:0:0:
402,192,15310,1,0,0:0:0:0:
256,192,15310,1,0,0:0:0:0:
475,192,15384,1,0,0:0:0:0:
329,192,15384,1,0,0:0:0:0:
182,192,15384,1,0,0:0:0:0:
109,192,15531,1,0,0:0:0:0:
402,192,15531,1,0,0:0:0:0:
182,192,15678,1,0,0:0:0:0:
36,192,15678,1,0,0:0:0:0:
329,192,15678,1,0,0:0:0:0:
256,192,15678,1,0,0:0:0:0:
402,192,15825,1,0,0:0:0:0:
475,192,15825,1,0,0:0:0:0:
36,192,15972,1,0,0:0:0:0:
109,192,15972,1,0,0:0:0:0:
182,192,15972,1,0,0:0:0:0:
329,192,15972,1,0,0:0:0:0:
402,192,16119,1,0,0:0:0:0:
109,192,16119,1,0,0:0:0:0:
329,192,16192,1,0,0:0:0:0:
182,192,16192,1,0,0:0:0:0:
256,192,16266,1,0,0:0:0:0:
402,192,16266,1,0,0:0:0:0:
36,192,16266,1,0,0:0:0:0:
475,192,16266,1,0,0:0:0:0:
329,192,16413,1,0,0:0:0:0:
182,192,16413,1,0,0:0:0:0:
256,192,16560,1,0,0:0:0:0:
109,192,16560,1,0,0:0:0:0:
402,192,16560,1,0,0:0:0:0:
475,192,16707,1,0,0:0:0:0:
329,192,16707,1,0,0:0:0:0:
402,192,16781,1,0,0:0:0:0:
256,192,16781,1,0,0:0:0:0:
329,192,16854,1,0,0:0:0:0:
182,192,16854,1,0,0:0:0:0:
36,192,16854,1,0,0:0:0:0:
109,192,16854,1,0,0:0:0:0:
109,192,17001,1,0,0:0:0:0:
182,192,17001,1,0,0:0:0:0:
256,192,17148,1,0,0:0:0:0:
475,192,17148,1,0,0:0:0:0:
329,192,17148,1,0,0:0:0:0:
109,192,17295,1,0,0:0:0:0:
402,192,17295,1,0,0:0:0:0:
36,192,17442,1,0,0:0:0:0:
182,192,17442,1,0,0:0:0:0:
329,192,17442,1,0,0:0:0:0:
475,192,17442,1,0,0:0:0:0:
256,192,17590,1,0,0:0:0:0:
109,192,17590,1,0,0:0:0:0:
182,192,17663,1,0,0:0:0:0:
329,192,17663,1,0,0:0:0:0:
402,192,17737,1,0,0:0:0:0:
475,192,17737,1,0,0:0:0:0:
256,192,17737,1,0,0:0:0:0:
109,192,17884,1,0,0:0:0:0:
329,192,17884,1,0,0:0:0:0:
182,192,18031,1,0,0:0:0:0:
36,192,18031,1,0,0:0:0:0:
402,192,18031,1,0,0:0:0:0:
256,192,18178,1,0,0:0:0:0:
475,192,18178,1,0,0:0:0:0:
182,192,18325,1,0,0:0:0:0:
109,192,18472,1,0,0:0:0:0:
182,192,18619,1,0,0:0:0:0:
329,192,18619,1,0,0:0:0:0:
36,192,18619,1,0,0:0:0:0:
475,192,18619,1,0,0:0:0:0:
36,192,18766,1,0,0:0:0:0:
475,192,18766,1,0,0:0:0:0:
402,192,18766,1,0,0:0:0:0:
109,192,18766,1,0,0:0:0:0:
329,192,18913,1,0,0:0:0:0:
182,192,18913,1,0,0:0:0:0:
329,192,19060,1,0,0:0:0:0:
329,192,19207,1,0,0:0:0:0:
182,192,19207,1,0,0:0:0:0:
329,192,19354,1,0,0:0:0:0:
329,192,19501,1,0,0:0:0:0:
182,192,19501,1,0,0:0:0:0:
329,192,19648,1,0,0:0:0:0:
109,192,19648,1,0,0:0:0:0:
329,192,19795,1,0,0:0:0:0:
182,192,19795,1,0,0:0:0:0:
329,192,19942,1,0,0:0:0:0:
109,192,19942,1,0,0:0:0:0:
182,192,20090,1,0,0:0:0:0:
329,192,20090,1,0,0:0:0:0:
182,192,20237,1,0,0:0:0:0:
182,192,20384,1,0,0:0:0:0:
329,192,20384,1,0,0:0:0:0:
182,192,20531,1,0,0:0:0:0:
182,192,20678,1,0,0:0:0:0:
329,192,20678,1,0,0:0:0:0:
182,192,20825,1,0,0:0:0:0:
475,192,20825,1,0,0:0:0:0:
182,192,20972,1,0,0:0:0:0:
329,192,20972,1,0,0:0:0:0:
182,192,21119,1,0,0:0:0:0:
475,192,21119,1,0,0:0:0:0:
402,192,21266,1,0,0:0:0:0:
109,192,21266,1,0,0:0:0:0:
402,192,21413,1,0,0:0:0:0:
402,192,21560,1,0,0:0:0:0:
109,192,21560,1,0,0:0:0:0:
402,192,21707,1,0,0:0:0:0:
402,192,21854,1,0,0:0:0:0:
109,192,21854,1,0,0:0:0:0:
402,192,22001,1,0,0:0:0:0:
182,192,22001,1,0,0:0:0:0:
402,192,22148,1,0,0:0:0:0:
109,192,22148,1,0,0:0:0:0:
402,192,22295,1,0,0:0:0:0:
182,192,22295,1,0,0:0:0:0:
109,192,22442,1,0,0:0:0:0:
402,192,22442,1,0,0:0:0:0:
109,192,22590,1,0,0:0:0:0:
109,192,22737,1,0,0:0:0:0:
402,192,22737,1,0,0:0:0:0:
109,192,22884,1,0,0:0:0:0:
109,192,23031,1,0,0:0:0:0:
402,192,23031,1,0,0:0:0:0:
109,192,23178,1,0,0:0:0:0:
475,192,23178,1,0,0:0:0:0:
109,192,23325,1,0,0:0:0:0:
329,192,23325,1,0,0:0:0:0:
109,192,23472,1,0,0:0:0:0:
256,192,23472,1,0,0:0:0:0:
475,192,23619,1,0,0:0:0:0:
329,192,23619,1,0,0:0:0:0:
475,192,23766,1,0,0:0:0:0:
475,192,23913,1,0,0:0:0:0:
329,192,23913,1,0,0:0:0:0:
475,192,24060,1,0,0:0:0:0:
475,192,24207,1,0,0:0:0:0:
329,192,24207,1,0,0:0:0:0:
475,192,24354,1,0,0:0:0:0:
109,192,24354,1,0,0:0:0:0:
475,192,24501,1,0,0:0:0:0:
329,192,24501,1,0,0:0:0:0:
475,192,24648,1,0,0:0:0:0:
109,192,24648,1,0,0:0:0:0:
36,192,24795,1,0,0:0:0:0:
182,192,24795,1,0,0:0:0:0:
36,192,24942,1,0,0:0:0:0:
36,192,25090,1,0,0:0:0:0:
182,192,25090,1,0,0:0:0:0:
36,192,25237,1,0,0:0:0:0:
36,192,25384,1,0,0:0:0:0:
182,192,25384,1,0,0:0:0:0:
36,192,25531,1,0,0:0:0:0:
475,192,25531,1,0,0:0:0:0:
36,192,25678,1,0,0:0:0:0:
182,192,25678,1,0,0:0:0:0:
36,192,25825,1,0,0:0:0:0:
475,192,25825,1,0,0:0:0:0:
256,192,25972,1,0,0:0:0:0:
109,192,25972,1,0,0:0:0:0:
256,192,26119,1,0,0:0:0:0:
256,192,26266,1,0,0:0:0:0:
109,192,26266,1,0,0:0:0:0:
256,192,26413,1,0,0:0:0:0:
256,192,26560,1,0,0:0:0:0:
109,192,26560,1,0,0:0:0:0:
256,192,26707,1,0,0:0:0:0:
402,192,26707,1,0,0:0:0:0:
256,192,26854,1,0,0:0:0:0:
109,192,26854,1,0,0:0:0:0:
256,192,27001,1,0,0:0:0:0:
402,192,27001,1,0,0:0:0:0:
109,192,27148,1,0,0:0:0:0:
256,192,27148,1,0,0:0:0:0:
109,192,27295,1,0,0:0:0:0:
109,192,27442,1,0,0:0:0:0:
256,192,27442,1,0,0:0:0:0:
109,192,27590,1,0,0:0:0:0:
109,192,27737,1,0,0:0:0:0:
402,192,27737,1,0,0:0:0:0:
109,192,27884,1,0,0:0:0:0:
475,192,27884,1,0,0:0:0:0:
109,192,28031,1,0,0:0:0:0:
329,192,28031,1,0,0:0:0:0:
109,192,28178,1,0,0:0:0:0:
256,192,28178,1,0,0:0:0:0:
329,192,28325,1,0,0:0:0:0:
182,192,28325,1,0,0:0:0:0:
329,192,28472,1,0,0:0:0:0:
329,192,28619,1,0,0:0:0:0:
182,192,28619,1,0,0:0:0:0:
36,192,28619,1,0,0:0:0:0:
329,192,28766,1,0,0:0:0:0:
109,192,28766,1,0,0:0:0:0:
329,192,28913,1,0,0:0:0:0:
402,192,28913,1,0,0:0:0:0:
182,192,28913,1,0,0:0:0:0:
329,192,29060,1,0,0:0:0:0:
109,192,29060,1,0,0:0:0:0:
475,192,29060,1,0,0:0:0:0:
329,192,29207,1,0,0:0:0:0:
182,192,29207,1,0,0:0:0:0:
329,192,29354,1,0,0:0:0:0:
109,192,29354,1,0,0:0:0:0:
36,192,29354,1,0,0:0:0:0:
182,192,29501,1,0,0:0:0:0:
329,192,29501,1,0,0:0:0:0:
182,192,29648,1,0,0:0:0:0:
182,192,29795,1,0,0:0:0:0:
329,192,29795,1,0,0:0:0:0:
182,192,29942,1,0,0:0:0:0:
182,192,30090,1,0,0:0:0:0:
329,192,30090,1,0,0:0:0:0:
36,192,30090,1,0,0:0:0:0:
182,192,30237,1,0,0:0:0:0:
475,192,30237,1,0,0:0:0:0:
109,192,30237,1,0,0:0:0:0:
182,192,30384,1,0,0:0:0:0:
329,192,30384,1,0,0:0:0:0:
182,192,30531,1,0,0:0:0:0:
475,192,30531,1,0,0:0:0:0:
36,192,30531,1,0,0:0:0:0:
402,192,30678,1,0,0:0:0:0:
109,192,30678,1,0,0:0:0:0:
402,192,30825,1,0,0:0:0:0:
256,192,30825,1,0,0:0:0:0:
402,192,30972,1,0,0:0:0:0:
109,192,30972,1,0,0:0:0:0:
402,192,31119,1,0,0:0:0:0:
402,192,31266,1,0,0:0:0:0:
109,192,31266,1,0,0:0:0:0:
402,192,31413,1,0,0:0:0:0:
182,192,31413,1,0,0:0:0:0:
402,192,31560,1,0,0:0:0:0:
36,192,31560,1,0,0:0:0:0:
402,192,31707,1,0,0:0:0:0:
182,192,31707,1,0,0:0:0:0:
109,192,31854,1,0,0:0:0:0:
402,192,31854,1,0,0:0:0:0:
109,192,32001,1,0,0:0:0:0:
109,192,32148,1,0,0:0:0:0:
402,192,32148,1,0,0:0:0:0:
109,192,32295,1,0,0:0:0:0:
109,192,32442,1,0,0:0:0:0:
402,192,32442,1,0,0:0:0:0:
109,192,32590,1,0,0:0:0:0:
475,192,32590,1,0,0:0:0:0:
109,192,32737,1,0,0:0:0:0:
329,192,32737,1,0,0:0:0:0:
109,192,32884,1,0,0:0:0:0:
256,192,32884,1,0,0:0:0:0:
475,192,33031,1,0,0:0:0:0:
329,192,33031,1,0,0:0:0:0:
475,192,33178,1,0,0:0:0:0:
475,192,33325,1,0,0:0:0:0:
329,192,33325,1,0,0:0:0:0:
109,192,33325,1,0,0:0:0:0:
475,192,33472,1,0,0:0:0:0:
182,192,33472,1,0,0:0:0:0:
475,192,33619,1,0,0:0:0:0:
329,192,33619,1,0,0:0:0:0:
256,192,33619,1,0,0:0:0:0:
475,192,33766,1,0,0:0:0:0:
36,192,33766,1,0,0:0:0:0:
475,192,33913,1,0,0:0:0:0:
256,192,33913,1,0,0:0:0:0:
109,192,33913,1,0,0:0:0:0:
475,192,34060,1,0,0:0:0:0:
182,192,34060,1,0,0:0:0:0:
329,192,34060,1,0,0:0:0:0:
36,192,34207,1,0,0:0:0:0:
182,192,34207,1,0,0:0:0:0:
36,192,34354,1,0,0:0:0:0:
256,192,34354,1,0,0:0:0:0:
36,192,34501,1,0,0:0:0:0:
182,192,34501,1,0,0:0:0:0:
36,192,34648,1,0,0:0:0:0:
36,192,34795,1,0,0:0:0:0:
182,192,34795,1,0,0:0:0:0:
329,192,34795,1,0,0:0:0:0:
36,192,34942,1,0,0:0:0:0:
256,192,34942,1,0,0:0:0:0:
475,192,34942,1,0,0:0:0:0:
36,192,35090,1,0,0:0:0:0:
402,192,35090,1,0,0:0:0:0:
36,192,35237,1,0,0:0:0:0:
109,192,35237,1,0,0:0:0:0:
329,192,35237,1,0,0:0:0:0:
256,192,35384,1,0,0:0:0:0:
109,192,35384,1,0,0:0:0:0:
256,192,35531,1,0,0:0:0:0:
402,192,35531,1,0,0:0:0:0:
256,192,35678,1,0,0:0:0:0:
109,192,35678,1,0,0:0:0:0:
256,192,35825,1,0,0:0:0:0:
256,192,35972,1,0,0:0:0:0:
109,192,35972,1,0,0:0:0:0:
256,192,36119,1,0,0:0:0:0:
475,192,36119,1,0,0:0:0:0:
256,192,36266,1,0,0:0:0:0:
402,192,36266,1,0,0:0:0:0:
256,192,36413,1,0,0:0:0:0:
329,192,36413,1,0,0:0:0:0:
109,192,36560,1,0,0:0:0:0:
256,192,36560,1,0,0:0:0:0:
109,192,36707,1,0,0:0:0:0:
109,192,36854,1,0,0:0:0:0:
256,192,36854,1,0,0:0:0:0:
109,192,37001,1,0,0:0:0:0:
109,192,37148,1,0,0:0:0:0:
402,192,37148,1,0,0:0:0:0:
109,192,37295,1,0,0:0:0:0:
475,192,37295,1,0,0:0:0:0:
109,192,37442,1,0,0:0:0:0:
329,192,37442,1,0,0:0:0:0:
109,192,37590,1,0,0:0:0:0:
256,192,37590,1,0,0:0:0:0:
36,192,37737,1,0,0:0:0:0:
402,192,37737,1,0,0:0:0:0:
329,192,37737,1,0,0:0:0:0:
36,192,37884,1,0,0:0:0:0:
36,192,38031,1,0,0:0:0:0:
182,192,38031,1,0,0:0:0:0:
36,192,38178,1,0,0:0:0:0:
475,192,38178,128,0,38325:0:0:0:0:
36,192,38325,1,0,0:0:0:0:
402,192,38325,1,0,0:0:0:0:
36,192,38472,1,0,0:0:0:0:
256,192,38472,1,0,0:0:0:0:
36,192,38619,1,0,0:0:0:0:
402,192,38619,128,0,38766:0:0:0:0:
36,192,38766,1,0,0:0:0:0:
475,192,38766,1,0,0:0:0:0:
329,192,38913,1,0,0:0:0:0:
182,192,38913,1,0,0:0:0:0:
329,192,39060,1,0,0:0:0:0:
329,192,39207,1,0,0:0:0:0:
329,192,39354,1,0,0:0:0:0:
36,192,39354,128,0,39501:0:0:0:0:
475,192,39354,1,0,0:0:0:0:
329,192,39501,1,0,0:0:0:0:
109,192,39501,1,0,0:0:0:0:
329,192,39648,1,0,0:0:0:0:
329,192,39795,1,0,0:0:0:0:
109,192,39795,128,0,39942:0:0:0:0:
475,192,39795,1,0,0:0:0:0:
329,192,39942,1,0,0:0:0:0:
36,192,39942,1,0,0:0:0:0:
256,192,39942,1,0,0:0:0:0:
109,192,40090,1,0,0:0:0:0:
109,192,40237,1,0,0:0:0:0:
109,192,40384,1,0,0:0:0:0:
329,192,40384,1,0,0:0:0:0:
109,192,40531,1,0,0:0:0:0:
475,192,40531,128,0,40678:0:0:0:0:
109,192,40678,1,0,0:0:0:0:
402,192,40678,1,0,0:0:0:0:
109,192,40825,1,0,0:0:0:0:
256,192,40825,1,0,0:0:0:0:
109,192,40972,1,0,0:0:0:0:
402,192,40972,128,0,41119:0:0:0:0:
109,192,41119,1,0,0:0:0:0:
475,192,41119,1,0,0:0:0:0:
402,192,41266,1,0,0:0:0:0:
182,192,41266,1,0,0:0:0:0:
402,192,41413,1,0,0:0:0:0:
402,192,41560,1,0,0:0:0:0:
402,192,41707,1,0,0:0:0:0:
36,192,41707,128,0,41854:0:0:0:0:
256,192,41707,1,0,0:0:0:0:
402,192,41854,1,0,0:0:0:0:
109,192,41854,1,0,0:0:0:0:
402,192,42001,1,0,0:0:0:0:
256,192,42001,1,0,0:0:0:0:
402,192,42148,1,0,0:0:0:0:
475,192,42148,1,0,0:0:0:0:
109,192,42148,128,0,42295:0:0:0:0:
256,192,42295,1,0,0:0:0:0:
36,192,42295,1,0,0:0:0:0:
402,192,42295,1,0,0:0:0:0:
182,192,42442,1,0,0:0:0:0:
329,192,42442,1,0,0:0:0:0:
182,192,42590,1,0,0:0:0:0:
182,192,42737,1,0,0:0:0:0:
109,192,42737,1,0,0:0:0:0:
182,192,42884,1,0,0:0:0:0:
475,192,42884,128,0,43031:0:0:0:0:
182,192,43031,1,0,0:0:0:0:
402,192,43031,1,0,0:0:0:0:
182,192,43178,1,0,0:0:0:0:
36,192,43178,1,0,0:0:0:0:
182,192,43325,1,0,0:0:0:0:
402,192,43325,128,0,43472:0:0:0:0:
182,192,43472,1,0,0:0:0:0:
475,192,43472,1,0,0:0:0:0:
475,192,43619,1,0,0:0:0:0:
329,192,43619,1,0,0:0:0:0:
475,192,43766,1,0,0:0:0:0:
475,192,43913,1,0,0:0:0:0:
256,192,43913,1,0,0:0:0:0:
475,192,44060,1,0,0:0:0:0:
36,192,44060,128,0,44207:0:0:0:0:
329,192,44060,1,0,0:0:0:0:
475,192,44207,1,0,0:0:0:0:
109,192,44207,1,0,0:0:0:0:
475,192,44354,1,0,0:0:0:0:
36,192,44354,1,0,0:0:0:0:
256,192,44354,1,0,0:0:0:0:
475,192,44501,1,0,0:0:0:0:
109,192,44501,128,0,44648:0:0:0:0:
329,192,44501,1,0,0:0:0:0:
182,192,44648,1,0,0:0:0:0:
36,192,44648,1,0,0:0:0:0:
475,192,44648,1,0,0:0:0:0:
256,192,44795,1,0,0:0:0:0:
402,192,44795,1,0,0:0:0:0:
256,192,44942,1,0,0:0:0:0:
256,192,45090,1,0,0:0:0:0:
109,192,45090,1,0,0:0:0:0:
256,192,45237,1,0,0:0:0:0:
475,192,45237,128,0,45384:0:0:0:0:
256,192,45384,1,0,0:0:0:0:
402,192,45384,1,0,0:0:0:0:
256,192,45531,1,0,0:0:0:0:
256,192,45678,1,0,0:0:0:0:
402,192,45678,128,0,45825:0:0:0:0:
36,192,45678,1,0,0:0:0:0:
256,192,45825,1,0,0:0:0:0:
475,192,45825,1,0,0:0:0:0:
109,192,45825,1,0,0:0:0:0:
256,192,45972,1,0,0:0:0:0:
402,192,45972,1,0,0:0:0:0:
256,192,46119,1,0,0:0:0:0:
256,192,46266,1,0,0:0:0:0:
109,192,46266,1,0,0:0:0:0:
256,192,46413,1,0,0:0:0:0:
475,192,46413,1,0,0:0:0:0:
256,192,46560,1,0,0:0:0:0:
402,192,46560,1,0,0:0:0:0:
256,192,46707,1,0,0:0:0:0:
36,192,46707,1,0,0:0:0:0:
256,192,46854,1,0,0:0:0:0:
109,192,46854,1,0,0:0:0:0:
402,192,46854,1,0,0:0:0:0:
256,192,47001,1,0,0:0:0:0:
475,192,47001,1,0,0:0:0:0:
182,192,47001,1,0,0:0:0:0:
402,192,47148,128,0,47442:0:0:0:0:
329,192,47148,128,0,48031:0:0:0:0:
109,192,47148,128,0,48031:0:0:0:0:
182,192,47442,128,0,47590:0:0:0:0:
36,192,47590,128,0,48031:0:0:0:0:
256,192,48031,128,0,48178:0:0:0:0:
182,192,48031,128,0,49501:0:0:0:0:
402,192,48031,128,0,49501:0:0:0:0:
329,192,48178,128,0,48619:0:0:0:0:
475,192,48619,128,0,48766:0:0:0:0:
109,192,48766,128,0,49207:0:0:0:0:
256,192,49207,128,0,49354:0:0:0:0:
36,192,49354,128,0,50090:0:0:0:0:
475,192,49501,128,0,51854:0:0:0:0:
109,192,49501,128,0,50384:0:0:0:0:
329,192,49501,128,0,50384:0:0:0:0:
36,192,50384,128,0,51854:0:0:0:0:
109,192,50531,1,0,0:0:0:0:
329,192,50531,1,0,0:0:0:0:
256,192,50825,1,0,0:0:0:0:
402,192,50825,1,0,0:0:0:0:
182,192,51119,1,0,0:0:0:0:
109,192,51266,1,0,0:0:0:0:
182,192,51413,1,0,0:0:0:0:
256,192,51560,1,0,0:0:0:0:
402,192,51707,1,0,0:0:0:0:
182,192,51854,128,0,52737:0:0:0:0:
256,192,51854,128,0,52737:0:0:0:0:
329,192,52148,128,0,52295:0:0:0:0:
109,192,52295,128,0,52737:0:0:0:0:
36,192,52737,128,0,54207:0:0:0:0:
402,192,52737,128,0,54207:0:0:0:0:
329,192,52737,128,0,52884:0:0:0:0:
475,192,52884,128,0,53325:0:0:0:0:
182,192,53325,128,0,53472:0:0:0:0:
109,192,53472,128,0,53913:0:0:0:0:
329,192,53913,128,0,54060:0:0:0:0:
109,192,54060,128,0,54648:0:0:0:0:
329,192,54207,128,0,55090:0:0:0:0:
475,192,54207,128,0,55090:0:0:0:0:
182,192,54942,128,0,55237:0:0:0:0:
402,192,55090,128,0,56560:0:0:0:0:
256,192,55090,128,0,56560:0:0:0:0:
109,192,55237,128,0,55531:0:0:0:0:
36,192,55531,128,0,55825:0:0:0:0:
36,192,56413,1,0,0:0:0:0:
109,192,56413,1,0,0:0:0:0:
182,192,56560,1,0,0:0:0:0:
36,192,56560,1,0,0:0:0:0:
109,192,56560,1,0,0:0:0:0:
475,192,56707,1,0,0:0:0:0:
329,192,56707,1,0,0:0:0:0:
256,192,56854,1,0,0:0:0:0:
109,192,56854,1,0,0:0:0:0:
36,192,56854,1,0,0:0:0:0:
402,192,57001,1,0,0:0:0:0:
182,192,57001,1,0,0:0:0:0:
329,192,57148,1,0,0:0:0:0:
475,192,57148,1,0,0:0:0:0:
256,192,57148,1,0,0:0:0:0:
36,192,57295,1,0,0:0:0:0:
182,192,57295,1,0,0:0:0:0:
329,192,57442,1,0,0:0:0:0:
475,192,57442,1,0,0:0:0:0:
402,192,57442,1,0,0:0:0:0:
182,192,57590,1,0,0:0:0:0:
329,192,57590,1,0,0:0:0:0:
475,192,57590,1,0,0:0:0:0:
36,192,57737,1,0,0:0:0:0:
109,192,57737,1,0,0:0:0:0:
256,192,57737,1,0,0:0:0:0:
402,192,57884,1,0,0:0:0:0:
182,192,57884,1,0,0:0:0:0:
36,192,57957,1,0,0:0:0:0:
109,192,57957,1,0,0:0:0:0:
256,192,57957,1,0,0:0:0:0:
402,192,58104,1,0,0:0:0:0:
475,192,58104,1,0,0:0:0:0:
329,192,58178,1,0,0:0:0:0:
182,192,58178,1,0,0:0:0:0:
256,192,58178,1,0,0:0:0:0:
36,192,58325,1,0,0:0:0:0:
109,192,58325,1,0,0:0:0:0:
256,192,58325,1,0,0:0:0:0:
402,192,58472,1,0,0:0:0:0:
329,192,58472,1,0,0:0:0:0:
256,192,58619,1,0,0:0:0:0:
475,192,58619,1,0,0:0:0:0:
402,192,58619,1,0,0:0:0:0:
109,192,58766,1,0,0:0:0:0:
182,192,58766,1,0,0:0:0:0:
329,192,58766,1,0,0:0:0:0:
256,192,58913,1,0,0:0:0:0:
402,192,58913,1,0,0:0:0:0:
475,192,58913,1,0,0:0:0:0:
109,192,59060,1,0,0:0:0:0:
36,192,59060,1,0,0:0:0:0:
256,192,59207,1,0,0:0:0:0:
402,192,59207,1,0,0:0:0:0:
475,192,59207,1,0,0:0:0:0:
109,192,59354,1,0,0:0:0:0:
182,192,59354,1,0,0:0:0:0:
256,192,59501,1,0,0:0:0:0:
402,192,59501,1,0,0:0:0:0:
475,192,59501,1,0,0:0:0:0:
329,192,59648,1,0,0:0:0:0:
109,192,59648,1,0,0:0:0:0:
256,192,59795,1,0,0:0:0:0:
402,192,59795,1,0,0:0:0:0:
475,192,59795,1,0,0:0:0:0:
109,192,59942,1,0,0:0:0:0:
36,192,59942,1,0,0:0:0:0:
329,192,60090,1,0,0:0:0:0:
182,192,60090,1,0,0:0:0:0:
36,192,60090,1,0,0:0:0:0:
402,192,60237,1,0,0:0:0:0:
475,192,60237,1,0,0:0:0:0:
36,192,60310,1,0,0:0:0:0:
182,192,60310,1,0,0:0:0:0:
109,192,60310,1,0,0:0:0:0:
475,192,60457,1,0,0:0:0:0:
329,192,60457,1,0,0:0:0:0:
256,192,60531,1,0,0:0:0:0:
182,192,60531,1,0,0:0:0:0:
109,192,60531,1,0,0:0:0:0:
36,192,60678,1,0,0:0:0:0:
182,192,60678,1,0,0:0:0:0:
329,192,60678,1,0,0:0:0:0:
402,192,60825,1,0,0:0:0:0:
256,192,60825,1,0,0:0:0:0:
475,192,60825,1,0,0:0:0:0:
36,192,60972,1,0,0:0:0:0:
182,192,60972,1,0,0:0:0:0:
329,192,60972,1,0,0:0:0:0:
256,192,61119,1,0,0:0:0:0:
402,192,61119,1,0,0:0:0:0:
475,192,61119,1,0,0:0:0:0:
329,192,61266,1,0,0:0:0:0:
182,192,61266,1,0,0:0:0:0:
402,192,61413,1,0,0:0:0:0:
475,192,61413,1,0,0:0:0:0:
109,192,61560,1,0,0:0:0:0:
256,192,61560,1,0,0:0:0:0:
329,192,61707,1,0,0:0:0:0:
402,192,61707,1,0,0:0:0:0:
36,192,61854,1,0,0:0:0:0:
182,192,61854,1,0,0:0:0:0:
256,192,62001,1,0,0:0:0:0:
329,192,62001,1,0,0:0:0:0:
475,192,62148,1,0,0:0:0:0:
109,192,62148,1,0,0:0:0:0:
256,192,62295,1,0,0:0:0:0:
36,192,62295,1,0,0:0:0:0:
329,192,62442,1,0,0:0:0:0:
475,192,62442,1,0,0:0:0:0:
109,192,62516,1,0,0:0:0:0:
36,192,62516,1,0,0:0:0:0:
329,192,62590,1,0,0:0:0:0:
475,192,62590,1,0,0:0:0:0:
36,192,62663,1,0,0:0:0:0:
109,192,62663,1,0,0:0:0:0:
475,192,62737,1,0,0:0:0:0:
402,192,62737,1,0,0:0:0:0:
36,192,62810,1,0,0:0:0:0:
109,192,62810,1,0,0:0:0:0:
475,192,62884,1,0,0:0:0:0:
402,192,62884,1,0,0:0:0:0:
36,192,62957,1,0,0:0:0:0:
109,192,62957,1,0,0:0:0:0:
475,192,63031,1,0,0:0:0:0:
402,192,63031,1,0,0:0:0:0:
36,192,63104,1,0,0:0:0:0:
182,192,63104,1,0,0:0:0:0:
402,192,63178,1,0,0:0:0:0:
475,192,63178,1,0,0:0:0:0:
182,192,63251,1,0,0:0:0:0:
36,192,63251,1,0,0:0:0:0:
475,192,63325,1,0,0:0:0:0:
329,192,63325,1,0,0:0:0:0:
182,192,63398,1,0,0:0:0:0:
109,192,63398,1,0,0:0:0:0:
475,192,63472,1,0,0:0:0:0:
329,192,63472,1,0,0:0:0:0:
109,192,63545,1,0,0:0:0:0:
182,192,63545,1,0,0:0:0:0:
475,192,63619,1,0,0:0:0:0:
402,192,63656,1,0,0:0:0:0:
329,192,63692,1,0,0:0:0:0:
256,192,63729,1,0,0:0:0:0:
36,192,63766,1,0,0:0:0:0:
109,192,63803,1,0,0:0:0:0:
182,192,63840,1,0,0:0:0:0:
256,192,63876,1,0,0:0:0:0:
475,192,63913,1,0,0:0:0:0:
402,192,63950,1,0,0:0:0:0:
329,192,63987,1,0,0:0:0:0:
256,192,64023,1,0,0:0:0:0:
36,192,64060,1,0,0:0:0:0:
109,192,64097,1,0,0:0:0:0:
182,192,64134,1,0,0:0:0:0:
256,192,64170,1,0,0:0:0:0:
475,192,64207,1,0,0:0:0:0:
402,192,64244,1,0,0:0:0:0:
329,192,64281,1,0,0:0:0:0:
256,192,64317,1,0,0:0:0:0:
36,192,64354,1,0,0:0:0:0:
109,192,64391,1,0,0:0:0:0:
182,192,64428,1,0,0:0:0:0:
256,192,64465,1,0,0:0:0:0:
475,192,64501,1,0,0:0:0:0:
402,192,64538,1,0,0:0:0:0:
329,192,64575,1,0,0:0:0:0:
256,192,64612,1,0,0:0:0:0:
36,192,64648,1,0,0:0:0:0:
109,192,64685,1,0,0:0:0:0:
182,192,64722,1,0,0:0:0:0:
256,192,64759,1,0,0:0:0:0:
475,192,64795,1,0,0:0:0:0:
329,192,64795,1,0,0:0:0:0:
256,192,64942,1,0,0:0:0:0:
402,192,64942,1,0,0:0:0:0:
36,192,65090,1,0,0:0:0:0:
109,192,65090,1,0,0:0:0:0:
109,192,65237,1,0,0:0:0:0:
182,192,65237,1,0,0:0:0:0:
402,192,65531,1,0,0:0:0:0:
329,192,65678,1,0,0:0:0:0:
475,192,65678,1,0,0:0:0:0:
256,192,65825,1,0,0:0:0:0:
475,192,65825,1,0,0:0:0:0:
402,192,65972,1,0,0:0:0:0:
109,192,65972,1,0,0:0:0:0:
36,192,65972,1,0,0:0:0:0:
329,192,66045,1,0,0:0:0:0:
182,192,66119,1,0,0:0:0:0:
256,192,66192,1,0,0:0:0:0:
36,192,66266,1,0,0:0:0:0:
109,192,66266,1,0,0:0:0:0:
402,192,66266,1,0,0:0:0:0:
329,192,66340,1,0,0:0:0:0:
182,192,66413,1,0,0:0:0:0:
256,192,66487,1,0,0:0:0:0:
475,192,66560,1,0,0:0:0:0:
402,192,66560,1,0,0:0:0:0:
109,192,66560,1,0,0:0:0:0:
329,192,66634,1,0,0:0:0:0:
475,192,66707,1,0,0:0:0:0:
256,192,66781,1,0,0:0:0:0:
402,192,66854,1,0,0:0:0:0:
36,192,66854,1,0,0:0:0:0:
109,192,66854,1,0,0:0:0:0:
329,192,66928,1,0,0:0:0:0:
182,192,67001,1,0,0:0:0:0:
256,192,67075,1,0,0:0:0:0:
402,192,67148,1,0,0:0:0:0:
36,192,67148,1,0,0:0:0:0:
109,192,67148,1,0,0:0:0:0:
329,192,67222,1,0,0:0:0:0:
182,192,67295,1,0,0:0:0:0:
256,192,67369,1,0,0:0:0:0:
36,192,67442,1,0,0:0:0:0:
109,192,67442,1,0,0:0:0:0:
402,192,67442,1,0,0:0:0:0:
329,192,67516,1,0,0:0:0:0:
256,192,67590,1,0,0:0:0:0:
329,192,67663,1,0,0:0:0:0:
475,192,67737,1,0,0:0:0:0:
182,192,67737,1,0,0:0:0:0:
109,192,67737,1,0,0:0:0:0:
402,192,67810,1,0,0:0:0:0:
329,192,67884,1,0,0:0:0:0:
402,192,67957,1,0,0:0:0:0:
475,192,68031,1,0,0:0:0:0:
36,192,68031,1,0,0:0:0:0:
109,192,68031,1,0,0:0:0:0:
329,192,68104,1,0,0:0:0:0:
475,192,68178,1,0,0:0:0:0:
256,192,68251,1,0,0:0:0:0:
329,192,68325,1,0,0:0:0:0:
182,192,68325,1,0,0:0:0:0:
402,192,68325,1,0,0:0:0:0:
36,192,68398,1,0,0:0:0:0:
329,192,68472,1,0,0:0:0:0:
256,192,68545,1,0,0:0:0:0:
329,192,68619,1,0,0:0:0:0:
402,192,68619,1,0,0:0:0:0:
182,192,68619,1,0,0:0:0:0:
36,192,68692,1,0,0:0:0:0:
329,192,68766,1,0,0:0:0:0:
256,192,68840,1,0,0:0:0:0:
109,192,68913,1,0,0:0:0:0:
182,192,68913,1,0,0:0:0:0:
475,192,68913,1,0,0:0:0:0:
329,192,68987,1,0,0:0:0:0:
475,192,69060,1,0,0:0:0:0:
256,192,69134,1,0,0:0:0:0:
182,192,69207,1,0,0:0:0:0:
329,192,69207,1,0,0:0:0:0:
402,192,69207,1,0,0:0:0:0:
36,192,69281,1,0,0:0:0:0:
329,192,69354,1,0,0:0:0:0:
256,192,69428,1,0,0:0:0:0:
182,192,69501,1,0,0:0:0:0:
329,192,69501,1,0,0:0:0:0:
402,192,69501,1,0,0:0:0:0:
36,192,69575,1,0,0:0:0:0:
329,192,69648,1,0,0:0:0:0:
256,192,69722,1,0,0:0:0:0:
182,192,69795,1,0,0:0:0:0:
329,192,69795,1,0,0:0:0:0:
402,192,69795,1,0,0:0:0:0:
36,192,69869,1,0,0:0:0:0:
329,192,69942,1,0,0:0:0:0:
256,192,70016,1,0,0:0:0:0:
182,192,70090,1,0,0:0:0:0:
329,192,70090,1,0,0:0:0:0:
402,192,70090,1,0,0:0:0:0:
475,192,70163,1,0,0:0:0:0:
402,192,70237,1,0,0:0:0:0:
329,192,70384,1,0,0:0:0:0:
475,192,70384,1,0,0:0:0:0:
256,192,70531,1,0,0:0:0:0:
475,192,70531,1,0,0:0:0:0:
475,192,70678,1,0,0:0:0:0:
402,192,70678,1,0,0:0:0:0:
182,192,70678,1,0,0:0:0:0:
109,192,70751,1,0,0:0:0:0:
329,192,70825,1,0,0:0:0:0:
256,192,70898,1,0,0:0:0:0:
182,192,70972,1,0,0:0:0:0:
402,192,70972,1,0,0:0:0:0:
475,192,70972,1,0,0:0:0:0:
109,192,71045,1,0,0:0:0:0:
329,192,71119,1,0,0:0:0:0:
256,192,71192,1,0,0:0:0:0:
36,192,71266,1,0,0:0:0:0:
109,192,71266,1,0,0:0:0:0:
402,192,71266,1,0,0:0:0:0:
182,192,71340,1,0,0:0:0:0:
36,192,71413,1,0,0:0:0:0:
256,192,71487,1,0,0:0:0:0:
182,192,71560,1,0,0:0:0:0:
402,192,71560,1,0,0:0:0:0:
475,192,71560,1,0,0:0:0:0:
109,192,71634,1,0,0:0:0:0:
329,192,71707,1,0,0:0:0:0:
256,192,71781,1,0,0:0:0:0:
182,192,71854,1,0,0:0:0:0:
402,192,71854,1,0,0:0:0:0:
475,192,71854,1,0,0:0:0:0:
109,192,71928,1,0,0:0:0:0:
329,192,72001,1,0,0:0:0:0:
256,192,72075,1,0,0:0:0:0:
182,192,72148,1,0,0:0:0:0:
402,192,72148,1,0,0:0:0:0:
475,192,72148,1,0,0:0:0:0:
109,192,72222,1,0,0:0:0:0:
329,192,72295,1,0,0:0:0:0:
256,192,72369,1,0,0:0:0:0:
402,192,72442,1,0,0:0:0:0:
329,192,72442,1,0,0:0:0:0:
182,192,72442,1,0,0:0:0:0:
36,192,72516,1,0,0:0:0:0:
256,192,72590,1,0,0:0:0:0:
182,192,72663,1,0,0:0:0:0:
36,192,72737,1,0,0:0:0:0:
402,192,72737,1,0,0:0:0:0:
475,192,72737,1,0,0:0:0:0:
182,192,72810,1,0,0:0:0:0:
36,192,72884,1,0,0:0:0:0:
256,192,72957,1,0,0:0:0:0:
475,192,73031,1,0,0:0:0:0:
36,192,73031,1,0,0:0:0:0:
109,192,73031,1,0,0:0:0:0:
329,192,73104,1,0,0:0:0:0:
182,192,73178,1,0,0:0:0:0:
256,192,73251,1,0,0:0:0:0:
475,192,73325,1,0,0:0:0:0:
36,192,73325,1,0,0:0:0:0:
109,192,73325,1,0,0:0:0:0:
329,192,73398,1,0,0:0:0:0:
182,192,73472,1,0,0:0:0:0:
256,192,73545,1,0,0:0:0:0:
402,192,73619,1,0,0:0:0:0:
182,192,73619,1,0,0:0:0:0:
109,192,73619,1,0,0:0:0:0:
329,192,73692,1,0,0:0:0:0:
475,192,73766,1,0,0:0:0:0:
256,192,73840,1,0,0:0:0:0:
475,192,73913,1,0,0:0:0:0:
36,192,73913,1,0,0:0:0:0:
109,192,73913,1,0,0:0:0:0:
329,192,73987,1,0,0:0:0:0:
182,192,74060,1,0,0:0:0:0:
256,192,74134,1,0,0:0:0:0:
475,192,74207,1,0,0:0:0:0:
36,192,74207,1,0,0:0:0:0:
109,192,74207,1,0,0:0:0:0:
329,192,74281,1,0,0:0:0:0:
182,192,74354,1,0,0:0:0:0:
256,192,74428,1,0,0:0:0:0:
182,192,74501,1,0,0:0:0:0:
329,192,74501,1,0,0:0:0:0:
402,192,74501,1,0,0:0:0:0:
475,192,74501,1,0,0:0:0:0:
109,192,74575,1,0,0:0:0:0:
329,192,74648,1,0,0:0:0:0:
256,192,74722,1,0,0:0:0:0:
402,192,74795,1,0,0:0:0:0:
109,192,74795,1,0,0:0:0:0:
36,192,74795,1,0,0:0:0:0:
329,192,74869,1,0,0:0:0:0:
475,192,74942,1,0,0:0:0:0:
402,192,75090,1,0,0:0:0:0:
182,192,75090,1,0,0:0:0:0:
329,192,75237,1,0,0:0:0:0:
182,192,75237,1,0,0:0:0:0:
475,192,75384,1,0,0:0:0:0:
402,192,75384,1,0,0:0:0:0:
109,192,75384,1,0,0:0:0:0:
182,192,75457,1,0,0:0:0:0:
329,192,75531,1,0,0:0:0:0:
256,192,75604,1,0,0:0:0:0:
475,192,75678,1,0,0:0:0:0:
402,192,75678,1,0,0:0:0:0:
109,192,75678,1,0,0:0:0:0:
182,192,75751,1,0,0:0:0:0:
329,192,75825,1,0,0:0:0:0:
256,192,75898,1,0,0:0:0:0:
36,192,75972,1,0,0:0:0:0:
329,192,75972,1,0,0:0:0:0:
402,192,75972,1,0,0:0:0:0:
182,192,76045,1,0,0:0:0:0:
36,192,76119,1,0,0:0:0:0:
256,192,76192,1,0,0:0:0:0:
109,192,76266,1,0,0:0:0:0:
475,192,76266,1,0,0:0:0:0:
402,192,76266,1,0,0:0:0:0:
182,192,76340,1,0,0:0:0:0:
329,192,76413,1,0,0:0:0:0:
256,192,76487,1,0,0:0:0:0:
109,192,76560,1,0,0:0:0:0:
475,192,76560,1,0,0:0:0:0:
402,192,76560,1,0,0:0:0:0:
182,192,76634,1,0,0:0:0:0:
329,192,76707,1,0,0:0:0:0:
256,192,76781,1,0,0:0:0:0:
475,192,76854,1,0,0:0:0:0:
402,192,76854,1,0,0:0:0:0:
109,192,76854,1,0,0:0:0:0:
182,192,76928,1,0,0:0:0:0:
256,192,77001,1,0,0:0:0:0:
182,192,77075,1,0,0:0:0:0:
36,192,77148,1,0,0:0:0:0:
329,192,77148,1,0,0:0:0:0:
402,192,77148,1,0,0:0:0:0:
109,192,77222,1,0,0:0:0:0:
182,192,77295,1,0,0:0:0:0:
109,192,77369,1,0,0:0:0:0:
36,192,77442,1,0,0:0:0:0:
475,192,77442,1,0,0:0:0:0:
402,192,77442,1,0,0:0:0:0:
182,192,77516,1,0,0:0:0:0:
36,192,77590,1,0,0:0:0:0:
256,192,77663,1,0,0:0:0:0:
109,192,77737,1,0,0:0:0:0:
329,192,77737,1,0,0:0:0:0:
402,192,77737,1,0,0:0:0:0:
475,192,77810,1,0,0:0:0:0:
182,192,77884,1,0,0:0:0:0:
256,192,77957,1,0,0:0:0:0:
402,192,78031,1,0,0:0:0:0:
109,192,78031,1,0,0:0:0:0:
329,192,78031,1,0,0:0:0:0:
475,192,78104,1,0,0:0:0:0:
182,192,78178,1,0,0:0:0:0:
256,192,78251,1,0,0:0:0:0:
475,192,78325,1,0,0:0:0:0:
402,192,78325,1,0,0:0:0:0:
36,192,78325,1,0,0:0:0:0:
182,192,78398,1,0,0:0:0:0:
36,192,78472,1,0,0:0:0:0:
256,192,78545,1,0,0:0:0:0:
329,192,78619,1,0,0:0:0:0:
402,192,78619,1,0,0:0:0:0:
109,192,78619,1,0,0:0:0:0:
475,192,78692,1,0,0:0:0:0:
182,192,78766,1,0,0:0:0:0:
256,192,78840,1,0,0:0:0:0:
402,192,78913,1,0,0:0:0:0:
329,192,78913,1,0,0:0:0:0:
109,192,78913,1,0,0:0:0:0:
475,192,78987,1,0,0:0:0:0:
182,192,79060,1,0,0:0:0:0:
256,192,79134,1,0,0:0:0:0:
402,192,79207,1,0,0:0:0:0:
329,192,79207,1,0,0:0:0:0:
109,192,79207,1,0,0:0:0:0:
475,192,79281,1,0,0:0:0:0:
182,192,79354,1,0,0:0:0:0:
256,192,79428,1,0,0:0:0:0:
402,192,79501,1,0,0:0:0:0:
329,192,79501,1,0,0:0:0:0:
109,192,79501,1,0,0:0:0:0:
36,192,79575,1,0,0:0:0:0:
109,192,79648,1,0,0:0:0:0:
182,192,79795,1,0,0:0:0:0:
36,192,79795,1,0,0:0:0:0:
256,192,79942,1,0,0:0:0:0:
36,192,79942,1,0,0:0:0:0:
36,192,80090,1,0,0:0:0:0:
109,192,80090,1,0,0:0:0:0:
329,192,80090,1,0,0:0:0:0:
402,192,80163,1,0,0:0:0:0:
182,192,80237,1,0,0:0:0:0:
256,192,80310,1,0,0:0:0:0:
329,192,80384,1,0,0:0:0:0:
109,192,80384,1,0,0:0:0:0:
36,192,80384,1,0,0:0:0:0:
402,192,80457,1,0,0:0:0:0:
182,192,80531,1,0,0:0:0:0:
256,192,80604,1,0,0:0:0:0:
475,192,80678,1,0,0:0:0:0:
182,192,80678,1,0,0:0:0:0:
109,192,80678,1,0,0:0:0:0:
329,192,80751,1,0,0:0:0:0:
475,192,80825,1,0,0:0:0:0:
256,192,80898,1,0,0:0:0:0:
329,192,80972,1,0,0:0:0:0:
109,192,80972,1,0,0:0:0:0:
36,192,80972,1,0,0:0:0:0:
402,192,81045,1,0,0:0:0:0:
182,192,81119,1,0,0:0:0:0:
256,192,81192,1,0,0:0:0:0:
329,192,81266,1,0,0:0:0:0:
109,192,81266,1,0,0:0:0:0:
36,192,81266,1,0,0:0:0:0:
402,192,81340,1,0,0:0:0:0:
182,192,81413,1,0,0:0:0:0:
256,192,81487,1,0,0:0:0:0:
329,192,81560,1,0,0:0:0:0:
109,192,81560,1,0,0:0:0:0:
36,192,81560,1,0,0:0:0:0:
402,192,81634,1,0,0:0:0:0:
182,192,81707,1,0,0:0:0:0:
256,192,81781,1,0,0:0:0:0:
109,192,81854,1,0,0:0:0:0:
402,192,81854,1,0,0:0:0:0:
329,192,81854,1,0,0:0:0:0:
475,192,81928,1,0,0:0:0:0:
256,192,82001,1,0,0:0:0:0:
329,192,82075,1,0,0:0:0:0:
475,192,82148,1,0,0:0:0:0:
109,192,82148,1,0,0:0:0:0:
36,192,82148,1,0,0:0:0:0:
329,192,82222,1,0,0:0:0:0:
475,192,82295,1,0,0:0:0:0:
256,192,82369,1,0,0:0:0:0:
36,192,82442,1,0,0:0:0:0:
475,192,82442,1,0,0:0:0:0:
402,192,82442,1,0,0:0:0:0:
182,192,82516,1,0,0:0:0:0:
329,192,82590,1,0,0:0:0:0:
256,192,82663,1,0,0:0:0:0:
36,192,82737,1,0,0:0:0:0:
475,192,82737,1,0,0:0:0:0:
402,192,82737,1,0,0:0:0:0:
182,192,82810,1,0,0:0:0:0:
329,192,82884,1,0,0:0:0:0:
256,192,82957,1,0,0:0:0:0:
109,192,83031,1,0,0:0:0:0:
402,192,83031,1,0,0:0:0:0:
475,192,83031,1,0,0:0:0:0:
182,192,83104,1,0,0:0:0:0:
36,192,83178,1,0,0:0:0:0:
256,192,83251,1,0,0:0:0:0:
36,192,83325,1,0,0:0:0:0:
475,192,83325,1,0,0:0:0:0:
402,192,83325,1,0,0:0:0:0:
182,192,83398,1,0,0:0:0:0:
329,192,83472,1,0,0:0:0:0:
256,192,83545,1,0,0:0:0:0:
36,192,83619,1,0,0:0:0:0:
329,192,83619,1,0,0:0:0:0:
182,192,83692,1,0,0:0:0:0:
329,192,83766,1,0,0:0:0:0:
256,192,83840,1,0,0:0:0:0:
329,192,83913,1,0,0:0:0:0:
182,192,83913,1,0,0:0:0:0:
402,192,83987,1,0,0:0:0:0:
182,192,84060,1,0,0:0:0:0:
256,192,84134,1,0,0:0:0:0:
109,192,84207,1,0,0:0:0:0:
329,192,84207,1,0,0:0:0:0:
182,192,84281,1,0,0:0:0:0:
36,192,84354,1,0,0:0:0:0:
109,192,84501,1,0,0:0:0:0:
329,192,84501,1,0,0:0:0:0:
475,192,84501,1,0,0:0:0:0:
182,192,84648,1,0,0:0:0:0:
329,192,84648,1,0,0:0:0:0:
402,192,84648,1,0,0:0:0:0:
36,192,84795,1,0,0:0:0:0:
109,192,84795,1,0,0:0:0:0:
256,192,84795,1,0,0:0:0:0:
402,192,84869,1,0,0:0:0:0:
182,192,84942,1,0,0:0:0:0:
329,192,85016,1,0,0:0:0:0:
36,192,85090,1,0,0:0:0:0:
109,192,85090,1,0,0:0:0:0:
256,192,85090,1,0,0:0:0:0:
402,192,85163,1,0,0:0:0:0:
182,192,85237,1,0,0:0:0:0:
329,192,85310,1,0,0:0:0:0:
256,192,85384,1,0,0:0:0:0:
182,192,85384,1,0,0:0:0:0:
109,192,85384,1,0,0:0:0:0:
402,192,85457,1,0,0:0:0:0:
475,192,85531,1,0,0:0:0:0:
329,192,85604,1,0,0:0:0:0:
36,192,85678,1,0,0:0:0:0:
109,192,85678,1,0,0:0:0:0:
256,192,85678,1,0,0:0:0:0:
402,192,85751,1,0,0:0:0:0:
182,192,85825,1,0,0:0:0:0:
329,192,85898,1,0,0:0:0:0:
36,192,85972,1,0,0:0:0:0:
109,192,85972,1,0,0:0:0:0:
256,192,85972,1,0,0:0:0:0:
402,192,86045,1,0,0:0:0:0:
182,192,86119,1,0,0:0:0:0:
329,192,86192,1,0,0:0:0:0:
36,192,86266,1,0,0:0:0:0:
109,192,86266,1,0,0:0:0:0:
256,192,86266,1,0,0:0:0:0:
402,192,86340,1,0,0:0:0:0:
182,192,86413,1,0,0:0:0:0:
329,192,86487,1,0,0:0:0:0:
475,192,86560,1,0,0:0:0:0:
402,192,86560,1,0,0:0:0:0:
182,192,86560,1,0,0:0:0:0:
256,192,86634,1,0,0:0:0:0:
402,192,86707,1,0,0:0:0:0:
329,192,86781,1,0,0:0:0:0:
475,192,86854,1,0,0:0:0:0:
182,192,86928,1,0,0:0:0:0:
475,192,87001,1,0,0:0:0:0:
256,192,87075,1,0,0:0:0:0:
182,192,87148,1,0,0:0:0:0:
329,192,87148,1,0,0:0:0:0:
475,192,87148,1,0,0:0:0:0:
402,192,87222,1,0,0:0:0:0:
109,192,87295,1,0,0:0:0:0:
256,192,87369,1,0,0:0:0:0:
329,192,87442,1,0,0:0:0:0:
475,192,87442,1,0,0:0:0:0:
182,192,87442,1,0,0:0:0:0:
109,192,87516,1,0,0:0:0:0:
402,192,87590,1,0,0:0:0:0:
256,192,87663,1,0,0:0:0:0:
329,192,87737,1,0,0:0:0:0:
475,192,87737,1,0,0:0:0:0:
109,192,87737,1,0,0:0:0:0:
402,192,87810,1,0,0:0:0:0:
475,192,87884,1,0,0:0:0:0:
256,192,87957,1,0,0:0:0:0:
475,192,88031,1,0,0:0:0:0:
329,192,88031,1,0,0:0:0:0:
36,192,88031,1,0,0:0:0:0:
402,192,88104,1,0,0:0:0:0:
109,192,88178,1,0,0:0:0:0:
256,192,88251,1,0,0:0:0:0:
36,192,88325,1,0,0:0:0:0:
329,192,88325,1,0,0:0:0:0:
475,192,88325,1,0,0:0:0:0:
109,192,88398,1,0,0:0:0:0:
402,192,88472,1,0,0:0:0:0:
256,192,88545,1,0,0:0:0:0:
36,192,88619,1,0,0:0:0:0:
329,192,88619,1,0,0:0:0:0:
475,192,88619,1,0,0:0:0:0:
402,192,88692,1,0,0:0:0:0:
109,192,88766,1,0,0:0:0:0:
256,192,88840,1,0,0:0:0:0:
475,192,88913,1,0,0:0:0:0:
329,192,88913,1,0,0:0:0:0:
36,192,88913,1,0,0:0:0:0:
402,192,89060,1,0,0:0:0:0:
329,192,89207,1,0,0:0:0:0:
109,192,89207,1,0,0:0:0:0:
256,192,89354,1,0,0:0:0:0:
109,192,89354,1,0,0:0:0:0:
329,192,89501,1,0,0:0:0:0:
402,192,89501,1,0,0:0:0:0:
256,192,89501,1,0,0:0:0:0:
36,192,89575,1,0,0:0:0:0:
109,192,89648,1,0,0:0:0:0:
475,192,89722,1,0,0:0:0:0:
329,192,89795,1,0,0:0:0:0:
402,192,89795,1,0,0:0:0:0:
256,192,89795,1,0,0:0:0:0:
36,192,89869,1,0,0:0:0:0:
109,192,89942,1,0,0:0:0:0:
475,192,90016,1,0,0:0:0:0:
36,192,90090,1,0,0:0:0:0:
109,192,90090,1,0,0:0:0:0:
256,192,90090,1,0,0:0:0:0:
329,192,90163,1,0,0:0:0:0:
36,192,90237,1,0,0:0:0:0:
475,192,90310,1,0,0:0:0:0:
256,192,90384,1,0,0:0:0:0:
329,192,90384,1,0,0:0:0:0:
402,192,90384,1,0,0:0:0:0:
36,192,90457,1,0,0:0:0:0:
109,192,90531,1,0,0:0:0:0:
475,192,90604,1,0,0:0:0:0:
329,192,90678,1,0,0:0:0:0:
256,192,90678,1,0,0:0:0:0:
402,192,90678,1,0,0:0:0:0:
36,192,90751,1,0,0:0:0:0:
109,192,90825,1,0,0:0:0:0:
475,192,90898,1,0,0:0:0:0:
256,192,90972,1,0,0:0:0:0:
402,192,90972,1,0,0:0:0:0:
329,192,90972,1,0,0:0:0:0:
36,192,91045,1,0,0:0:0:0:
256,192,91119,1,0,0:0:0:0:
182,192,91192,1,0,0:0:0:0:
36,192,91266,1,0,0:0:0:0:
109,192,91266,1,0,0:0:0:0:
329,192,91266,1,0,0:0:0:0:
475,192,91340,1,0,0:0:0:0:
256,192,91413,1,0,0:0:0:0:
329,192,91487,1,0,0:0:0:0:
475,192,91560,1,0,0:0:0:0:
182,192,91634,1,0,0:0:0:0:
475,192,91707,1,0,0:0:0:0:
256,192,91781,1,0,0:0:0:0:
402,192,91854,1,0,0:0:0:0:
109,192,91854,1,0,0:0:0:0:
182,192,91854,1,0,0:0:0:0:
36,192,91928,1,0,0:0:0:0:
329,192,92001,1,0,0:0:0:0:
256,192,92075,1,0,0:0:0:0:
109,192,92148,1,0,0:0:0:0:
182,192,92148,1,0,0:0:0:0:
402,192,92148,1,0,0:0:0:0:
36,192,92222,1,0,0:0:0:0:
329,192,92295,1,0,0:0:0:0:
256,192,92369,1,0,0:0:0:0:
36,192,92442,1,0,0:0:0:0:
475,192,92442,1,0,0:0:0:0:
402,192,92442,1,0,0:0:0:0:
329,192,92516,1,0,0:0:0:0:
475,192,92590,1,0,0:0:0:0:
256,192,92663,1,0,0:0:0:0:
109,192,92737,1,0,0:0:0:0:
182,192,92737,1,0,0:0:0:0:
402,192,92737,1,0,0:0:0:0:
36,192,92810,1,0,0:0:0:0:
402,192,92884,1,0,0:0:0:0:
256,192,92957,1,0,0:0:0:0:
329,192,93031,1,0,0:0:0:0:
36,192,93104,1,0,0:0:0:0:
402,192,93178,1,0,0:0:0:0:
256,192,93251,1,0,0:0:0:0:
329,192,93325,1,0,0:0:0:0:
36,192,93398,1,0,0:0:0:0:
402,192,93472,1,0,0:0:0:0:
256,192,93545,1,0,0:0:0:0:
329,192,93619,1,0,0:0:0:0:
36,192,93692,1,0,0:0:0:0:
402,192,93766,1,0,0:0:0:0:
256,192,93913,1,0,0:0:0:0:
109,192,93913,1,0,0:0:0:0:
182,192,94060,1,0,0:0:0:0:
109,192,94060,1,0,0:0:0:0:
182,192,94207,1,0,0:0:0:0:
329,192,94207,1,0,0:0:0:0:
182,192,94354,1,0,0:0:0:0:
182,192,94501,1,0,0:0:0:0:
329,192,94501,1,0,0:0:0:0:
182,192,94648,1,0,0:0:0:0:
182,192,94795,1,0,0:0:0:0:
329,192,94795,1,0,0:0:0:0:
182,192,94942,1,0,0:0:0:0:
402,192,94942,1,0,0:0:0:0:
182,192,95090,1,0,0:0:0:0:
329,192,95090,1,0,0:0:0:0:
182,192,95237,1,0,0:0:0:0:
402,192,95237,1,0,0:0:0:0:
329,192,95384,1,0,0:0:0:0:
182,192,95384,1,0,0:0:0:0:
329,192,95531,1,0,0:0:0:0:
329,192,95678,1,0,0:0:0:0:
182,192,95678,1,0,0:0:0:0:
329,192,95825,1,0,0:0:0:0:
329,192,95972,1,0,0:0:0:0:
182,192,95972,1,0,0:0:0:0:
329,192,96119,1,0,0:0:0:0:
36,192,96119,1,0,0:0:0:0:
329,192,96266,1,0,0:0:0:0:
182,192,96266,1,0,0:0:0:0:
329,192,96413,1,0,0:0:0:0:
36,192,96413,1,0,0:0:0:0:
182,192,96560,1,0,0:0:0:0:
329,192,96560,1,0,0:0:0:0:
182,192,96707,1,0,0:0:0:0:
182,192,96854,1,0,0:0:0:0:
329,192,96854,1,0,0:0:0:0:
475,192,96854,1,0,0:0:0:0:
182,192,97001,1,0,0:0:0:0:
402,192,97001,1,0,0:0:0:0:
182,192,97148,1,0,0:0:0:0:
109,192,97148,1,0,0:0:0:0:
329,192,97148,1,0,0:0:0:0:
182,192,97295,1,0,0:0:0:0:
402,192,97295,1,0,0:0:0:0:
36,192,97295,1,0,0:0:0:0:
182,192,97442,1,0,0:0:0:0:
329,192,97442,1,0,0:0:0:0:
182,192,97590,1,0,0:0:0:0:
402,192,97590,1,0,0:0:0:0:
475,192,97590,1,0,0:0:0:0:
329,192,97737,1,0,0:0:0:0:
182,192,97737,1,0,0:0:0:0:
329,192,97884,1,0,0:0:0:0:
329,192,98031,1,0,0:0:0:0:
182,192,98031,1,0,0:0:0:0:
329,192,98178,1,0,0:0:0:0:
329,192,98325,1,0,0:0:0:0:
182,192,98325,1,0,0:0:0:0:
475,192,98325,1,0,0:0:0:0:
329,192,98472,1,0,0:0:0:0:
36,192,98472,1,0,0:0:0:0:
402,192,98472,1,0,0:0:0:0:
329,192,98619,1,0,0:0:0:0:
182,192,98619,1,0,0:0:0:0:
329,192,98766,1,0,0:0:0:0:
36,192,98766,1,0,0:0:0:0:
475,192,98766,1,0,0:0:0:0:
109,192,98913,1,0,0:0:0:0:
402,192,98913,1,0,0:0:0:0:
109,192,99060,1,0,0:0:0:0:
256,192,99060,1,0,0:0:0:0:
109,192,99207,1,0,0:0:0:0:
402,192,99207,1,0,0:0:0:0:
109,192,99354,1,0,0:0:0:0:
109,192,99501,1,0,0:0:0:0:
402,192,99501,1,0,0:0:0:0:
109,192,99648,1,0,0:0:0:0:
329,192,99648,1,0,0:0:0:0:
109,192,99795,1,0,0:0:0:0:
475,192,99795,1,0,0:0:0:0:
109,192,99942,1,0,0:0:0:0:
329,192,99942,1,0,0:0:0:0:
402,192,100090,1,0,0:0:0:0:
109,192,100090,1,0,0:0:0:0:
402,192,100237,1,0,0:0:0:0:
402,192,100384,1,0,0:0:0:0:
109,192,100384,1,0,0:0:0:0:
402,192,100531,1,0,0:0:0:0:
402,192,100678,1,0,0:0:0:0:
109,192,100678,1,0,0:0:0:0:
402,192,100825,1,0,0:0:0:0:
36,192,100825,1,0,0:0:0:0:
402,192,100972,1,0,0:0:0:0:
182,192,100972,1,0,0:0:0:0:
402,192,101119,1,0,0:0:0:0:
256,192,101119,1,0,0:0:0:0:
36,192,101266,1,0,0:0:0:0:
182,192,101266,1,0,0:0:0:0:
36,192,101413,1,0,0:0:0:0:
36,192,101560,1,0,0:0:0:0:
182,192,101560,1,0,0:0:0:0:
402,192,101560,1,0,0:0:0:0:
36,192,101707,1,0,0:0:0:0:
329,192,101707,1,0,0:0:0:0:
36,192,101854,1,0,0:0:0:0:
182,192,101854,1,0,0:0:0:0:
256,192,101854,1,0,0:0:0:0:
36,192,102001,1,0,0:0:0:0:
475,192,102001,1,0,0:0:0:0:
36,192,102148,1,0,0:0:0:0:
256,192,102148,1,0,0:0:0:0:
402,192,102148,1,0,0:0:0:0:
36,192,102295,1,0,0:0:0:0:
329,192,102295,1,0,0:0:0:0:
182,192,102295,1,0,0:0:0:0:
475,192,102442,1,0,0:0:0:0:
329,192,102442,1,0,0:0:0:0:
475,192,102590,1,0,0:0:0:0:
256,192,102590,1,0,0:0:0:0:
475,192,102737,1,0,0:0:0:0:
329,192,102737,1,0,0:0:0:0:
475,192,102884,1,0,0:0:0:0:
475,192,103031,1,0,0:0:0:0:
329,192,103031,1,0,0:0:0:0:
182,192,103031,1,0,0:0:0:0:
475,192,103178,1,0,0:0:0:0:
256,192,103178,1,0,0:0:0:0:
36,192,103178,1,0,0:0:0:0:
475,192,103325,1,0,0:0:0:0:
109,192,103325,1,0,0:0:0:0:
475,192,103472,1,0,0:0:0:0:
402,192,103472,1,0,0:0:0:0:
182,192,103472,1,0,0:0:0:0:
256,192,103619,1,0,0:0:0:0:
402,192,103619,1,0,0:0:0:0:
256,192,103766,1,0,0:0:0:0:
109,192,103766,1,0,0:0:0:0:
256,192,103913,1,0,0:0:0:0:
402,192,103913,1,0,0:0:0:0:
256,192,104060,1,0,0:0:0:0:
256,192,104207,1,0,0:0:0:0:
402,192,104207,1,0,0:0:0:0:
256,192,104354,1,0,0:0:0:0:
36,192,104354,1,0,0:0:0:0:
256,192,104501,1,0,0:0:0:0:
109,192,104501,1,0,0:0:0:0:
256,192,104648,1,0,0:0:0:0:
182,192,104648,1,0,0:0:0:0:
402,192,104795,1,0,0:0:0:0:
256,192,104795,1,0,0:0:0:0:
402,192,104942,1,0,0:0:0:0:
402,192,105090,1,0,0:0:0:0:
256,192,105090,1,0,0:0:0:0:
402,192,105237,1,0,0:0:0:0:
402,192,105384,1,0,0:0:0:0:
109,192,105384,1,0,0:0:0:0:
402,192,105531,1,0,0:0:0:0:
36,192,105531,1,0,0:0:0:0:
329,192,105678,128,0,105751:0:0:0:0:
475,192,105678,128,0,105751:0:0:0:0:
182,192,105825,128,0,105898:0:0:0:0:
36,192,105825,128,0,105898:0:0:0:0:
475,192,105972,1,0,0:0:0:0:
109,192,105972,1,0,0:0:0:0:
182,192,105972,1,0,0:0:0:0:
475,192,106119,1,0,0:0:0:0:
475,192,106266,1,0,0:0:0:0:
329,192,106266,1,0,0:0:0:0:
475,192,106413,1,0,0:0:0:0:
36,192,106413,128,0,106560:0:0:0:0:
475,192,106560,1,0,0:0:0:0:
109,192,106560,1,0,0:0:0:0:
475,192,106707,1,0,0:0:0:0:
256,192,106707,1,0,0:0:0:0:
475,192,106854,1,0,0:0:0:0:
109,192,106854,128,0,107001:0:0:0:0:
475,192,107001,1,0,0:0:0:0:
36,192,107001,1,0,0:0:0:0:
182,192,107148,1,0,0:0:0:0:
329,192,107148,1,0,0:0:0:0:
182,192,107295,1,0,0:0:0:0:
182,192,107442,1,0,0:0:0:0:
182,192,107590,1,0,0:0:0:0:
475,192,107590,128,0,107737:0:0:0:0:
36,192,107590,1,0,0:0:0:0:
182,192,107737,1,0,0:0:0:0:
402,192,107737,1,0,0:0:0:0:
182,192,107884,1,0,0:0:0:0:
182,192,108031,1,0,0:0:0:0:
402,192,108031,128,0,108178:0:0:0:0:
36,192,108031,1,0,0:0:0:0:
182,192,108178,1,0,0:0:0:0:
475,192,108178,1,0,0:0:0:0:
256,192,108178,1,0,0:0:0:0:
402,192,108325,1,0,0:0:0:0:
402,192,108472,1,0,0:0:0:0:
402,192,108619,1,0,0:0:0:0:
182,192,108619,1,0,0:0:0:0:
402,192,108766,1,0,0:0:0:0:
36,192,108766,128,0,108913:0:0:0:0:
402,192,108913,1,0,0:0:0:0:
109,192,108913,1,0,0:0:0:0:
402,192,109060,1,0,0:0:0:0:
256,192,109060,1,0,0:0:0:0:
402,192,109207,1,0,0:0:0:0:
109,192,109207,128,0,109354:0:0:0:0:
402,192,109354,1,0,0:0:0:0:
36,192,109354,1,0,0:0:0:0:
109,192,109501,1,0,0:0:0:0:
329,192,109501,1,0,0:0:0:0:
109,192,109648,1,0,0:0:0:0:
109,192,109795,1,0,0:0:0:0:
109,192,109942,1,0,0:0:0:0:
475,192,109942,128,0,110090:0:0:0:0:
256,192,109942,1,0,0:0:0:0:
109,192,110090,1,0,0:0:0:0:
402,192,110090,1,0,0:0:0:0:
109,192,110237,1,0,0:0:0:0:
256,192,110237,1,0,0:0:0:0:
109,192,110384,1,0,0:0:0:0:
36,192,110384,1,0,0:0:0:0:
402,192,110384,128,0,110531:0:0:0:0:
256,192,110531,1,0,0:0:0:0:
475,192,110531,1,0,0:0:0:0:
109,192,110531,1,0,0:0:0:0:
329,192,110678,1,0,0:0:0:0:
182,192,110678,1,0,0:0:0:0:
329,192,110825,1,0,0:0:0:0:
329,192,110972,1,0,0:0:0:0:
402,192,110972,1,0,0:0:0:0:
329,192,111119,1,0,0:0:0:0:
36,192,111119,128,0,111266:0:0:0:0:
329,192,111266,1,0,0:0:0:0:
109,192,111266,1,0,0:0:0:0:
329,192,111413,1,0,0:0:0:0:
475,192,111413,1,0,0:0:0:0:
329,192,111560,1,0,0:0:0:0:
109,192,111560,128,0,111707:0:0:0:0:
329,192,111707,1,0,0:0:0:0:
36,192,111707,1,0,0:0:0:0:
36,192,111854,1,0,0:0:0:0:
182,192,111854,1,0,0:0:0:0:
36,192,112001,1,0,0:0:0:0:
36,192,112148,1,0,0:0:0:0:
256,192,112148,1,0,0:0:0:0:
36,192,112295,1,0,0:0:0:0:
475,192,112295,128,0,112442:0:0:0:0:
182,192,112295,1,0,0:0:0:0:
36,192,112442,1,0,0:0:0:0:
402,192,112442,1,0,0:0:0:0:
36,192,112590,1,0,0:0:0:0:
475,192,112590,1,0,0:0:0:0:
256,192,112590,1,0,0:0:0:0:
36,192,112737,1,0,0:0:0:0:
402,192,112737,128,0,112884:0:0:0:0:
182,192,112737,1,0,0:0:0:0:
329,192,112884,1,0,0:0:0:0:
475,192,112884,1,0,0:0:0:0:
36,192,112884,1,0,0:0:0:0:
256,192,113031,1,0,0:0:0:0:
109,192,113031,1,0,0:0:0:0:
256,192,113178,1,0,0:0:0:0:
256,192,113325,1,0,0:0:0:0:
402,192,113325,1,0,0:0:0:0:
256,192,113472,1,0,0:0:0:0:
36,192,113472,128,0,113619:0:0:0:0:
256,192,113619,1,0,0:0:0:0:
109,192,113619,1,0,0:0:0:0:
256,192,113766,1,0,0:0:0:0:
256,192,113913,1,0,0:0:0:0:
109,192,113913,128,0,114060:0:0:0:0:
475,192,113913,1,0,0:0:0:0:
256,192,114060,1,0,0:0:0:0:
36,192,114060,1,0,0:0:0:0:
402,192,114060,1,0,0:0:0:0:
256,192,114207,1,0,0:0:0:0:
109,192,114207,1,0,0:0:0:0:
256,192,114354,1,0,0:0:0:0:
256,192,114501,1,0,0:0:0:0:
402,192,114501,1,0,0:0:0:0:
256,192,114648,1,0,0:0:0:0:
36,192,114648,1,0,0:0:0:0:
256,192,114795,1,0,0:0:0:0:
109,192,114795,1,0,0:0:0:0:
256,192,114942,1,0,0:0:0:0:
475,192,114942,1,0,0:0:0:0:
256,192,115090,1,0,0:0:0:0:
402,192,115090,1,0,0:0:0:0:
109,192,115090,1,0,0:0:0:0:
256,192,115237,1,0,0:0:0:0:
36,192,115237,1,0,0:0:0:0:
329,192,115237,1,0,0:0:0:0:
109,192,115384,128,0,115678:0:0:0:0:
182,192,115384,128,0,116266:0:0:0:0:
402,192,115384,128,0,116266:0:0:0:0:
329,192,115678,128,0,115825:0:0:0:0:
475,192,115825,128,0,116266:0:0:0:0:
256,192,116266,128,0,116413:0:0:0:0:
329,192,116266,128,0,117737:0:0:0:0:
109,192,116266,128,0,117737:0:0:0:0:
182,192,116413,128,0,116854:0:0:0:0:
36,192,116854,128,0,117001:0:0:0:0:
402,192,117001,128,0,117442:0:0:0:0:
256,192,117442,128,0,117590:0:0:0:0:
475,192,117590,128,0,118325:0:0:0:0:
36,192,117737,128,0,120090:0:0:0:0:
402,192,117737,128,0,118619:0:0:0:0:
182,192,117737,128,0,118619:0:0:0:0:
475,192,118619,128,0,120090:0:0:0:0:
402,192,118766,1,0,0:0:0:0:
182,192,118766,1,0,0:0:0:0:
256,192,119060,1,0,0:0:0:0:
109,192,119060,1,0,0:0:0:0:
329,192,119354,1,0,0:0:0:0:
402,192,119501,1,0,0:0:0:0:
329,192,119648,1,0,0:0:0:0:
256,192,119795,1,0,0:0:0:0:
109,192,119942,1,0,0:0:0:0:
329,192,120090,128,0,120972:0:0:0:0:
256,192,120090,128,0,120972:0:0:0:0:
182,192,120384,128,0,120531:0:0:0:0:
402,192,120531,128,0,120972:0:0:0:0:
475,192,120972,128,0,122442:0:0:0:0:
109,192,120972,128,0,122442:0:0:0:0:
182,192,120972,128,0,121119:0:0:0:0:
36,192,121119,128,0,121560:0:0:0:0:
329,192,121560,128,0,121707:0:0:0:0:
402,192,121707,128,0,122148:0:0:0:0:
182,192,122148,128,0,122295:0:0:0:0:
402,192,122295,128,0,122884:0:0:0:0:
182,192,122442,128,0,123325:0:0:0:0:
36,192,122442,128,0,123325:0:0:0:0:
329,192,123178,128,0,123472:0:0:0:0:
109,192,123325,128,0,124795:0:0:0:0:
256,192,123325,128,0,124795:0:0:0:0:
402,192,123472,128,0,123766:0:0:0:0:
475,192,123766,128,0,124060:0:0:0:0:
475,192,124648,1,0,0:0:0:0:
402,192,124648,1,0,0:0:0:0:
329,192,124795,1,0,0:0:0:0:
475,192,124795,1,0,0:0:0:0:
402,192,124795,1,0,0:0:0:0:
36,192,124942,1,0,0:0:0:0:
182,192,124942,1,0,0:0:0:0:
256,192,125090,1,0,0:0:0:0:
402,192,125090,1,0,0:0:0:0:
475,192,125090,1,0,0:0:0:0:
109,192,125237,1,0,0:0:0:0:
329,192,125237,1,0,0:0:0:0:
182,192,125384,1,0,0:0:0:0:
36,192,125384,1,0,0:0:0:0:
256,192,125384,1,0,0:0:0:0:
475,192,125531,1,0,0:0:0:0:
329,192,125531,1,0,0:0:0:0:
182,192,125678,1,0,0:0:0:0:
36,192,125678,1,0,0:0:0:0:
109,192,125678,1,0,0:0:0:0:
329,192,125825,1,0,0:0:0:0:
182,192,125825,1,0,0:0:0:0:
36,192,125825,1,0,0:0:0:0:
475,192,125972,1,0,0:0:0:0:
402,192,125972,1,0,0:0:0:0:
256,192,125972,1,0,0:0:0:0:
109,192,126119,1,0,0:0:0:0:
329,192,126119,1,0,0:0:0:0:
475,192,126192,1,0,0:0:0:0:
402,192,126192,1,0,0:0:0:0:
256,192,126192,1,0,0:0:0:0:
109,192,126340,1,0,0:0:0:0:
36,192,126340,1,0,0:0:0:0:
182,192,126413,1,0,0:0:0:0:
329,192,126413,1,0,0:0:0:0:
256,192,126413,1,0,0:0:0:0:
475,192,126560,1,0,0:0:0:0:
402,192,126560,1,0,0:0:0:0:
256,192,126560,1,0,0:0:0:0:
109,192,126707,1,0,0:0:0:0:
182,192,126707,1,0,0:0:0:0:
256,192,126854,1,0,0:0:0:0:
36,192,126854,1,0,0:0:0:0:
109,192,126854,1,0,0:0:0:0:
402,192,127001,1,0,0:0:0:0:
329,192,127001,1,0,0:0:0:0:
182,192,127001,1,0,0:0:0:0:
256,192,127148,1,0,0:0:0:0:
109,192,127148,1,0,0:0:0:0:
36,192,127148,1,0,0:0:0:0:
402,192,127295,1,0,0:0:0:0:
475,192,127295,1,0,0:0:0:0:
256,192,127442,1,0,0:0:0:0:
109,192,127442,1,0,0:0:0:0:
36,192,127442,1,0,0:0:0:0:
402,192,127590,1,0,0:0:0:0:
329,192,127590,1,0,0:0:0:0:
256,192,127737,1,0,0:0:0:0:
109,192,127737,1,0,0:0:0:0:
36,192,127737,1,0,0:0:0:0:
182,192,127884,1,0,0:0:0:0:
402,192,127884,1,0,0:0:0:0:
256,192,128031,1,0,0:0:0:0:
109,192,128031,1,0,0:0:0:0:
36,192,128031,1,0,0:0:0:0:
402,192,128178,1,0,0:0:0:0:
475,192,128178,1,0,0:0:0:0:
182,192,128325,1,0,0:0:0:0:
329,192,128325,1,0,0:0:0:0:
475,192,128325,1,0,0:0:0:0:
109,192,128472,1,0,0:0:0:0:
36,192,128472,1,0,0:0:0:0:
475,192,128545,1,0,0:0:0:0:
329,192,128545,1,0,0:0:0:0:
402,192,128545,1,0,0:0:0:0:
36,192,128692,1,0,0:0:0:0:
182,192,128692,1,0,0:0:0:0:
256,192,128766,1,0,0:0:0:0:
329,192,128766,1,0,0:0:0:0:
402,192,128766,1,0,0:0:0:0:
475,192,128913,1,0,0:0:0:0:
329,192,128913,1,0,0:0:0:0:
182,192,128913,1,0,0:0:0:0:
109,192,129060,1,0,0:0:0:0:
256,192,129060,1,0,0:0:0:0:
36,192,129060,1,0,0:0:0:0:
475,192,129207,1,0,0:0:0:0:
329,192,129207,1,0,0:0:0:0:
182,192,129207,1,0,0:0:0:0:
256,192,129354,1,0,0:0:0:0:
109,192,129354,1,0,0:0:0:0:
36,192,129354,1,0,0:0:0:0:
182,192,129501,1,0,0:0:0:0:
329,192,129501,1,0,0:0:0:0:
109,192,129648,1,0,0:0:0:0:
36,192,129648,1,0,0:0:0:0:
402,192,129795,1,0,0:0:0:0:
256,192,129795,1,0,0:0:0:0:
182,192,129942,1,0,0:0:0:0:
109,192,129942,1,0,0:0:0:0:
475,192,130090,1,0,0:0:0:0:
329,192,130090,1,0,0:0:0:0:
256,192,130237,1,0,0:0:0:0:
182,192,130237,1,0,0:0:0:0:
36,192,130384,1,0,0:0:0:0:
402,192,130384,1,0,0:0:0:0:
256,192,130531,1,0,0:0:0:0:
475,192,130531,1,0,0:0:0:0:
36,192,130678,1,0,0:0:0:0:
109,192,130678,1,0,0:0:0:0:
329,192,130751,1,0,0:0:0:0:
402,192,130751,1,0,0:0:0:0:
36,192,130825,1,0,0:0:0:0:
109,192,130825,1,0,0:0:0:0:
329,192,130898,1,0,0:0:0:0:
402,192,130898,1,0,0:0:0:0:
109,192,130972,1,0,0:0:0:0:
182,192,130972,1,0,0:0:0:0:
329,192,131045,1,0,0:0:0:0:
475,192,131045,1,0,0:0:0:0:
109,192,131119,1,0,0:0:0:0:
182,192,131119,1,0,0:0:0:0:
329,192,131192,1,0,0:0:0:0:
475,192,131192,1,0,0:0:0:0:
182,192,131266,1,0,0:0:0:0:
36,192,131266,1,0,0:0:0:0:
329,192,131340,1,0,0:0:0:0:
402,192,131340,1,0,0:0:0:0:
36,192,131413,1,0,0:0:0:0:
182,192,131413,1,0,0:0:0:0:
329,192,131487,1,0,0:0:0:0:
402,192,131487,1,0,0:0:0:0:
36,192,131560,1,0,0:0:0:0:
182,192,131560,1,0,0:0:0:0:
329,192,131634,1,0,0:0:0:0:
475,192,131634,1,0,0:0:0:0:
36,192,131707,1,0,0:0:0:0:
182,192,131707,1,0,0:0:0:0:
475,192,131781,1,0,0:0:0:0:
329,192,131781,1,0,0:0:0:0:
36,192,131854,1,0,0:0:0:0:
109,192,131891,1,0,0:0:0:0:
329,192,131928,1,0,0:0:0:0:
402,192,131965,1,0,0:0:0:0:
182,192,132001,1,0,0:0:0:0:
256,192,132038,1,0,0:0:0:0:
402,192,132075,1,0,0:0:0:0:
475,192,132112,1,0,0:0:0:0:
36,192,132148,1,0,0:0:0:0:
182,192,132185,1,0,0:0:0:0:
329,192,132222,1,0,0:0:0:0:
475,192,132259,1,0,0:0:0:0:
109,192,132295,1,0,0:0:0:0:
182,192,132332,1,0,0:0:0:0:
329,192,132369,1,0,0:0:0:0:
402,192,132406,1,0,0:0:0:0:
36,192,132442,1,0,0:0:0:0:
109,192,132479,1,0,0:0:0:0:
329,192,132516,1,0,0:0:0:0:
402,192,132553,1,0,0:0:0:0:
182,192,132590,1,0,0:0:0:0:
256,192,132626,1,0,0:0:0:0:
402,192,132663,1,0,0:0:0:0:
475,192,132700,1,0,0:0:0:0:
36,192,132737,1,0,0:0:0:0:
182,192,132773,1,0,0:0:0:0:
329,192,132810,1,0,0:0:0:0:
475,192,132847,1,0,0:0:0:0:
109,192,132884,1,0,0:0:0:0:
182,192,132920,1,0,0:0:0:0:
329,192,132957,1,0,0:0:0:0:
402,192,132994,1,0,0:0:0:0:
36,192,133031,1,0,0:0:0:0:
182,192,133031,1,0,0:0:0:0:
256,192,133178,1,0,0:0:0:0:
109,192,133178,1,0,0:0:0:0:
475,192,133325,1,0,0:0:0:0:
402,192,133325,1,0,0:0:0:0:
402,192,133472,1,0,0:0:0:0:
329,192,133472,1,0,0:0:0:0:
109,192,133766,1,0,0:0:0:0:
182,192,133913,1,0,0:0:0:0:
36,192,133913,1,0,0:0:0:0:
256,192,134060,1,0,0:0:0:0:
36,192,134060,1,0,0:0:0:0:
36,192,134207,1,0,0:0:0:0:
256,192,134207,1,0,0:0:0:0:
109,192,134281,1,0,0:0:0:0:
329,192,134281,1,0,0:0:0:0:
475,192,134354,1,0,0:0:0:0:
256,192,134354,1,0,0:0:0:0:
182,192,134428,1,0,0:0:0:0:
402,192,134428,1,0,0:0:0:0:
36,192,134501,1,0,0:0:0:0:
256,192,134501,1,0,0:0:0:0:
109,192,134575,1,0,0:0:0:0:
329,192,134575,1,0,0:0:0:0:
475,192,134648,1,0,0:0:0:0:
256,192,134648,1,0,0:0:0:0:
402,192,134722,1,0,0:0:0:0:
182,192,134722,1,0,0:0:0:0:
36,192,134795,1,0,0:0:0:0:
329,192,134795,1,0,0:0:0:0:
182,192,134869,1,0,0:0:0:0:
475,192,134869,1,0,0:0:0:0:
36,192,134942,1,0,0:0:0:0:
329,192,134942,1,0,0:0:0:0:
182,192,135016,1,0,0:0:0:0:
475,192,135016,1,0,0:0:0:0:
36,192,135090,1,0,0:0:0:0:
329,192,135090,1,0,0:0:0:0:
109,192,135163,1,0,0:0:0:0:
402,192,135163,1,0,0:0:0:0:
256,192,135237,1,0,0:0:0:0:
475,192,135237,1,0,0:0:0:0:
182,192,135310,1,0,0:0:0:0:
402,192,135310,1,0,0:0:0:0:
36,192,135384,1,0,0:0:0:0:
329,192,135384,1,0,0:0:0:0:
109,192,135457,1,0,0:0:0:0:
402,192,135457,1,0,0:0:0:0:
256,192,135531,1,0,0:0:0:0:
475,192,135531,1,0,0:0:0:0:
182,192,135604,1,0,0:0:0:0:
402,192,135604,1,0,0:0:0:0:
36,192,135678,1,0,0:0:0:0:
256,192,135678,1,0,0:0:0:0:
109,192,135751,1,0,0:0:0:0:
329,192,135751,1,0,0:0:0:0:
182,192,135825,1,0,0:0:0:0:
402,192,135825,1,0,0:0:0:0:
109,192,135898,1,0,0:0:0:0:
329,192,135898,1,0,0:0:0:0:
475,192,135972,1,0,0:0:0:0:
256,192,135972,1,0,0:0:0:0:
182,192,136045,1,0,0:0:0:0:
402,192,136045,1,0,0:0:0:0:
329,192,136119,1,0,0:0:0:0:
109,192,136119,1,0,0:0:0:0:
182,192,136192,1,0,0:0:0:0:
402,192,136192,1,0,0:0:0:0:
475,192,136266,1,0,0:0:0:0:
329,192,136266,1,0,0:0:0:0:
36,192,136340,1,0,0:0:0:0:
182,192,136340,1,0,0:0:0:0:
329,192,136413,1,0,0:0:0:0:
475,192,136413,1,0,0:0:0:0:
36,192,136487,1,0,0:0:0:0:
182,192,136487,1,0,0:0:0:0:
475,192,136560,1,0,0:0:0:0:
256,192,136560,1,0,0:0:0:0:
182,192,136634,1,0,0:0:0:0:
402,192,136634,1,0,0:0:0:0:
36,192,136707,1,0,0:0:0:0:
256,192,136707,1,0,0:0:0:0:
109,192,136781,1,0,0:0:0:0:
329,192,136781,1,0,0:0:0:0:
475,192,136854,1,0,0:0:0:0:
256,192,136854,1,0,0:0:0:0:
182,192,136928,1,0,0:0:0:0:
402,192,136928,1,0,0:0:0:0:
36,192,137001,1,0,0:0:0:0:
256,192,137001,1,0,0:0:0:0:
109,192,137075,1,0,0:0:0:0:
329,192,137075,1,0,0:0:0:0:
475,192,137148,1,0,0:0:0:0:
182,192,137148,1,0,0:0:0:0:
36,192,137222,1,0,0:0:0:0:
329,192,137222,1,0,0:0:0:0:
475,192,137295,1,0,0:0:0:0:
182,192,137295,1,0,0:0:0:0:
36,192,137369,1,0,0:0:0:0:
329,192,137369,1,0,0:0:0:0:
256,192,137442,1,0,0:0:0:0:
475,192,137442,1,0,0:0:0:0:
182,192,137516,1,0,0:0:0:0:
402,192,137516,1,0,0:0:0:0:
36,192,137590,1,0,0:0:0:0:
256,192,137590,1,0,0:0:0:0:
109,192,137663,1,0,0:0:0:0:
329,192,137663,1,0,0:0:0:0:
475,192,137737,1,0,0:0:0:0:
256,192,137737,1,0,0:0:0:0:
182,192,137810,1,0,0:0:0:0:
402,192,137810,1,0,0:0:0:0:
36,192,137884,1,0,0:0:0:0:
256,192,137884,1,0,0:0:0:0:
109,192,137957,1,0,0:0:0:0:
329,192,137957,1,0,0:0:0:0:
475,192,138031,1,0,0:0:0:0:
256,192,138031,1,0,0:0:0:0:
182,192,138104,1,0,0:0:0:0:
402,192,138104,1,0,0:0:0:0:
109,192,138178,1,0,0:0:0:0:
329,192,138178,1,0,0:0:0:0:
182,192,138251,1,0,0:0:0:0:
402,192,138251,1,0,0:0:0:0:
475,192,138325,1,0,0:0:0:0:
256,192,138325,1,0,0:0:0:0:
182,192,138398,1,0,0:0:0:0:
402,192,138398,1,0,0:0:0:0:
109,192,138472,1,0,0:0:0:0:
329,192,138472,1,0,0:0:0:0:
402,192,138619,1,0,0:0:0:0:
182,192,138619,1,0,0:0:0:0:
36,192,138766,1,0,0:0:0:0:
329,192,138766,1,0,0:0:0:0:
475,192,138913,1,0,0:0:0:0:
256,192,138913,1,0,0:0:0:0:
402,192,138987,1,0,0:0:0:0:
182,192,138987,1,0,0:0:0:0:
36,192,139060,1,0,0:0:0:0:
256,192,139060,1,0,0:0:0:0:
329,192,139134,1,0,0:0:0:0:
109,192,139134,1,0,0:0:0:0:
475,192,139207,1,0,0:0:0:0:
256,192,139207,1,0,0:0:0:0:
402,192,139281,1,0,0:0:0:0:
182,192,139281,1,0,0:0:0:0:
36,192,139354,1,0,0:0:0:0:
256,192,139354,1,0,0:0:0:0:
109,192,139428,1,0,0:0:0:0:
329,192,139428,1,0,0:0:0:0:
475,192,139501,1,0,0:0:0:0:
182,192,139501,1,0,0:0:0:0:
329,192,139575,1,0,0:0:0:0:
36,192,139575,1,0,0:0:0:0:
475,192,139648,1,0,0:0:0:0:
182,192,139648,1,0,0:0:0:0:
329,192,139722,1,0,0:0:0:0:
36,192,139722,1,0,0:0:0:0:
475,192,139795,1,0,0:0:0:0:
182,192,139795,1,0,0:0:0:0:
402,192,139869,1,0,0:0:0:0:
109,192,139869,1,0,0:0:0:0:
256,192,139942,1,0,0:0:0:0:
36,192,139942,1,0,0:0:0:0:
329,192,140016,1,0,0:0:0:0:
109,192,140016,1,0,0:0:0:0:
475,192,140090,1,0,0:0:0:0:
182,192,140090,1,0,0:0:0:0:
402,192,140163,1,0,0:0:0:0:
109,192,140163,1,0,0:0:0:0:
256,192,140237,1,0,0:0:0:0:
36,192,140237,1,0,0:0:0:0:
329,192,140310,1,0,0:0:0:0:
109,192,140310,1,0,0:0:0:0:
475,192,140384,1,0,0:0:0:0:
256,192,140384,1,0,0:0:0:0:
402,192,140457,1,0,0:0:0:0:
182,192,140457,1,0,0:0:0:0:
329,192,140531,1,0,0:0:0:0:
109,192,140531,1,0,0:0:0:0:
402,192,140604,1,0,0:0:0:0:
182,192,140604,1,0,0:0:0:0:
36,192,140678,1,0,0:0:0:0:
256,192,140678,1,0,0:0:0:0:
329,192,140751,1,0,0:0:0:0:
109,192,140751,1,0,0:0:0:0:
182,192,140825,1,0,0:0:0:0:
402,192,140825,1,0,0:0:0:0:
329,192,140898,1,0,0:0:0:0:
109,192,140898,1,0,0:0:0:0:
36,192,140972,1,0,0:0:0:0:
182,192,140972,1,0,0:0:0:0:
475,192,141045,1,0,0:0:0:0:
402,192,141045,1,0,0:0:0:0:
182,192,141119,1,0,0:0:0:0:
36,192,141119,1,0,0:0:0:0:
475,192,141192,1,0,0:0:0:0:
402,192,141192,1,0,0:0:0:0:
36,192,141266,1,0,0:0:0:0:
256,192,141266,1,0,0:0:0:0:
329,192,141340,1,0,0:0:0:0:
109,192,141340,1,0,0:0:0:0:
475,192,141413,1,0,0:0:0:0:
256,192,141413,1,0,0:0:0:0:
402,192,141487,1,0,0:0:0:0:
182,192,141487,1,0,0:0:0:0:
36,192,141560,1,0,0:0:0:0:
256,192,141560,1,0,0:0:0:0:
329,192,141634,1,0,0:0:0:0:
109,192,141634,1,0,0:0:0:0:
475,192,141707,1,0,0:0:0:0:
256,192,141707,1,0,0:0:0:0:
402,192,141781,1,0,0:0:0:0:
182,192,141781,1,0,0:0:0:0:
36,192,141854,1,0,0:0:0:0:
109,192,141854,1,0,0:0:0:0:
475,192,141928,1,0,0:0:0:0:
402,192,141928,1,0,0:0:0:0:
36,192,142001,1,0,0:0:0:0:
109,192,142001,1,0,0:0:0:0:
475,192,142075,1,0,0:0:0:0:
402,192,142075,1,0,0:0:0:0:
256,192,142148,1,0,0:0:0:0:
36,192,142148,1,0,0:0:0:0:
329,192,142222,1,0,0:0:0:0:
109,192,142222,1,0,0:0:0:0:
475,192,142295,1,0,0:0:0:0:
256,192,142295,1,0,0:0:0:0:
402,192,142369,1,0,0:0:0:0:
182,192,142369,1,0,0:0:0:0:
36,192,142442,1,0,0:0:0:0:
256,192,142442,1,0,0:0:0:0:
329,192,142516,1,0,0:0:0:0:
109,192,142516,1,0,0:0:0:0:
475,192,142590,1,0,0:0:0:0:
256,192,142590,1,0,0:0:0:0:
402,192,142663,1,0,0:0:0:0:
182,192,142663,1,0,0:0:0:0:
36,192,142737,1,0,0:0:0:0:
256,192,142737,1,0,0:0:0:0:
329,192,142810,1,0,0:0:0:0:
109,192,142810,1,0,0:0:0:0:
402,192,142884,1,0,0:0:0:0:
182,192,142884,1,0,0:0:0:0:
329,192,142957,1,0,0:0:0:0:
109,192,142957,1,0,0:0:0:0:
36,192,143031,1,0,0:0:0:0:
256,192,143031,1,0,0:0:0:0:
329,192,143104,1,0,0:0:0:0:
109,192,143104,1,0,0:0:0:0:
402,192,143178,1,0,0:0:0:0:
182,192,143178,1,0,0:0:0:0:
109,192,143325,1,0,0:0:0:0:
329,192,143325,1,0,0:0:0:0:
256,192,143472,1,0,0:0:0:0:
36,192,143472,1,0,0:0:0:0:
36,192,143619,1,0,0:0:0:0:
256,192,143619,1,0,0:0:0:0:
329,192,143692,1,0,0:0:0:0:
109,192,143692,1,0,0:0:0:0:
182,192,143766,1,0,0:0:0:0:
475,192,143766,1,0,0:0:0:0:
256,192,143840,1,0,0:0:0:0:
402,192,143840,1,0,0:0:0:0:
36,192,143913,1,0,0:0:0:0:
329,192,143913,1,0,0:0:0:0:
109,192,143987,1,0,0:0:0:0:
402,192,143987,1,0,0:0:0:0:
182,192,144060,1,0,0:0:0:0:
475,192,144060,1,0,0:0:0:0:
256,192,144134,1,0,0:0:0:0:
402,192,144134,1,0,0:0:0:0:
36,192,144207,1,0,0:0:0:0:
329,192,144207,1,0,0:0:0:0:
109,192,144281,1,0,0:0:0:0:
402,192,144281,1,0,0:0:0:0:
36,192,144354,1,0,0:0:0:0:
329,192,144354,1,0,0:0:0:0:
109,192,144428,1,0,0:0:0:0:
402,192,144428,1,0,0:0:0:0:
36,192,144501,1,0,0:0:0:0:
256,192,144501,1,0,0:0:0:0:
329,192,144575,1,0,0:0:0:0:
109,192,144575,1,0,0:0:0:0:
182,192,144648,1,0,0:0:0:0:
475,192,144648,1,0,0:0:0:0:
256,192,144722,1,0,0:0:0:0:
402,192,144722,1,0,0:0:0:0:
36,192,144795,1,0,0:0:0:0:
329,192,144795,1,0,0:0:0:0:
109,192,144869,1,0,0:0:0:0:
402,192,144869,1,0,0:0:0:0:
182,192,144942,1,0,0:0:0:0:
475,192,144942,1,0,0:0:0:0:
256,192,145016,1,0,0:0:0:0:
402,192,145016,1,0,0:0:0:0:
36,192,145090,1,0,0:0:0:0:
329,192,145090,1,0,0:0:0:0:
109,192,145163,1,0,0:0:0:0:
402,192,145163,1,0,0:0:0:0:
475,192,145237,1,0,0:0:0:0:
256,192,145237,1,0,0:0:0:0:
182,192,145310,1,0,0:0:0:0:
402,192,145310,1,0,0:0:0:0:
109,192,145384,1,0,0:0:0:0:
329,192,145384,1,0,0:0:0:0:
182,192,145457,1,0,0:0:0:0:
402,192,145457,1,0,0:0:0:0:
475,192,145531,1,0,0:0:0:0:
256,192,145531,1,0,0:0:0:0:
182,192,145604,1,0,0:0:0:0:
402,192,145604,1,0,0:0:0:0:
36,192,145678,1,0,0:0:0:0:
109,192,145678,1,0,0:0:0:0:
329,192,145751,1,0,0:0:0:0:
402,192,145751,1,0,0:0:0:0:
36,192,145825,1,0,0:0:0:0:
109,192,145825,1,0,0:0:0:0:
329,192,145898,1,0,0:0:0:0:
402,192,145898,1,0,0:0:0:0:
475,192,145972,1,0,0:0:0:0:
256,192,145972,1,0,0:0:0:0:
182,192,146045,1,0,0:0:0:0:
402,192,146045,1,0,0:0:0:0:
329,192,146119,1,0,0:0:0:0:
36,192,146119,1,0,0:0:0:0:
256,192,146192,1,0,0:0:0:0:
109,192,146192,1,0,0:0:0:0:
475,192,146266,1,0,0:0:0:0:
182,192,146266,1,0,0:0:0:0:
402,192,146340,1,0,0:0:0:0:
109,192,146340,1,0,0:0:0:0:
329,192,146413,1,0,0:0:0:0:
36,192,146413,1,0,0:0:0:0:
256,192,146487,1,0,0:0:0:0:
109,192,146487,1,0,0:0:0:0:
475,192,146560,1,0,0:0:0:0:
182,192,146560,1,0,0:0:0:0:
402,192,146634,1,0,0:0:0:0:
109,192,146634,1,0,0:0:0:0:
475,192,146707,1,0,0:0:0:0:
182,192,146707,1,0,0:0:0:0:
402,192,146781,1,0,0:0:0:0:
109,192,146781,1,0,0:0:0:0:
475,192,146854,1,0,0:0:0:0:
256,192,146854,1,0,0:0:0:0:
182,192,146928,1,0,0:0:0:0:
402,192,146928,1,0,0:0:0:0:
329,192,147001,1,0,0:0:0:0:
36,192,147001,1,0,0:0:0:0:
256,192,147075,1,0,0:0:0:0:
109,192,147075,1,0,0:0:0:0:
475,192,147148,1,0,0:0:0:0:
182,192,147148,1,0,0:0:0:0:
402,192,147222,1,0,0:0:0:0:
109,192,147222,1,0,0:0:0:0:
329,192,147295,1,0,0:0:0:0:
36,192,147295,1,0,0:0:0:0:
256,192,147369,1,0,0:0:0:0:
109,192,147369,1,0,0:0:0:0:
475,192,147442,1,0,0:0:0:0:
182,192,147442,1,0,0:0:0:0:
402,192,147516,1,0,0:0:0:0:
109,192,147516,1,0,0:0:0:0:
36,192,147590,1,0,0:0:0:0:
256,192,147590,1,0,0:0:0:0:
329,192,147663,1,0,0:0:0:0:
109,192,147663,1,0,0:0:0:0:
402,192,147737,1,0,0:0:0:0:
182,192,147737,1,0,0:0:0:0:
329,192,147810,1,0,0:0:0:0:
109,192,147810,1,0,0:0:0:0:
36,192,147884,1,0,0:0:0:0:
256,192,147884,1,0,0:0:0:0:
109,192,148031,1,0,0:0:0:0:
329,192,148031,1,0,0:0:0:0:
182,192,148178,1,0,0:0:0:0:
402,192,148178,1,0,0:0:0:0:
475,192,148325,1,0,0:0:0:0:
36,192,148325,1,0,0:0:0:0:
256,192,148325,1,0,0:0:0:0:
402,192,148398,1,0,0:0:0:0:
109,192,148398,1,0,0:0:0:0:
182,192,148472,1,0,0:0:0:0:
329,192,148472,1,0,0:0:0:0:
109,192,148545,1,0,0:0:0:0:
402,192,148545,1,0,0:0:0:0:
36,192,148619,1,0,0:0:0:0:
475,192,148619,1,0,0:0:0:0:
256,192,148619,1,0,0:0:0:0:
109,192,148692,1,0,0:0:0:0:
402,192,148692,1,0,0:0:0:0:
182,192,148766,1,0,0:0:0:0:
329,192,148766,1,0,0:0:0:0:
109,192,148840,1,0,0:0:0:0:
402,192,148840,1,0,0:0:0:0:
36,192,148913,1,0,0:0:0:0:
475,192,148913,1,0,0:0:0:0:
256,192,148913,1,0,0:0:0:0:
182,192,148987,1,0,0:0:0:0:
329,192,148987,1,0,0:0:0:0:
36,192,149060,1,0,0:0:0:0:
475,192,149060,1,0,0:0:0:0:
182,192,149134,1,0,0:0:0:0:
329,192,149134,1,0,0:0:0:0:
36,192,149207,1,0,0:0:0:0:
256,192,149207,1,0,0:0:0:0:
475,192,149207,1,0,0:0:0:0:
109,192,149281,1,0,0:0:0:0:
402,192,149281,1,0,0:0:0:0:
182,192,149354,1,0,0:0:0:0:
329,192,149354,1,0,0:0:0:0:
109,192,149428,1,0,0:0:0:0:
402,192,149428,1,0,0:0:0:0:
256,192,149501,1,0,0:0:0:0:
36,192,149501,1,0,0:0:0:0:
475,192,149501,1,0,0:0:0:0:
109,192,149575,1,0,0:0:0:0:
402,192,149575,1,0,0:0:0:0:
182,192,149648,1,0,0:0:0:0:
329,192,149648,1,0,0:0:0:0:
109,192,149722,1,0,0:0:0:0:
402,192,149722,1,0,0:0:0:0:
36,192,149795,1,0,0:0:0:0:
475,192,149795,1,0,0:0:0:0:
256,192,149795,1,0,0:0:0:0:
109,192,149869,1,0,0:0:0:0:
402,192,149869,1,0,0:0:0:0:
182,192,149942,1,0,0:0:0:0:
329,192,149942,1,0,0:0:0:0:
256,192,150016,1,0,0:0:0:0:
402,192,150016,1,0,0:0:0:0:
36,192,150090,1,0,0:0:0:0:
475,192,150090,1,0,0:0:0:0:
109,192,150163,1,0,0:0:0:0:
402,192,150163,1,0,0:0:0:0:
182,192,150237,1,0,0:0:0:0:
329,192,150237,1,0,0:0:0:0:
109,192,150310,1,0,0:0:0:0:
256,192,150310,1,0,0:0:0:0:
402,192,150384,1,0,0:0:0:0:
475,192,150384,1,0,0:0:0:0:
109,192,150457,1,0,0:0:0:0:
182,192,150457,1,0,0:0:0:0:
402,192,150531,1,0,0:0:0:0:
475,192,150531,1,0,0:0:0:0:
109,192,150604,1,0,0:0:0:0:
182,192,150604,1,0,0:0:0:0:
36,192,150678,1,0,0:0:0:0:
475,192,150678,1,0,0:0:0:0:
256,192,150678,1,0,0:0:0:0:
109,192,150751,1,0,0:0:0:0:
402,192,150751,1,0,0:0:0:0:
329,192,150825,1,0,0:0:0:0:
182,192,150825,1,0,0:0:0:0:
402,192,150898,1,0,0:0:0:0:
109,192,150898,1,0,0:0:0:0:
475,192,150972,1,0,0:0:0:0:
36,192,150972,1,0,0:0:0:0:
256,192,150972,1,0,0:0:0:0:
402,192,151045,1,0,0:0:0:0:
109,192,151045,1,0,0:0:0:0:
329,192,151119,1,0,0:0:0:0:
182,192,151119,1,0,0:0:0:0:
402,192,151192,1,0,0:0:0:0:
109,192,151192,1,0,0:0:0:0:
475,192,151266,1,0,0:0:0:0:
36,192,151266,1,0,0:0:0:0:
256,192,151266,1,0,0:0:0:0:
329,192,151340,1,0,0:0:0:0:
182,192,151340,1,0,0:0:0:0:
475,192,151413,1,0,0:0:0:0:
36,192,151413,1,0,0:0:0:0:
329,192,151487,1,0,0:0:0:0:
182,192,151487,1,0,0:0:0:0:
475,192,151560,1,0,0:0:0:0:
256,192,151560,1,0,0:0:0:0:
36,192,151560,1,0,0:0:0:0:
402,192,151634,1,0,0:0:0:0:
109,192,151634,1,0,0:0:0:0:
329,192,151707,1,0,0:0:0:0:
182,192,151707,1,0,0:0:0:0:
402,192,151781,1,0,0:0:0:0:
109,192,151781,1,0,0:0:0:0:
36,192,151854,1,0,0:0:0:0:
109,192,151928,1,0,0:0:0:0:
182,192,152001,1,0,0:0:0:0:
109,192,152075,1,0,0:0:0:0:
36,192,152148,1,0,0:0:0:0:
402,192,152222,1,0,0:0:0:0:
109,192,152222,1,0,0:0:0:0:
329,192,152295,1,0,0:0:0:0:
182,192,152295,1,0,0:0:0:0:
256,192,152369,1,0,0:0:0:0:
109,192,152369,1,0,0:0:0:0:
475,192,152442,1,0,0:0:0:0:
36,192,152442,1,0,0:0:0:0:
402,192,152516,1,0,0:0:0:0:
109,192,152516,1,0,0:0:0:0:
329,192,152590,1,0,0:0:0:0:
182,192,152590,1,0,0:0:0:0:
109,192,152737,1,0,0:0:0:0:
36,192,152737,1,0,0:0:0:0:
475,192,152884,1,0,0:0:0:0:
329,192,152884,1,0,0:0:0:0:
182,192,153031,1,0,0:0:0:0:
475,192,153031,1,0,0:0:0:0:
109,192,153104,1,0,0:0:0:0:
402,192,153104,1,0,0:0:0:0:
256,192,153178,1,0,0:0:0:0:
36,192,153178,1,0,0:0:0:0:
109,192,153251,1,0,0:0:0:0:
329,192,153251,1,0,0:0:0:0:
475,192,153325,1,0,0:0:0:0:
182,192,153325,1,0,0:0:0:0:
109,192,153398,1,0,0:0:0:0:
402,192,153398,1,0,0:0:0:0:
36,192,153472,1,0,0:0:0:0:
256,192,153472,1,0,0:0:0:0:
109,192,153545,1,0,0:0:0:0:
329,192,153545,1,0,0:0:0:0:
475,192,153619,1,0,0:0:0:0:
182,192,153619,1,0,0:0:0:0:
256,192,153692,1,0,0:0:0:0:
402,192,153692,1,0,0:0:0:0:
182,192,153766,1,0,0:0:0:0:
475,192,153766,1,0,0:0:0:0:
256,192,153840,1,0,0:0:0:0:
402,192,153840,1,0,0:0:0:0:
182,192,153913,1,0,0:0:0:0:
475,192,153913,1,0,0:0:0:0:
109,192,153987,1,0,0:0:0:0:
402,192,153987,1,0,0:0:0:0:
256,192,154060,1,0,0:0:0:0:
36,192,154060,1,0,0:0:0:0:
109,192,154134,1,0,0:0:0:0:
329,192,154134,1,0,0:0:0:0:
475,192,154207,1,0,0:0:0:0:
182,192,154207,1,0,0:0:0:0:
109,192,154281,1,0,0:0:0:0:
402,192,154281,1,0,0:0:0:0:
36,192,154354,1,0,0:0:0:0:
256,192,154354,1,0,0:0:0:0:
109,192,154428,1,0,0:0:0:0:
329,192,154428,1,0,0:0:0:0:
475,192,154501,1,0,0:0:0:0:
182,192,154501,1,0,0:0:0:0:
402,192,154575,1,0,0:0:0:0:
109,192,154575,1,0,0:0:0:0:
36,192,154648,1,0,0:0:0:0:
329,192,154648,1,0,0:0:0:0:
109,192,154722,1,0,0:0:0:0:
256,192,154722,1,0,0:0:0:0:
182,192,154795,1,0,0:0:0:0:
475,192,154795,1,0,0:0:0:0:
402,192,154869,1,0,0:0:0:0:
109,192,154869,1,0,0:0:0:0:
329,192,154942,1,0,0:0:0:0:
36,192,154942,1,0,0:0:0:0:
109,192,155016,1,0,0:0:0:0:
256,192,155016,1,0,0:0:0:0:
329,192,155090,1,0,0:0:0:0:
475,192,155090,1,0,0:0:0:0:
182,192,155163,1,0,0:0:0:0:
109,192,155163,1,0,0:0:0:0:
329,192,155237,1,0,0:0:0:0:
475,192,155237,1,0,0:0:0:0:
182,192,155310,1,0,0:0:0:0:
109,192,155310,1,0,0:0:0:0:
329,192,155384,1,0,0:0:0:0:
36,192,155384,1,0,0:0:0:0:
402,192,155457,1,0,0:0:0:0:
109,192,155457,1,0,0:0:0:0:
256,192,155531,1,0,0:0:0:0:
475,192,155531,1,0,0:0:0:0:
402,192,155604,1,0,0:0:0:0:
182,192,155604,1,0,0:0:0:0:
36,192,155678,1,0,0:0:0:0:
329,192,155678,1,0,0:0:0:0:
402,192,155751,1,0,0:0:0:0:
109,192,155751,1,0,0:0:0:0:
475,192,155825,1,0,0:0:0:0:
256,192,155825,1,0,0:0:0:0:
402,192,155898,1,0,0:0:0:0:
182,192,155898,1,0,0:0:0:0:
36,192,155972,1,0,0:0:0:0:
329,192,155972,1,0,0:0:0:0:
256,192,156045,1,0,0:0:0:0:
109,192,156045,1,0,0:0:0:0:
329,192,156119,1,0,0:0:0:0:
36,192,156119,1,0,0:0:0:0:
256,192,156192,1,0,0:0:0:0:
109,192,156192,1,0,0:0:0:0:
329,192,156266,1,0,0:0:0:0:
36,192,156266,1,0,0:0:0:0:
402,192,156340,1,0,0:0:0:0:
109,192,156340,1,0,0:0:0:0:
256,192,156413,1,0,0:0:0:0:
475,192,156413,1,0,0:0:0:0:
402,192,156487,1,0,0:0:0:0:
182,192,156487,1,0,0:0:0:0:
36,192,156560,1,0,0:0:0:0:
329,192,156560,1,0,0:0:0:0:
402,192,156634,1,0,0:0:0:0:
109,192,156634,1,0,0:0:0:0:
475,192,156707,1,0,0:0:0:0:
256,192,156707,1,0,0:0:0:0:
402,192,156781,1,0,0:0:0:0:
182,192,156781,1,0,0:0:0:0:
36,192,156854,1,0,0:0:0:0:
329,192,156854,1,0,0:0:0:0:
109,192,156928,1,0,0:0:0:0:
402,192,156928,1,0,0:0:0:0:
475,192,157001,1,0,0:0:0:0:
182,192,157001,1,0,0:0:0:0:
402,192,157075,1,0,0:0:0:0:
256,192,157075,1,0,0:0:0:0:
329,192,157148,1,0,0:0:0:0:
36,192,157148,1,0,0:0:0:0:
109,192,157222,1,0,0:0:0:0:
402,192,157222,1,0,0:0:0:0:
182,192,157295,1,0,0:0:0:0:
475,192,157295,1,0,0:0:0:0:
329,192,157442,1,0,0:0:0:0:
109,192,157442,1,0,0:0:0:0:
36,192,157590,1,0,0:0:0:0:
182,192,157590,1,0,0:0:0:0:
475,192,157737,1,0,0:0:0:0:
256,192,157737,1,0,0:0:0:0:
182,192,157810,1,0,0:0:0:0:
402,192,157810,1,0,0:0:0:0:
109,192,157884,1,0,0:0:0:0:
329,192,157884,1,0,0:0:0:0:
36,192,157957,1,0,0:0:0:0:
256,192,157957,1,0,0:0:0:0:
475,192,158031,1,0,0:0:0:0:
182,192,158031,1,0,0:0:0:0:
402,192,158104,1,0,0:0:0:0:
109,192,158104,1,0,0:0:0:0:
329,192,158178,1,0,0:0:0:0:
36,192,158178,1,0,0:0:0:0:
109,192,158251,1,0,0:0:0:0:
402,192,158251,1,0,0:0:0:0:
475,192,158325,1,0,0:0:0:0:
182,192,158325,1,0,0:0:0:0:
36,192,158398,1,0,0:0:0:0:
329,192,158398,1,0,0:0:0:0:
475,192,158472,1,0,0:0:0:0:
182,192,158472,1,0,0:0:0:0:
36,192,158545,1,0,0:0:0:0:
329,192,158545,1,0,0:0:0:0:
475,192,158619,1,0,0:0:0:0:
256,192,158619,1,0,0:0:0:0:
182,192,158692,1,0,0:0:0:0:
402,192,158692,1,0,0:0:0:0:
109,192,158766,1,0,0:0:0:0:
329,192,158766,1,0,0:0:0:0:
36,192,158840,1,0,0:0:0:0:
256,192,158840,1,0,0:0:0:0:
475,192,158913,1,0,0:0:0:0:
182,192,158913,1,0,0:0:0:0:
402,192,158987,1,0,0:0:0:0:
109,192,158987,1,0,0:0:0:0:
329,192,159060,1,0,0:0:0:0:
36,192,159060,1,0,0:0:0:0:
109,192,159134,1,0,0:0:0:0:
402,192,159134,1,0,0:0:0:0:
475,192,159207,1,0,0:0:0:0:
256,192,159207,1,0,0:0:0:0:
182,192,159281,1,0,0:0:0:0:
402,192,159281,1,0,0:0:0:0:
36,192,159354,1,0,0:0:0:0:
256,192,159354,1,0,0:0:0:0:
109,192,159428,1,0,0:0:0:0:
329,192,159428,1,0,0:0:0:0:
475,192,159501,1,0,0:0:0:0:
256,192,159501,1,0,0:0:0:0:
402,192,159575,1,0,0:0:0:0:
182,192,159575,1,0,0:0:0:0:
36,192,159648,1,0,0:0:0:0:
256,192,159648,1,0,0:0:0:0:
109,192,159722,1,0,0:0:0:0:
329,192,159722,1,0,0:0:0:0:
402,192,159795,1,0,0:0:0:0:
475,192,159795,1,0,0:0:0:0:
109,192,159869,1,0,0:0:0:0:
182,192,159869,1,0,0:0:0:0:
402,192,159942,1,0,0:0:0:0:
475,192,159942,1,0,0:0:0:0:
109,192,160016,1,0,0:0:0:0:
182,192,160016,1,0,0:0:0:0:
36,192,160090,1,0,0:0:0:0:
256,192,160090,1,0,0:0:0:0:
329,192,160163,1,0,0:0:0:0:
109,192,160163,1,0,0:0:0:0:
402,192,160237,1,0,0:0:0:0:
182,192,160237,1,0,0:0:0:0:
475,192,160310,1,0,0:0:0:0:
256,192,160310,1,0,0:0:0:0:
36,192,160384,1,0,0:0:0:0:
329,192,160384,1,0,0:0:0:0:
109,192,160457,1,0,0:0:0:0:
402,192,160457,1,0,0:0:0:0:
182,192,160531,1,0,0:0:0:0:
475,192,160531,1,0,0:0:0:0:
402,192,160604,1,0,0:0:0:0:
109,192,160604,1,0,0:0:0:0:
36,192,160678,1,0,0:0:0:0:
329,192,160678,1,0,0:0:0:0:
475,192,160751,1,0,0:0:0:0:
182,192,160751,1,0,0:0:0:0:
36,192,160825,1,0,0:0:0:0:
329,192,160825,1,0,0:0:0:0:
475,192,160898,1,0,0:0:0:0:
182,192,160898,1,0,0:0:0:0:
36,192,160972,1,0,0:0:0:0:
256,192,160972,1,0,0:0:0:0:
329,192,161045,1,0,0:0:0:0:
109,192,161045,1,0,0:0:0:0:
402,192,161119,1,0,0:0:0:0:
182,192,161119,1,0,0:0:0:0:
475,192,161192,1,0,0:0:0:0:
256,192,161192,1,0,0:0:0:0:
36,192,161266,1,0,0:0:0:0:
109,192,161340,1,0,0:0:0:0:
182,192,161413,1,0,0:0:0:0:
109,192,161487,1,0,0:0:0:0:
36,192,161560,1,0,0:0:0:0:
256,192,161560,1,0,0:0:0:0:
329,192,161634,1,0,0:0:0:0:
109,192,161634,1,0,0:0:0:0:
475,192,161707,1,0,0:0:0:0:
256,192,161707,1,0,0:0:0:0:
402,192,161781,1,0,0:0:0:0:
182,192,161781,1,0,0:0:0:0:
36,192,161854,1,0,0:0:0:0:
256,192,161854,1,0,0:0:0:0:
109,192,161928,1,0,0:0:0:0:
329,192,161928,1,0,0:0:0:0:
475,192,162001,1,0,0:0:0:0:
256,192,162001,1,0,0:0:0:0:
182,192,162148,1,0,0:0:0:0:
402,192,162148,1,0,0:0:0:0:
109,192,162295,1,0,0:0:0:0:
36,192,162295,1,0,0:0:0:0:
