osu file format v14

[General]
AudioFilename: ungrateful.mp3
AudioLeadIn: 0
PreviewTime: 95489
Countdown: 0
SampleSet: Soft
StackLeniency: 0.6
Mode: 0
LetterboxInBreaks: 0
WidescreenStoryboard: 0

[Editor]
Bookmarks: 37244,68211,80651,84112,89472,96920,113886,135563,146602,163538,184797
DistanceSpacing: 0.4
BeatDivisor: 4
GridSize: 4
TimelineZoom: 1.4

[Metadata]
Title:Ungrateful
TitleUnicode:Ungrateful
Artist:Streetlight Manifesto
ArtistUnicode:Streetlight Manifesto
Creator:pishifat
Version:Extra
Source:
Tags:the hands that thieve catch 22 jazz ska punk
BeatmapID:941020
BeatmapSetID:436968

[Difficulty]
HPDrainRate:6
CircleSize:3
OverallDifficulty:8.6
ApproachRate:9.2
SliderMultiplier:2
SliderTickRate:1

[Events]
//Background and Video events
0,0,"ungrateful.jpg",0,0
//Break Periods
2,62315,67649
2,146886,154586
//Storyboard Layer 0 (Background)
//Storyboard Layer 1 (Fail)
//Storyboard Layer 2 (Pass)
//Storyboard Layer 3 (Foreground)
//Storyboard Sound Samples

[TimingPoints]
37341,387.096774193548,4,2,1,75,1,0
37341,-111.111111111111,4,2,1,75,0,0
43534,-133.333333333333,4,2,1,65,0,0
45953,-133.333333333333,4,2,1,55,0,0
46244,-133.333333333333,4,2,1,65,0,0
46340,-133.333333333333,4,2,1,55,0,0
46534,-133.333333333333,4,2,1,65,0,0
49050,-133.333333333333,4,2,1,55,0,0
49340,-133.333333333333,4,2,1,65,0,0
49437,-133.333333333333,4,2,1,55,0,0
49728,-111.111111111111,4,2,1,75,0,0
55921,-133.333333333333,4,2,1,65,0,0
58340,-133.333333333333,4,2,1,55,0,0
58631,-133.333333333333,4,2,1,65,0,0
58728,-133.333333333333,4,2,1,55,0,0
59018,-133.333333333333,4,2,1,65,0,0
61340,-133.333333333333,4,2,1,65,0,0
61437,-133.333333333333,4,2,1,55,0,0
61728,-133.333333333333,4,2,1,65,0,0
61824,-133.333333333333,4,2,1,55,0,0
62115,-133.333333333333,4,2,1,65,0,0
68308,319.148936170213,4,2,1,75,1,0
68308,-71.4285714285714,4,2,1,75,0,0
78520,315.789473684211,4,2,1,75,1,0
78520,-71.4285714285714,4,2,1,75,0,0
81046,352.941176470588,4,2,1,75,1,0
83869,324.324324324324,4,2,1,75,1,0
83869,-71.4285714285714,4,2,1,75,0,0
86463,342.857142857143,4,2,1,75,1,0
88520,352.941176470588,4,2,1,75,1,0
89225,329.67032967033,4,2,1,75,1,0
89225,-71.4285714285714,4,2,1,75,0,0
90543,319.148936170213,4,2,1,75,1,0
90543,-71.4285714285714,4,2,1,75,0,0
95649,338.983050847458,4,2,1,75,1,0
96496,-100,4,2,1,35,0,0
96665,-200,4,2,1,75,0,0
96835,-100,4,2,1,45,0,0
97004,357.142857142857,4,2,1,75,1,1
102718,352.941176470588,4,2,1,75,1,1
109776,349.854227405248,4,2,1,75,1,1
112574,-100,4,2,1,75,0,0
113274,-100,4,2,1,65,0,0
113974,338.983050847458,4,2,1,75,1,0
117024,337.078651685393,4,2,1,75,1,0
117024,-100,4,2,1,75,0,0
119720,-100,4,2,1,65,0,0
120563,-100,4,2,1,55,0,0
120731,-100,4,2,1,65,0,0
121068,-100,4,2,1,65,0,0
125113,-83.3333333333333,4,2,1,65,0,0
135226,-100,4,2,1,65,0,0
135900,-125,4,2,1,50,0,0
143990,-125,4,2,1,56,0,0
144664,-125,4,2,1,62,0,0
145844,-90.9090909090909,4,2,1,55,0,0
146012,-125,4,2,1,55,0,0
146686,352.941176470588,4,2,1,75,1,0
155156,-125,4,2,1,75,0,0
163627,-76.9230769230769,4,2,1,75,0,1
168921,-100,4,2,1,75,0,1
169274,-76.9230769230769,4,2,1,75,0,1
182333,-90.9090909090909,4,2,1,75,0,1
182685,-76.9230769230769,4,2,1,75,0,1
182862,-90.9090909090909,4,2,1,75,0,1
183038,-76.9230769230769,4,2,1,75,0,1
183391,375,4,2,1,75,1,0
184234,-100,4,2,1,35,0,0
184516,-166.666666666667,4,2,1,75,0,0
184609,-100,4,2,1,35,0,0
184891,-100,4,2,1,75,0,0
190891,-125,4,2,1,65,0,0
193141,-125,4,2,1,65,0,0
193234,-125,4,2,1,55,0,0
193516,-125,4,2,1,65,0,0
193609,-125,4,2,1,55,0,0
193891,-125,4,2,1,65,0,0
196141,-125,4,2,1,65,0,0
196234,-125,4,2,1,55,0,0
196516,-125,4,2,1,65,0,0
196609,-125,4,2,1,55,0,0
196891,-100,4,2,1,75,0,0
202891,-125,4,2,1,65,0,0
205141,-125,4,2,1,65,0,0
205234,-125,4,2,1,55,0,0
205516,-125,4,2,1,65,0,0
205609,-125,4,2,1,55,0,0
205891,-125,4,2,1,65,0,0
208141,-125,4,2,1,65,0,0
208234,-125,4,2,1,55,0,0
208516,-125,4,2,1,65,0,0
208609,-125,4,2,1,55,0,0
208891,-125,4,2,1,75,0,0
213391,387.096774193548,4,2,1,75,1,0
214358,-125,4,2,1,35,0,0
214552,-166.666666666667,4,2,1,75,0,0
214745,-100,4,2,1,35,0,0
214939,-100,4,2,1,75,0,0
215036,-100,4,2,1,5,0,0

[Colours]
Combo1 : 189,173,140
Combo2 : 97,150,214
Combo3 : 215,209,181
Combo4 : 140,166,208

[HitObjects]
52,87,37341,6,0,P|135:85|195:32,1,134.999995880127,4|0,0:0|0:0,0:0:0:0:
358,76,37728,2,0,B|313:69|313:69|252:96,1,89.9999972534181,0|0,1:0|0:0,0:0:0:0:
204,159,38018,1,0,1:0:0:0:
204,159,38115,2,0,L|196:251,1,89.9999972534181,2|0,0:0|1:0,0:0:0:0:
176,57,38502,1,0,1:0:0:0:
344,190,38695,2,0,L|279:177,1,44.999998626709
102,182,38889,6,0,P|67:243|86:340,1,134.999995880127,4|0,0:0|0:0,0:0:0:0:
159,378,39276,2,0,B|198:358|198:358|257:363,1,89.9999972534181,0|0,1:0|0:0,0:0:0:0:
340,375,39566,1,0,1:0:0:0:
340,375,39663,1,2,0:0:0:0:
180,264,39857,1,0,1:0:0:0:
331,165,40050,1,0,1:0:0:0:
331,165,40147,1,0,0:0:0:0:
331,165,40244,2,0,L|322:223,1,44.999998626709
427,336,40437,6,0,P|425:278|391:224,1,89.9999972534181,4|0,0:0|0:0,0:0:0:0:
141,168,40824,2,0,B|186:175|186:175|240:153,1,89.9999972534181,0|0,1:0|0:0,0:0:0:0:
282,81,41115,1,0,1:0:0:0:
282,81,41211,1,2,0:0:0:0:
269,249,41405,1,0,1:0:0:0:
175,83,41599,2,0,P|122:60|60:66,1,89.9999972534181,0|0,1:0|0:0,0:0:0:0:
90,58,41889,1,0,0:0:0:0:
90,58,41986,6,0,L|77:230,1,134.999995880127,4|0,0:0|0:0,0:0:0:0:
67,344,42373,2,0,B|103:316|103:316|164:311,1,89.9999972534181,0|0,1:0|0:0,0:0:0:0:
177,221,42663,1,0,1:0:0:0:
177,221,42760,2,0,L|282:232,1,89.9999972534181,2|0,0:0|1:0,0:0:0:0:
218,79,43147,1,0,1:0:0:0:
218,79,43244,1,0,0:0:0:0:
218,79,43340,2,0,L|225:144,1,44.999998626709
245,324,43534,5,2,0:0:0:0:
413,300,43728,2,4,L|322:311,1,75.0000028610231,4|4,0:3|0:3,0:3:0:0:
176,237,44115,5,2,0:0:0:0:
437,199,44308,1,2,0:0:0:0:
270,223,44502,2,8,L|364:210,1,75.0000028610231,8|8,0:3|0:3,0:3:0:0:
471,101,44889,5,2,0:0:0:0:
208,143,45082,1,2,0:0:0:0:
375,117,45276,2,4,L|300:128,1,75.0000028610231,4|4,0:3|0:3,0:3:0:0:
51,61,45663,5,2,0:0:0:0:
92,254,45857,1,0,1:0:0:0:
115,259,45953,1,0,1:0:0:0:
138,261,46050,1,0,1:0:0:0:
161,258,46147,1,0,1:0:0:0:
183,250,46244,1,0,1:0:0:0:
206,243,46340,1,0,1:0:0:0:
229,240,46437,1,0,1:0:0:0:
252,241,46534,1,0,1:0:0:0:
275,245,46631,5,2,0:2:0:0:
263,72,46824,2,4,L|270:180,1,75.0000028610231,4|4,0:3|0:3,0:3:0:0:
140,362,47211,5,2,0:0:0:0:
168,103,47405,1,2,0:0:0:0:
150,270,47599,2,8,L|160:180,1,75.0000028610231,8|8,0:3|0:3,0:3:0:0:
356,60,47986,5,2,0:0:0:0:
380,324,48179,1,2,0:0:0:0:
364,152,48373,2,4,L|371:227,1,75.0000028610231,4|4,0:3|0:3,0:3:0:0:
58,308,48760,5,2,0:0:0:0:
215,86,48953,1,0,1:0:0:0:
236,94,49049,1,0,1:0:0:0:
252,111,49146,1,0,1:0:0:0:
258,134,49243,1,0,1:0:0:0:
253,156,49340,1,0,1:0:0:0:
238,174,49436,1,0,1:0:0:0:
216,182,49533,1,0,1:0:0:0:
193,180,49630,1,0,1:0:0:0:
174,167,49728,6,0,P|131:164|45:221,1,134.999995880127,4|0,0:0|0:0,0:0:0:0:
213,308,50115,2,0,B|182:273|182:273|117:256,1,89.9999972534181,0|0,1:0|0:0,0:0:0:0:
55,310,50405,1,0,1:0:0:0:
55,310,50502,1,2,0:0:0:0:
90,118,50695,1,0,1:0:0:0:
263,215,50889,2,0,P|308:208|357:173,1,89.9999972534181,0|0,1:0|0:0,0:0:0:0:
345,185,51179,1,0,0:0:0:0:
345,185,51276,6,0,L|326:345,1,134.999995880127,4|0,0:0|0:0,0:0:0:0:
431,278,51663,2,0,L|440:369,1,89.9999972534181,0|0,1:0|0:0,0:0:0:0:
484,195,51953,1,0,1:0:0:0:
484,195,52050,2,0,P|514:229|525:291,1,89.9999972534181,2|0,0:0|1:0,0:0:0:0:
338,326,52437,1,0,1:0:0:0:
338,326,52534,1,0,0:0:0:0:
338,326,52631,2,0,L|345:249,1,44.999998626709
383,105,52824,6,0,P|360:134|346:211,1,89.9999972534181,4|0,0:0|0:0,0:0:0:0:
232,372,53211,2,0,P|225:322|200:270,1,89.9999972534181,0|0,1:0|0:0,0:0:0:0:
138,221,53502,1,0,1:0:0:0:
138,221,53599,2,0,L|75:230,1,44.999998626709,2|0,0:0|0:0,0:0:0:0:
252,198,53792,1,0,1:0:0:0:
61,57,53986,2,0,B|35:92|35:92|41:162,1,89.9999972534181,0|0,1:0|0:0,0:0:0:0:
38,138,54276,1,0,0:0:0:0:
38,138,54373,6,0,L|183:122,1,134.999995880127,4|0,0:0|0:0,0:0:0:0:
378,86,54760,2,0,P|292:108|271:132,1,89.9999972534181,0|0,1:0|0:0,0:0:0:0:
360,183,55050,1,0,1:0:0:0:
360,183,55147,5,2,0:0:0:0:
308,9,55340,1,0,1:0:0:0:
452,150,55534,1,0,1:0:0:0:
270,208,55727,1,0,0:0:0:0:
270,208,55824,1,0,0:0:0:0:
270,208,55921,5,2,0:0:0:0:
403,285,56115,2,4,L|300:276,1,75.0000028610231,4|4,0:3|0:3,0:3:0:0:
72,222,56502,5,2,0:0:0:0:
146,373,56695,1,2,0:0:0:0:
168,204,56889,2,8,L|155:310,1,75.0000028610231,8|8,0:3|0:3,0:3:0:0:
357,130,57276,5,2,0:0:0:0:
275,278,57469,1,2,0:0:0:0:
257,109,57663,2,4,L|267:210,1,75.0000028610231,4|4,0:3|0:3,0:3:0:0:
72,222,58050,5,0,0:0:0:0:
216,17,58244,1,0,1:0:0:0:
239,12,58340,1,0,1:0:0:0:
262,11,58437,1,0,1:0:0:0:
285,15,58534,1,0,1:0:0:0:
306,24,58631,1,0,1:0:0:0:
328,34,58727,1,0,1:0:0:0:
351,39,58824,1,0,1:0:0:0:
374,40,58921,1,0,1:0:0:0:
397,37,59018,5,2,0:0:0:0:
378,204,59211,2,4,L|386:130,1,75.0000028610231,4|4,0:3|0:3,0:3:0:0:
277,330,59599,5,2,0:0:0:0:
252,73,59792,1,2,0:0:0:0:
268,241,59986,2,8,L|259:139,1,75.0000028610231,8|8,0:3|0:3,0:3:0:0:
128,353,60373,5,2,0:0:0:0:
153,96,60566,1,2,0:0:0:0:
137,264,60760,2,4,L|146:162,1,75.0000028610231,4|4,0:3|0:3,0:3:0:0:
411,198,61147,5,2,0:0:0:0:
308,331,61340,1,2,0:0:0:0:
287,339,61438,1,0,1:0:0:0:
263,336,61535,1,0,1:0:0:0:
244,323,61632,1,0,1:0:0:0:
234,302,61728,1,0,1:0:0:0:
234,279,61825,1,0,1:0:0:0:
244,259,61922,1,0,1:0:0:0:
264,246,62019,1,0,1:0:0:0:
286,243,62115,5,4,0:2:0:0:
308,231,68308,5,4,0:0:0:0:
106,292,68467,1,0,1:0:0:0:
216,187,68627,1,2,0:0:0:0:
216,187,68706,1,0,0:0:0:0:
216,187,68786,2,0,L|208:282,1,69.9999978637696,0|0,1:0|0:0,0:0:0:0:
12,337,68946,6,0,L|5:256,1,69.9999978637696,2|0,0:0|0:0,0:0:0:0:
82,68,69105,1,0,1:0:0:0:
82,68,69185,2,0,B|120:121|120:121|112:205,1,139.999995727539,2|0,0:0|0:0,0:0:0:0:
106,292,69425,1,0,1:0:0:0:
380,202,69584,5,2,0:0:0:0:
251,110,69744,1,0,1:0:0:0:
242,128,69823,1,0,0:0:0:0:
232,148,69903,1,2,0:0:0:0:
224,168,69983,1,0,0:0:0:0:
215,188,70063,2,0,L|307:174,1,69.9999978637696,0|0,1:0|0:0,0:0:0:0:
506,166,70222,6,0,P|410:175|376:206,1,139.999995727539,2|0,0:0|1:0,0:0:0:0:
349,350,70462,2,0,B|382:291|382:291|367:203,1,139.999995727539,2|0,0:0|0:0,0:0:0:0:
348,104,70701,1,0,1:0:0:0:
281,274,70861,5,2,0:0:0:0:
129,125,71020,1,0,1:0:0:0:
284,177,71180,1,2,0:0:0:0:
284,177,71260,1,0,0:0:0:0:
284,177,71339,2,0,P|238:160|199:159,1,69.9999978637696,0|0,1:0|0:0,0:0:0:0:
85,256,71499,5,2,0:0:0:0:
81,276,71579,1,0,0:0:0:0:
93,294,71659,1,0,1:0:0:0:
113,298,71738,1,0,0:0:0:0:
132,290,71818,2,0,L|138:173,1,69.9999978637696,2|0,0:0|0:0,0:0:0:0:
142,22,71978,1,0,1:0:0:0:
363,190,72137,5,4,0:0:0:0:
277,59,72297,1,8,0:3:0:0:
242,62,72376,1,8,0:3:0:0:
211,78,72456,1,4,0:3:0:0:
188,104,72536,1,4,0:3:0:0:
176,137,72616,1,0,1:0:0:0:
177,172,72695,1,0,1:0:0:0:
192,206,72776,6,0,P|238:222|281:215,1,69.9999978637696,8|0,0:3|0:0,0:0:0:0:
387,116,72935,1,0,1:0:0:0:
387,116,73015,2,0,P|350:147|334:188,1,69.9999978637696,0|0,1:0|0:0,0:0:0:0:
374,329,73175,1,8,0:3:0:0:
374,329,73254,2,0,P|364:281|337:247,1,69.9999978637696,4|0,0:3|0:0,0:0:0:0:
271,94,73414,5,4,0:0:0:0:
504,187,73573,1,0,1:0:0:0:
512,195,73653,1,0,0:0:0:0:
512,195,73733,2,0,L|431:201,1,69.9999978637696,2|0,0:0|0:0,0:0:0:0:
252,221,73893,1,0,1:0:0:0:
362,382,74052,6,0,L|349:240,1,139.999995727539,2|0,0:0|1:0,0:0:0:0:
296,101,74292,2,0,B|342:148|342:148|350:250,1,139.999995727539,2|0,0:0|0:0,0:0:0:0:
260,359,74531,1,0,1:0:0:0:
89,71,74690,5,2,0:0:0:0:
238,198,74850,1,0,1:0:0:0:
233,216,74930,1,0,0:0:0:0:
229,236,75010,1,2,0:0:0:0:
225,256,75089,1,0,0:0:0:0:
220,275,75169,2,0,P|177:265|138:242,1,69.9999978637696,0|0,1:0|0:0,0:0:0:0:
89,71,75329,5,2,0:0:0:0:
65,201,75488,1,0,1:0:0:0:
65,201,75568,2,0,P|136:154|213:161,1,139.999995727539,2|0,0:0|0:0,0:0:0:0:
278,187,75808,1,0,1:0:0:0:
248,379,75967,5,2,0:0:0:0:
478,215,76127,2,0,L|379:203,1,69.9999978637696,0|0,1:0|0:0,0:0:0:0:
202,291,76286,1,2,0:0:0:0:
202,291,76366,1,0,0:0:0:0:
202,291,76446,2,0,L|301:279,1,69.9999978637696,0|0,1:0|0:0,0:0:0:0:
450,121,76605,5,2,0:0:0:0:
305,190,76765,1,0,1:0:0:0:
305,190,76845,1,0,0:0:0:0:
305,190,76925,2,0,P|288:148|293:104,1,69.9999978637696,2|0,0:0|0:0,0:0:0:0:
317,20,77084,1,0,1:0:0:0:
311,300,77244,5,4,1:2:0:0:
331,330,77323,1,0,1:0:0:0:
364,346,77403,1,8,0:3:0:0:
401,344,77483,1,8,0:3:0:0:
432,324,77563,1,8,0:3:0:0:
448,291,77642,1,8,0:3:0:0:
446,254,77722,2,0,P|430:224|389:198,1,69.9999978637696,4|0,0:3|0:0,0:0:0:0:
225,269,77882,5,0,1:0:0:0:
190,272,77962,1,0,1:0:0:0:
155,276,78042,1,8,0:3:0:0:
120,280,78121,1,8,0:3:0:0:
85,286,78201,2,0,P|72:250|75:205,1,69.9999978637696,4|0,0:3|0:0,0:0:0:0:
176,108,78361,2,0,P|188:146|179:214,1,69.9999978637696,4|0,0:3|0:0,0:0:0:0:
157,369,78520,5,4,0:0:0:0:
381,196,78677,1,0,1:0:0:0:
381,196,78756,1,0,0:0:0:0:
381,196,78835,2,0,L|285:184,1,69.9999978637696,2|0,0:0|0:0,0:0:0:0:
188,175,78993,1,0,1:0:0:0:
474,166,79151,5,2,0:0:0:0:
332,23,79309,1,0,1:0:0:0:
332,23,79388,1,0,0:0:0:0:
332,23,79467,2,0,P|319:51|314:103,1,69.9999978637696,2|0,0:0|0:0,0:0:0:0:
463,260,79625,6,0,B|345:223|381:302|258:265,1,209.999993591309,0|0,1:0|0:0,0:0:0:0:
171,224,79941,1,0,1:0:0:0:
227,25,80098,1,2,0:0:0:0:
227,25,80177,1,0,0:0:0:0:
227,25,80256,2,0,L|128:36,1,69.9999978637696,0|0,1:0|0:0,0:0:0:0:
29,67,80414,6,0,B|-11:120|-11:120|5:217,1,139.999995727539,2|0,0:0|1:0,0:0:0:0:
24,288,80651,1,0,0:0:0:0:
24,288,80730,2,0,P|98:280|115:270,1,69.9999978637696,2|0,0:0|0:0,0:0:0:0:
254,156,80888,1,0,1:0:0:0:
254,156,81046,6,0,P|322:189|403:177,1,150,4|0,0:0|0:0,0:0:0:0:
512,105,81398,2,0,B|482:145|482:145|493:218,1,100,0|0,1:0|0:0,0:0:0:0:
512,314,81663,1,0,1:0:0:0:
512,314,81751,2,0,P|470:284|385:280,1,100,2|0,0:0|0:0,0:0:0:0:
257,384,82104,2,0,P|327:342|389:342,1,100,0|0,1:0|0:0,0:0:0:0:
343,339,82369,1,0,0:0:0:0:
343,339,82457,6,0,L|332:175,1,150,2|0,0:0|0:0,0:0:0:0:
431,23,82810,2,0,B|399:59|399:59|392:125,1,100,0|0,1:0|0:0,0:0:0:0:
431,209,83075,1,0,1:0:0:0:
431,209,83163,1,2,0:0:0:0:
226,48,83340,5,8,0:3:0:0:
203,44,83428,1,8,0:3:0:0:
183,39,83516,5,0,1:0:0:0:
134,51,83604,1,0,1:0:0:0:
107,93,83693,1,0,1:0:0:0:
109,142,83781,1,0,1:0:0:0:
144,177,83869,6,0,B|199:141|199:141|304:153,1,139.999995727539,4|0,0:0|1:0,0:0:0:0:
361,197,84112,1,0,0:0:0:0:
361,197,84193,2,0,L|368:319,1,69.9999978637696,2|0,0:0|0:0,0:0:0:0:
371,363,84355,1,0,1:0:0:0:
355,101,84517,5,2,0:0:0:0:
273,247,84679,1,0,1:0:0:0:
506,170,84841,1,2,0:0:0:0:
506,170,84923,1,0,0:0:0:0:
506,170,85004,2,0,P|460:145|407:144,1,69.9999978637696,0|0,1:0|0:0,0:0:0:0:
180,121,85166,5,2,0:0:0:0:
361,197,85328,1,0,1:0:0:0:
274,80,85490,1,2,0:0:0:0:
274,80,85571,1,0,0:0:0:0:
274,80,85652,2,0,L|282:185,1,69.9999978637696,0|0,1:0|0:0,0:0:0:0:
311,347,85814,6,0,P|221:373|142:348,1,139.999995727539,2|0,0:0|1:0,0:0:0:0:
107,297,86058,1,0,0:0:0:0:
107,297,86139,2,0,P|147:275|195:272,1,69.9999978637696,2|0,0:0|0:0,0:0:0:0:
392,300,86301,1,0,1:0:0:0:
392,300,86463,6,0,L|377:134,1,150,4|0,0:0|0:0,0:0:0:0:
476,25,86805,2,0,B|427:27|427:27|367:67,1,100,0|0,1:0|0:0,0:0:0:0:
296,95,87063,1,0,1:0:0:0:
296,95,87148,2,0,P|242:88|193:55,1,100,2|0,0:0|0:0,0:0:0:0:
378,150,87491,1,0,1:0:0:0:
208,179,87663,1,0,0:0:0:0:
208,179,87748,1,0,0:0:0:0:
208,179,87834,6,0,P|169:235|195:339,1,150,2|0,0:0|0:0,0:0:0:0:
74,214,88177,1,0,1:0:0:0:
313,271,88348,1,0,1:0:0:0:
313,271,88434,1,0,1:0:0:0:
313,271,88520,6,0,L|234:257,1,50,0|0,1:0|1:0,1:0:0:0:
126,319,88696,2,8,L|175:312,1,50,8|8,0:3|0:3,0:3:0:0:
303,171,88872,1,4,0:3:0:0:
301,151,88960,1,4,0:3:0:0:
295,131,89048,1,4,0:3:0:0:
286,114,89136,1,4,0:3:0:0:
272,99,89225,6,0,B|210:74|210:74|103:87,1,139.999995727539,4|0,0:0|1:0,0:0:0:0:
50,129,89472,1,0,0:0:0:0:
50,129,89554,2,0,L|40:214,1,69.9999978637696,2|0,0:0|0:0,0:0:0:0:
34,322,89719,1,0,1:0:0:0:
313,271,89884,5,2,0:0:0:0:
153,178,90049,1,0,1:0:0:0:
224,317,90214,1,2,0:0:0:0:
224,317,90296,1,0,0:0:0:0:
224,317,90378,2,0,L|218:226,1,69.9999978637696,0|0,1:0|0:0,0:0:0:0:
180,88,90543,5,2,0:0:0:0:
124,269,90702,1,0,1:0:0:0:
312,184,90862,1,2,0:0:0:0:
312,184,90941,1,0,0:0:0:0:
312,184,91021,2,0,P|252:163|190:164,1,69.9999978637696,0|0,1:0|0:0,0:0:0:0:
45,174,91181,5,2,0:0:0:0:
180,88,91340,1,0,1:0:0:0:
42,195,91500,5,2,0:0:0:0:
176,69,91660,1,0,1:0:0:0:
115,276,91819,6,0,B|184:291|184:291|270:238,1,139.999995727539,2|0,0:0|1:0,0:0:0:0:
312,184,92058,1,0,0:0:0:0:
312,184,92138,2,0,P|334:215|346:298,1,69.9999978637696,2|0,0:0|0:0,0:0:0:0:
345,341,92298,1,0,1:0:0:0:
409,150,92457,5,2,0:0:0:0:
218,162,92617,1,0,1:0:0:0:
412,54,92777,1,2,0:0:0:0:
412,54,92856,1,0,0:0:0:0:
412,54,92936,2,0,P|368:62|344:75,1,69.9999978637696,0|0,1:0|0:0,0:0:0:0:
243,254,93096,6,0,B|184:291|184:291|115:276,1,139.999995727539,2|0,0:0|1:0,0:0:0:0:
39,217,93335,1,0,0:0:0:0:
39,217,93415,2,0,L|32:115,1,69.9999978637696,2|0,0:0|0:0,0:0:0:0:
28,55,93574,1,0,1:0:0:0:
150,178,93734,5,2,0:0:0:0:
192,21,93894,1,0,1:0:0:0:
163,191,94053,5,2,0:0:0:0:
178,9,94213,1,0,1:0:0:0:
243,254,94372,6,0,P|324:259|404:213,1,139.999995727539,2|0,0:0|1:0,0:0:0:0:
451,172,94612,1,0,0:0:0:0:
451,172,94691,2,0,P|410:146|369:140,1,69.9999978637696,2|0,0:0|0:0,0:0:0:0:
225,114,94851,1,0,1:0:0:0:
329,351,95011,5,2,0:0:0:0:
300,166,95170,1,0,1:0:0:0:
169,229,95330,1,2,0:0:0:0:
169,229,95410,1,0,0:0:0:0:
169,229,95489,2,0,L|266:239,1,69.9999978637696,0|0,1:0|0:0,0:0:0:0:
432,249,95649,5,0,1:0:0:0:
432,249,96496,1,8,0:3:0:0:
201,293,96665,2,0,L|205:225,1,50,0|4,1:0|0:3,0:0:0:0:
432,249,97004,6,0,P|352:296|272:267,1,150,4|0,0:0|0:0,0:0:0:0:
349,199,97361,2,0,L|342:79,1,100,0|0,1:0|0:0,0:0:0:0:
338,0,97629,1,0,1:0:0:0:
338,0,97718,1,2,0:0:0:0:
255,155,97896,1,0,0:0:0:0:
434,43,98075,1,0,1:0:0:0:
165,101,98254,1,0,0:0:0:0:
165,101,98343,1,0,0:0:0:0:
165,101,98432,6,0,P|198:70|277:60,1,100,4|0,0:0|0:0,0:0:0:0:
415,164,98789,2,0,P|351:105|315:98,1,100,0|0,1:0|0:0,0:0:0:0:
254,155,99057,1,0,1:0:0:0:
254,155,99146,2,0,L|261:262,1,100,2|0,0:0|0:0,0:0:0:0:
449,283,99504,1,0,1:0:0:0:
449,283,99593,1,0,0:0:0:0:
449,283,99682,2,0,L|441:367,1,50
212,337,99861,6,0,P|267:301|348:308,1,150,4|0,0:0|0:0,0:0:0:0:
260,254,100218,2,0,L|254:155,1,100,0|0,1:0|0:0,0:0:0:0:
250,60,100486,1,0,1:0:0:0:
250,60,100575,1,2,0:0:0:0:
150,232,100754,2,0,L|157:157,1,50
339,106,100932,2,0,B|367:145|367:145|372:196,1,100,0|0,1:0|0:0,0:0:0:0:
372,195,101200,1,0,0:0:0:0:
372,195,101289,5,4,0:0:0:0:
447,93,101468,1,0,0:0:0:0:
254,155,101646,1,0,1:0:0:0:
463,87,101825,1,0,0:0:0:0:
253,247,102004,5,0,1:0:0:0:
236,244,102093,1,0,1:0:0:0:
219,240,102182,1,0,1:0:0:0:
203,238,102271,1,0,1:0:0:0:
184,235,102361,2,8,P|170:212|163:168,1,50,8|0,3:3|3:3,3:3:0:0:
313,328,102539,2,4,P|297:382|289:392,1,50,4|0,0:3|0:3,0:3:0:0:
67,161,102718,6,0,P|132:96|229:110,1,150,4|0,0:0|0:0,0:0:0:0:
354,4,103070,2,0,B|311:30|311:30|225:22,1,100,0|0,1:0|0:0,0:0:0:0:
337,129,103335,1,0,1:0:0:0:
337,129,103423,6,0,L|276:136,1,50,2|0,0:0|0:0,0:0:0:0:
165,194,103600,1,0,0:0:0:0:
423,170,103776,1,0,1:0:0:0:
261,233,103953,1,0,0:0:0:0:
261,233,104041,1,0,0:0:0:0:
261,233,104129,6,0,P|312:235|376:290,1,100,4|0,0:0|0:0,0:0:0:0:
109,349,104482,2,0,P|141:317|215:303,1,100,0|0,1:0|0:0,0:0:0:0:
290,336,104747,1,0,1:0:0:0:
290,336,104835,1,2,0:0:0:0:
163,216,105012,1,0,0:0:0:0:
382,349,105188,1,0,1:0:0:0:
275,185,105365,2,0,P|265:212|259:261,1,50
181,364,105541,6,0,P|176:283|157:196,1,150,4|0,0:0|0:0,0:0:0:0:
117,47,105894,2,0,B|91:89|91:89|97:149,1,100,0|0,1:0|0:0,0:0:0:0:
193,118,106159,1,0,1:0:0:0:
193,118,106247,1,2,0:0:0:0:
20,11,106423,1,0,0:0:0:0:
162,215,106600,1,0,1:0:0:0:
297,136,106776,1,0,0:0:0:0:
297,136,106865,1,0,0:0:0:0:
297,136,106953,1,2,0:0:0:0:
251,355,107129,5,4,1:2:0:0:
162,215,107306,1,0,0:0:0:0:
262,369,107482,1,0,0:0:0:0:
381,167,107659,5,4,1:2:0:0:
248,260,107835,1,0,0:0:0:0:
397,158,108012,1,0,0:0:0:0:
174,322,108188,1,0,1:0:0:0:
174,322,108276,1,0,0:0:0:0:
174,322,108365,5,4,0:0:0:0:
479,238,108541,2,0,L|413:248,1,50
248,260,108718,2,0,B|299:254|299:254|373:305,1,100,0|0,1:0|0:0,0:0:0:0:
419,345,108982,1,0,1:0:0:0:
419,345,109070,2,0,L|534:328,1,100,2|0,0:0|0:0,0:0:0:0:
330,161,109423,1,0,1:0:0:0:
285,359,109600,1,0,0:0:0:0:
285,359,109688,1,0,0:0:0:0:
285,359,109776,5,4,0:0:0:0:
173,179,109950,2,0,P|210:153|246:144,1,50
348,257,110125,2,0,L|238:244,1,100,0|0,1:0|0:0,0:0:0:0:
161,280,110388,1,0,1:0:0:0:
161,280,110475,1,2,0:0:0:0:
351,162,110650,2,0,P|325:146|277:135,1,50
104,123,110825,2,0,B|77:162|77:162|82:214,1,100,0|0,1:0|0:0,0:0:0:0:
82,214,111087,1,0,0:0:0:0:
82,214,111175,6,0,P|156:179|202:188,1,100,4|0,0:0|0:0,0:0:0:0:
357,300,111525,2,0,L|253:285,1,100,0|0,1:0|0:0,0:0:0:0:
141,372,111787,1,0,1:0:0:0:
141,372,111875,2,0,B|166:331|166:331|159:259,1,100,2|0,0:0|0:0,0:0:0:0:
342,100,112224,2,0,B|313:143|313:143|320:210,1,100,0|0,1:0|0:0,0:0:0:0:
318,191,112487,1,0,0:0:0:0:
318,191,112574,5,2,1:1:0:0:
220,166,112924,5,2,1:1:0:0:
114,134,113274,5,0,1:0:0:0:
94,140,113362,1,0,1:0:0:0:
76,149,113449,1,8,0:3:0:0:
63,164,113536,1,8,0:3:0:0:
53,181,113624,2,0,P|36:145|36:119,1,50,8|0,0:3|0:0,0:0:0:0:
196,25,113799,2,0,P|197:54|190:86,1,50,4|0,0:3|0:0,0:0:0:0:
144,224,113974,5,4,0:0:0:0:
362,158,115329,5,4,0:0:0:0:
228,9,117024,6,0,B|201:51|201:51|212:131,1,100,4|0,0:0|0:0,0:0:0:0:
483,142,117361,1,0,1:0:0:0:
469,100,117445,1,0,1:0:0:0:
432,74,117529,1,0,1:0:0:0:
386,76,117613,1,0,1:0:0:0:
351,105,117698,6,0,B|396:153|396:153|387:268,1,150,4|0,0:0|0:0,0:0:0:0:
187,289,118035,1,0,1:0:0:0:
146,273,118119,1,0,1:0:0:0:
122,235,118203,1,0,1:0:0:0:
127,190,118287,1,0,1:0:0:0:
157,158,118372,6,0,B|214:196|214:196|329:180,1,150,4|0,0:0|0:0,0:0:0:0:
434,370,118709,1,0,1:0:0:0:
391,384,118793,1,0,1:0:0:0:
348,370,118877,1,0,1:0:0:0:
327,331,118961,1,0,1:0:0:0:
332,287,119046,6,0,B|275:282,1,50,4|0,0:0|0:0,0:0:0:0:
152,344,119215,1,0,1:0:0:0:
152,344,119299,1,0,1:0:0:0:
152,344,119383,2,0,P|182:320|203:283,1,50,4|0,0:0|0:0,0:0:0:0:
211,217,119552,1,0,1:0:0:0:
211,217,119636,1,0,1:0:0:0:
211,217,119720,6,0,L|76:205,1,125,4|0,0:0|0:0,0:0:0:0:
64,203,119973,1,2,0:3:0:0:
156,88,120141,1,2,0:3:0:0:
156,88,120226,1,2,0:3:0:0:
138,311,120394,5,2,0:3:0:0:
254,120,120563,1,0,1:0:0:0:
275,115,120647,1,0,1:0:0:0:
294,112,120731,5,0,1:0:0:0:
322,147,120816,1,0,1:0:0:0:
363,164,120900,1,0,1:0:0:0:
407,161,120984,1,0,1:0:0:0:
446,139,121068,5,0,1:0:0:0:
359,260,121237,1,2,0:3:0:0:
359,260,121321,1,2,0:3:0:0:
381,73,121490,1,2,0:3:0:0:
381,73,121574,1,2,0:3:0:0:
500,273,121743,5,2,0:3:0:0:
363,164,121911,2,0,L|296:156,1,50,2|2,0:3|0:3,0:3:0:0:
271,323,122080,1,0,1:0:0:0:
287,281,122164,1,0,1:0:0:0:
270,239,122248,1,0,1:0:0:0:
229,220,122332,1,0,1:0:0:0:
185,231,122417,6,0,B|102:236|102:236|27:189,1,150,4|0,0:0|0:0,0:0:0:0:
209,108,122754,1,0,1:0:0:0:
173,134,122838,1,0,1:0:0:0:
128,137,122922,1,0,1:0:0:0:
90,110,123007,1,0,1:0:0:0:
81,65,123091,6,0,B|123:22|123:22|241:11,1,150,4|0,0:0|0:0,0:0:0:0:
450,60,123428,1,0,1:0:0:0:
412,36,123512,1,0,1:0:0:0:
366,37,123597,1,0,1:0:0:0:
330,64,123681,1,0,1:0:0:0:
321,108,123765,6,0,L|326:157,1,50,4|0,0:0|0:0,0:0:0:0:
512,249,123934,1,0,1:0:0:0:
509,228,124018,1,8,0:3:0:0:
505,207,124102,5,0,1:0:0:0:
466,231,124186,1,0,1:0:0:0:
420,232,124271,1,8,0:3:0:0:
387,202,124355,1,4,0:3:0:0:
373,160,124439,1,0,1:0:0:0:
339,130,124524,1,0,1:0:0:0:
294,128,124608,1,8,0:3:0:0:
254,150,124692,1,8,0:3:0:0:
233,194,124776,5,0,1:0:0:0:
258,231,124861,1,0,1:0:0:0:
237,268,124945,1,0,1:0:0:0:
275,303,125029,1,0,1:0:0:0:
246,349,125113,5,4,0:0:0:0:
143,235,125282,1,0,1:0:0:0:
358,262,125450,1,2,0:0:0:0:
358,262,125535,1,0,0:0:0:0:
358,262,125619,1,0,1:0:0:0:
286,95,125788,5,2,0:0:0:0:
249,249,125956,2,0,P|256:213|281:177,1,59.9999981689454,0|0,1:0|0:0,0:0:0:0:
416,135,126125,2,0,P|388:151|338:158,1,59.9999981689454,2|0,0:0|0:0,0:0:0:0:
194,129,126293,1,0,1:0:0:0:
194,129,126377,1,0,0:0:0:0:
194,129,126462,5,2,0:0:0:0:
365,365,126630,2,0,B|378:307|378:307|337:228,1,119.999996337891,0|2,1:0|0:0,0:0:0:0:
271,199,126883,1,0,0:0:0:0:
271,199,126967,1,0,1:0:0:0:
477,287,127136,5,2,0:0:0:0:
263,361,127304,1,0,1:0:0:0:
245,357,127389,1,0,0:0:0:0:
227,354,127473,2,0,P|254:305|281:280,1,59.9999981689454,2|0,0:0|0:0,0:0:0:0:
432,194,127641,1,0,1:0:0:0:
256,98,127810,5,2,0:0:0:0:
350,253,127979,1,0,1:0:0:0:
442,100,128147,1,2,0:0:0:0:
442,100,128231,1,0,0:0:0:0:
442,100,128316,1,0,1:0:0:0:
159,120,128484,5,2,0:0:0:0:
336,157,128653,1,0,1:0:0:0:
225,274,128821,1,2,0:0:0:0:
225,274,128906,1,0,0:0:0:0:
225,274,128990,1,0,1:0:0:0:
196,9,129158,5,2,0:0:0:0:
243,171,129327,1,0,1:0:0:0:
333,57,129495,1,2,0:0:0:0:
333,57,129580,1,0,0:0:0:0:
333,57,129664,1,0,1:0:0:0:
157,130,129832,6,0,B|98:137|98:137|28:99,1,119.999996337891,2|0,0:0|1:0,0:0:0:0:
30,11,130085,1,0,0:0:0:0:
30,11,130170,2,0,P|98:28|120:45,1,59.9999981689454,2|0,0:0|0:0,0:0:0:0:
243,171,130338,1,4,1:2:0:0:
22,204,130507,5,4,0:1:0:0:
228,342,130675,1,0,1:0:0:0:
230,324,130759,1,0,0:0:0:0:
232,306,130844,1,2,0:0:0:0:
234,288,130928,1,0,0:0:0:0:
236,270,131012,1,0,1:0:0:0:
133,338,131181,5,0,0:0:0:0:
347,279,131349,2,0,P|340:251|315:207,1,59.9999981689454,0|0,1:0|0:0,0:0:0:0:
243,171,131518,1,2,0:0:0:0:
243,171,131602,1,0,0:0:0:0:
243,171,131686,1,0,1:0:0:0:
429,207,131855,5,2,0:0:0:0:
236,270,132024,1,0,1:0:0:0:
218,267,132108,1,0,0:0:0:0:
200,262,132192,1,2,0:0:0:0:
184,255,132276,1,0,0:0:0:0:
169,245,132361,1,0,1:0:0:0:
333,128,132529,5,2,0:0:0:0:
135,97,132698,2,0,P|156:75|213:56,1,59.9999981689454,0|0,1:0|0:0,0:0:0:0:
282,45,132866,1,2,0:0:0:0:
282,45,132950,1,0,0:0:0:0:
282,45,133035,1,0,1:0:0:0:
236,270,133203,5,2,0:0:0:0:
396,164,133372,1,0,1:0:0:0:
382,152,133456,1,0,0:0:0:0:
366,141,133540,1,2,0:0:0:0:
351,133,133624,1,0,0:0:0:0:
333,128,133709,1,0,1:0:0:0:
449,252,133877,5,2,0:0:0:0:
340,35,134046,2,0,P|317:35|268:52,1,59.9999981689454,0|0,1:0|0:0,0:0:0:0:
216,119,134215,1,2,0:0:0:0:
216,119,134299,1,0,0:0:0:0:
216,119,134383,1,0,1:0:0:0:
493,168,134552,5,4,0:0:0:0:
345,242,134720,1,2,0:3:0:0:
315,248,134804,1,2,0:3:0:0:
285,251,134888,1,8,0:3:0:0:
257,243,134972,1,8,0:3:0:0:
228,233,135057,1,4,0:3:0:0:
199,232,135141,1,4,0:3:0:0:
169,237,135226,6,0,B|148:284|148:284|157:345,1,100,4|0,0:0|0:0,0:0:0:0:
58,43,135563,1,4,0:0:0:0:
58,43,135900,6,0,P|102:58|168:57,1,80,4|0,0:0|0:0,0:0:0:0:
296,12,136237,1,0,1:0:0:0:
230,169,136406,1,4,0:3:0:0:
222,151,136490,1,8,0:3:0:0:
218,131,136574,1,4,0:3:0:0:
219,112,136658,1,8,0:3:0:0:
402,105,136827,1,8,0:3:0:0:
415,93,136911,2,0,P|368:87|304:152,1,120,4|8,0:3|0:3,0:0:0:0:
312,221,137248,6,0,L|421:233,1,80,4|0,0:3|0:0,0:0:0:0:
296,12,137585,1,0,1:0:0:0:
219,112,137754,1,4,0:3:0:0:
200,119,137838,1,8,0:3:0:0:
179,121,137922,1,4,0:3:0:0:
158,121,138007,1,8,0:3:0:0:
138,116,138091,1,4,0:3:0:0:
240,300,138259,2,0,P|225:260|149:228,1,120,4|8,0:3|0:3,0:0:0:0:
78,274,138597,6,0,L|69:389,1,80,4|0,0:3|0:0,0:0:0:0:
240,147,138934,1,0,1:0:0:0:
79,177,139102,1,4,0:3:0:0:
58,178,139186,1,8,0:3:0:0:
36,178,139271,2,0,P|12:167|-17:149,1,40,4|8,0:3|0:3,0:0:0:0:
35,60,139439,1,4,0:3:0:0:
49,72,139524,1,8,0:3:0:0:
63,83,139608,5,4,0:3:0:0:
67,63,139692,1,8,0:3:0:0:
70,43,139776,1,4,0:3:0:0:
74,23,139861,1,8,0:3:0:0:
79,3,139945,5,2,0:3:0:0:
195,152,140113,1,0,1:0:0:0:
174,150,140198,1,8,0:3:0:0:
325,84,140366,1,0,1:0:0:0:
307,89,140450,1,8,0:3:0:0:
358,249,140619,1,0,1:0:0:0:
338,246,140703,2,0,L|290:239,2,40,8|4|8,3:3|0:3|3:3,0:0:0:0:
446,288,140956,5,4,0:3:0:0:
455,305,141040,1,8,0:3:0:0:
462,324,141124,1,4,0:3:0:0:
465,344,141209,1,8,0:3:0:0:
466,364,141293,6,0,L|363:377,1,80,4|0,0:3|0:0,0:0:0:0:
182,301,141630,1,0,1:0:0:0:
289,184,141799,1,4,0:3:0:0:
296,201,141883,1,8,0:3:0:0:
300,220,141967,1,4,0:3:0:0:
298,240,142052,1,8,0:3:0:0:
161,145,142220,1,8,0:3:0:0:
152,127,142304,2,0,P|112:177|126:259,1,120,4|8,0:3|0:3,0:0:0:0:
182,301,142641,6,0,P|195:335|192:383,1,80,4|0,0:3|0:0,0:0:0:0:
14,181,142979,1,0,1:0:0:0:
210,209,143147,1,4,0:3:0:0:
229,211,143231,1,8,0:3:0:0:
248,208,143315,1,4,0:3:0:0:
266,200,143399,1,8,0:3:0:0:
281,186,143484,1,4,0:3:0:0:
351,356,143653,2,0,L|364:228,1,120,4|8,0:3|0:3,0:0:0:0:
369,140,143990,5,4,0:3:0:0:
248,208,144158,1,4,0:3:0:0:
364,98,144327,5,4,0:3:0:0:
256,252,144495,1,4,0:3:0:0:
292,26,144664,5,8,0:3:0:0:
378,191,144832,1,8,0:3:0:0:
250,16,145001,5,8,0:3:0:0:
413,220,145170,1,8,0:3:0:0:
146,44,145338,5,0,1:0:0:0:
103,65,145422,1,0,1:0:0:0:
79,107,145507,1,0,1:0:0:0:
79,154,145591,1,0,1:0:0:0:
98,197,145675,1,4,0:3:0:0:
353,133,145844,2,0,P|330:120|285:114,1,55.0000016784668,2|2,0:3|0:3,0:0:0:0:
174,134,146012,5,8,0:3:0:0:
181,152,146097,1,8,0:3:0:0:
188,170,146181,1,4,0:3:0:0:
192,189,146265,1,4,0:3:0:0:
200,207,146349,5,0,1:0:0:0:
246,197,146433,1,0,1:0:0:0:
293,205,146518,1,0,1:0:0:0:
325,240,146602,1,0,1:0:0:0:
335,290,146686,5,4,0:2:0:0:
252,13,155156,6,0,P|289:86|291:189,1,160,2|0,0:0|1:0,0:0:0:0:
129,189,155686,1,2,0:0:0:0:
129,189,155774,1,0,0:0:0:0:
129,189,155862,2,0,P|179:193|226:221,1,80,2|0,0:0|0:0,0:0:0:0:
348,316,156215,2,0,P|412:303|444:284,1,80,0|0,1:0|0:0,0:0:0:0:
429,101,156568,5,2,0:0:0:0:
373,175,156744,1,0,0:0:0:0:
508,149,156921,1,0,1:0:0:0:
355,180,157097,2,0,P|280:173|193:122,1,160,2|0,0:0|0:0,0:0:0:0:
309,278,157627,2,0,P|255:282|205:307,1,80,0|0,1:0|0:0,0:0:0:0:
116,376,157980,5,0,0:0:0:0:
132,192,158156,1,2,0:0:0:0:
11,262,158333,1,0,1:0:0:0:
149,184,158509,1,0,0:0:0:0:
32,91,158686,2,0,L|42:200,1,80,2|0,0:0|0:0,0:0:0:0:
231,290,159038,2,0,L|237:201,1,80,0|0,1:0|0:0,0:0:0:0:
244,53,159391,5,0,0:0:0:0:
328,181,159568,1,2,0:0:0:0:
179,124,159744,1,0,1:0:0:0:
346,187,159921,1,0,0:0:0:0:
166,245,160097,2,0,P|205:218|259:210,1,80,2|0,0:0|0:0,0:0:0:0:
467,228,160450,1,0,1:0:0:0:
393,354,160627,1,0,0:0:0:0:
393,354,160715,1,0,0:0:0:0:
393,354,160803,6,0,L|384:246,1,80
370,22,161156,2,0,L|377:131,1,80,0|0,1:0|0:0,0:0:0:0:
375,101,161421,1,0,0:0:0:0:
375,101,161509,1,2,0:0:0:0:
272,62,161686,1,0,0:0:0:0:
479,49,161862,1,0,1:0:0:0:
254,64,162038,1,0,0:0:0:0:
488,207,162215,5,2,1:0:0:0:
23,173,162568,1,2,1:0:0:0:
23,173,162921,5,0,1:1:0:0:
36,188,163009,1,0,1:1:0:0:
54,198,163097,1,4,0:3:0:0:
74,204,163186,1,4,0:3:0:0:
94,205,163274,1,8,0:3:0:0:
115,207,163362,1,8,0:3:0:0:
161,223,163450,1,0,1:0:0:0:
180,270,163538,1,0,1:0:0:0:
164,323,163627,5,4,0:0:0:0:
95,111,163803,2,0,P|203:94|216:98,1,64.9999970245363,0|0,1:0|0:0,0:0:0:0:
297,124,163980,1,2,0:0:0:0:
297,124,164068,1,0,0:0:0:0:
297,124,164156,1,0,1:0:0:0:
23,173,164333,5,2,0:0:0:0:
252,284,164509,1,0,1:0:0:0:
257,265,164597,1,0,0:0:0:0:
254,245,164686,1,2,0:0:0:0:
241,229,164774,1,0,0:0:0:0:
223,220,164862,1,0,1:0:0:0:
348,357,165038,5,2,0:0:0:0:
379,163,165215,1,0,1:0:0:0:
351,336,165391,2,0,L|362:262,1,64.9999970245363,2|0,0:0|0:0,0:0:0:0:
382,146,165568,1,0,1:0:0:0:
252,284,165744,6,0,B|192:297|192:297|128:260,1,129.999994049073,2|0,0:0|1:0,0:0:0:0:
74,184,166009,1,0,0:0:0:0:
74,184,166097,2,0,P|108:168|139:163,1,64.9999970245363,2|0,0:0|0:0,0:0:0:0:
292,194,166274,1,4,1:2:0:0:
89,10,166450,5,4,0:1:0:0:
134,163,166627,2,0,P|209:148|233:134,1,64.9999970245363,0|0,1:0|0:0,0:0:0:0:
307,75,166803,1,2,0:0:0:0:
307,75,166891,1,0,0:0:0:0:
307,75,166980,1,0,1:0:0:0:
214,254,167156,5,2,0:0:0:0:
446,184,167333,1,0,1:0:0:0:
448,163,167421,1,0,0:0:0:0:
444,143,167509,1,2,0:0:0:0:
436,125,167597,1,0,0:0:0:0:
424,109,167686,1,0,1:0:0:0:
214,254,167862,5,2,0:0:0:0:
348,171,168038,1,0,1:0:0:0:
197,266,168215,2,0,L|191:165,1,64.9999970245363,2|0,0:0|0:0,0:0:0:0:
187,88,168391,1,0,1:0:0:0:
321,282,168568,5,4,1:2:0:0:
333,284,168656,1,0,1:3:0:0:
345,286,168744,1,0,1:0:0:0:
357,288,168833,1,0,1:0:0:0:
369,290,168921,2,8,P|416:273|438:254,1,50,8|0,0:3|0:3,0:3:0:0:
329,142,169097,2,4,L|321:225,1,50,4|0,0:3|0:3,0:3:0:0:
484,348,169274,6,0,B|516:290|516:290|500:194,1,129.999994049073,4|0,0:0|1:0,0:0:0:0:
424,111,169538,1,0,0:0:0:0:
424,111,169627,2,0,L|416:202,1,64.9999970245363,2|0,0:0|0:0,0:0:0:0:
415,273,169803,1,0,1:0:0:0:
139,194,169980,5,2,0:0:0:0:
139,194,170068,1,0,0:0:0:0:
139,194,170156,2,0,B|260:175|213:250|360:210,1,194.999991073609,0|0,1:0|0:0,0:0:0:0:
177,93,170509,1,0,1:0:0:0:
284,320,170686,5,2,0:0:0:0:
348,113,170862,2,0,P|304:118|263:139,1,64.9999970245363,0|0,1:0|0:0,0:0:0:0:
139,194,171038,1,2,0:0:0:0:
139,194,171127,1,0,0:0:0:0:
139,194,171215,1,0,1:0:0:0:
410,222,171391,5,2,0:0:0:0:
285,126,171568,1,0,1:0:0:0:
392,224,171744,2,0,L|313:216,1,64.9999970245363,2|0,0:0|0:0,0:0:0:0:
139,194,171921,1,4,1:2:0:0:
379,354,172097,6,0,B|323:311|323:311|213:318,1,129.999994049073,4|0,0:1|1:0,0:0:0:0:
193,378,172362,1,0,0:0:0:0:
193,378,172450,2,0,P|167:311|174:263,1,64.9999970245363,2|0,0:0|0:0,0:0:0:0:
223,151,172627,1,0,1:0:0:0:
80,271,172803,5,2,0:0:0:0:
295,220,172980,1,0,1:0:0:0:
306,204,173068,1,0,0:0:0:0:
314,186,173156,1,2,0:0:0:0:
319,167,173244,1,0,0:0:0:0:
321,148,173332,1,0,1:0:0:0:
106,16,173509,5,2,0:0:0:0:
211,275,173685,2,0,P|199:239|199:185,1,64.9999970245363,0|0,1:0|0:0,0:0:0:0:
260,73,173862,1,2,0:0:0:0:
260,73,173950,1,0,0:0:0:0:
260,73,174038,6,0,B|154:55|190:125|62:102,1,194.999991073609,0|0,1:0|0:0,0:0:0:0:
0,40,174391,1,0,1:0:0:0:
90,267,174568,2,0,L|97:171,1,64.9999970245363,2|0,0:0|0:0,0:0:0:0:
106,16,174744,1,4,1:2:0:0:
84,359,174921,5,4,0:1:0:0:
226,219,175097,1,0,1:0:0:0:
103,359,175274,2,0,L|200:350,1,64.9999970245363,2|0,0:0|0:0,0:0:0:0:
355,339,175450,1,0,1:0:0:0:
134,206,175627,5,2,0:0:0:0:
265,331,175803,1,0,1:0:0:0:
281,116,175980,2,0,L|274:197,1,64.9999970245363,2|0,0:0|0:0,0:0:0:0:
264,349,176156,1,0,1:0:0:0:
405,157,176333,5,2,0:0:0:0:
183,98,176509,1,0,1:0:0:0:
388,162,176685,2,0,L|300:170,1,64.9999970245363,2|0,0:0|0:0,0:0:0:0:
131,197,176862,1,0,1:0:0:0:
411,258,177038,5,2,0:0:0:0:
385,70,177215,1,0,1:0:0:0:
228,181,177391,1,2,0:0:0:0:
228,181,177480,1,0,0:0:0:0:
228,181,177568,1,0,1:0:0:0:
482,142,177744,5,2,0:0:0:0:
320,169,177921,1,0,1:0:0:0:
431,362,178097,1,2,0:0:0:0:
431,362,178185,1,0,0:0:0:0:
431,362,178274,1,0,1:0:0:0:
385,70,178450,5,2,0:0:0:0:
411,258,178627,1,0,1:0:0:0:
228,181,178803,1,2,0:0:0:0:
228,181,178891,1,0,0:0:0:0:
228,181,178980,1,0,1:0:0:0:
88,317,179156,5,2,0:0:0:0:
294,250,179333,1,0,1:0:0:0:
308,237,179421,1,0,0:0:0:0:
317,220,179509,1,2,0:0:0:0:
323,202,179597,1,0,0:0:0:0:
324,183,179685,1,0,1:0:0:0:
97,223,179862,5,2,0:0:0:0:
97,223,179950,1,0,0:0:0:0:
97,223,180038,1,0,1:0:0:0:
221,377,180215,1,2,0:0:0:0:
221,377,180303,1,0,0:0:0:0:
221,377,180391,1,0,1:0:0:0:
256,108,180568,5,2,0:0:0:0:
202,259,180744,1,0,1:0:0:0:
393,207,180921,1,2,0:0:0:0:
393,207,181009,1,0,0:0:0:0:
393,207,181097,1,0,1:0:0:0:
342,361,181274,5,2,0:0:0:0:
287,208,181450,1,0,1:0:0:0:
477,275,181627,1,2,0:0:0:0:
477,275,181715,1,0,0:0:0:0:
477,275,181803,1,0,1:0:0:0:
202,259,181980,5,0,1:0:0:0:
277,126,182156,1,4,0:3:0:0:
279,140,182244,1,8,0:3:0:0:
280,153,182333,2,0,L|287:214,1,55.0000016784668,4|0,0:3|0:0,0:0:0:0:
265,7,182509,1,0,1:0:0:0:
386,190,182685,5,4,0:3:0:0:
384,203,182774,1,8,0:3:0:0:
382,215,182862,2,0,L|375:283,1,55.0000016784668,4|0,0:3|0:0,0:0:0:0:
347,61,183038,1,0,1:0:0:0:
394,55,183126,1,0,1:0:0:0:
440,70,183214,1,0,1:0:0:0:
477,102,183302,1,0,1:0:0:0:
497,145,183391,5,2,1:2:0:0:
501,165,184328,1,4,0:3:0:0:
273,141,184516,2,0,L|304:143,1,29.9999990844727,0|4,1:0|0:3,0:0:0:0:
303,143,184891,6,0,P|214:153|147:205,1,150,4|0,0:0|0:0,0:0:0:0:
329,284,185266,2,0,B|288:256|288:256|223:251,1,100,0|0,1:0|0:0,0:0:0:0:
145,284,185547,1,0,1:0:0:0:
145,284,185641,2,0,P|100:280|38:238,1,100,2|0,0:0|1:0,0:0:0:0:
6,27,186016,1,0,1:0:0:0:
130,189,186203,1,0,0:0:0:0:
130,189,186297,1,0,0:0:0:0:
130,189,186391,6,0,P|128:98|73:33,1,150,4|0,0:0|0:0,0:0:0:0:
175,104,186766,2,0,L|294:88,1,100,0|0,1:0|0:0,0:0:0:0:
377,94,187047,1,0,1:0:0:0:
377,94,187141,1,2,0:0:0:0:
214,2,187328,1,0,1:0:0:0:
255,247,187516,1,0,1:0:0:0:
255,247,187609,1,0,0:0:0:0:
255,247,187703,2,0,L|239:175,1,50
336,7,187891,6,0,P|376:75|370:135,1,100,4|0,0:0|0:0,0:0:0:0:
418,374,188266,2,0,P|421:327|470:256,1,100,0|0,1:0|0:0,0:0:0:0:
512,193,188547,1,0,1:0:0:0:
512,193,188641,2,0,L|390:180,1,100,2|0,0:0|1:0,0:0:0:0:
512,355,189016,1,0,1:0:0:0:
319,217,189203,1,0,0:0:0:0:
319,217,189297,1,0,0:0:0:0:
319,217,189391,6,0,P|370:271|443:279,1,150,4|0,0:0|0:0,0:0:0:0:
427,88,189766,2,0,B|405:132|405:132|415:208,1,100,0|0,1:0|0:0,0:0:0:0:
507,153,190047,1,0,1:0:0:0:
507,153,190141,1,2,0:0:0:0:
312,114,190328,1,0,1:0:0:0:
454,290,190516,1,0,1:0:0:0:
454,290,190609,1,0,0:0:0:0:
454,290,190703,2,0,L|383:304,1,50
202,330,190891,5,2,0:0:0:0:
324,249,191078,2,4,L|231:244,1,80,4|4,0:3|0:3,0:3:0:0:
28,300,191453,5,2,0:0:0:0:
239,150,191641,1,2,0:0:0:0:
72,210,191828,2,0,L|178:197,1,80,8|8,0:3|0:3,0:3:0:0:
330,278,192203,5,2,0:0:0:0:
150,105,192391,1,2,0:0:0:0:
246,229,192578,2,0,L|236:123,1,80,4|4,0:3|0:3,0:3:0:0:
299,12,192953,5,2,0:0:0:0:
512,202,193141,1,0,1:0:0:0:
488,204,193234,1,0,1:0:0:0:
464,202,193328,1,0,1:0:0:0:
441,196,193422,1,0,1:0:0:0:
419,185,193516,1,0,1:0:0:0:
397,175,193609,1,0,1:0:0:0:
374,171,193703,1,0,1:0:0:0:
350,172,193797,1,0,1:0:0:0:
326,176,193891,5,2,0:0:0:0:
378,347,194078,2,4,L|369:252,1,80,4|4,0:3|0:3,0:3:0:0:
239,89,194453,5,2,0:0:0:0:
258,319,194641,1,2,0:0:0:0:
186,164,194828,2,8,L|194:261,1,80,8|8,0:3|0:3,0:3:0:0:
83,356,195203,5,2,0:0:0:0:
102,126,195391,1,2,0:0:0:0:
30,281,195578,2,8,L|38:184,1,80,8|8,0:3|0:3,0:3:0:0:
224,6,195953,5,2,0:0:0:0:
293,220,196141,1,0,1:0:0:0:
273,234,196234,1,0,1:0:0:0:
250,238,196328,1,0,1:0:0:0:
227,232,196422,1,0,1:0:0:0:
209,216,196516,1,0,1:0:0:0:
200,194,196609,1,0,1:0:0:0:
201,170,196703,1,0,1:0:0:0:
212,150,196797,1,0,1:0:0:0:
232,135,196891,6,0,P|316:128|390:172,1,150,4|0,0:0|0:0,0:0:0:0:
456,49,197266,2,0,B|474:96|474:96|466:176,1,100,0|0,1:0|0:0,0:0:0:0:
435,242,197547,1,0,1:0:0:0:
435,242,197641,2,0,L|553:231,1,100,2|0,0:0|1:0,0:0:0:0:
253,179,198016,1,0,1:0:0:0:
374,340,198203,1,0,0:0:0:0:
374,340,198297,1,0,0:0:0:0:
374,340,198391,6,0,P|358:211|322:169,1,150,4|0,0:0|0:0,0:0:0:0:
278,322,198766,2,0,B|229:329|229:329|153:296,1,100,0|0,1:0|0:0,0:0:0:0:
82,364,199048,1,0,1:0:0:0:
82,364,199141,2,0,L|88:256,1,100,2|0,0:0|1:0,0:0:0:0:
108,16,199516,1,0,1:0:0:0:
108,16,199609,1,0,0:0:0:0:
108,16,199703,2,0,L|98:105,1,50
179,215,199891,6,0,P|150:183|69:164,1,100,4|0,0:0|0:0,0:0:0:0:
283,384,200266,2,0,P|310:311|296:252,1,100,0|0,1:0|0:0,0:0:0:0:
282,198,200547,1,0,1:0:0:0:
282,198,200641,1,2,0:0:0:0:
409,330,200828,1,0,1:0:0:0:
210,316,201016,2,0,L|95:328,1,100,0|0,1:0|0:0,0:0:0:0:
110,326,201297,1,0,0:0:0:0:
110,326,201391,6,0,P|105:231|135:169,1,150,4|0,0:0|0:0,0:0:0:0:
311,114,201766,2,0,P|243:124|194:165,1,100,0|0,1:0|0:0,0:0:0:0:
208,243,202047,1,0,1:0:0:0:
208,243,202141,1,2,0:0:0:0:
125,57,202328,1,0,1:0:0:0:
348,214,202516,2,0,L|282:204,1,50,0|0,1:0|0:0,0:0:0:0:
125,182,202703,1,0,0:0:0:0:
125,182,202797,1,0,0:0:0:0:
125,182,202891,5,2,0:0:0:0:
215,322,203078,2,4,L|206:221,1,80,4|4,0:3|0:3,0:3:0:0:
193,51,203453,5,2,0:0:0:0:
125,182,203641,1,2,0:0:0:0:
296,151,203828,2,8,L|180:141,1,80,8|8,0:3|0:3,0:3:0:0:
28,127,204203,5,2,0:0:0:0:
208,241,204391,1,2,0:0:0:0:
125,89,204578,2,4,L|119:199,1,80,4|4,0:3|0:3,0:3:0:0:
110,356,204953,5,2,0:0:0:0:
379,269,205141,1,0,1:0:0:0:
381,245,205234,1,0,1:0:0:0:
382,221,205328,1,0,1:0:0:0:
378,197,205422,1,0,1:0:0:0:
369,175,205516,1,0,1:0:0:0:
356,154,205609,1,0,1:0:0:0:
348,132,205703,1,0,1:0:0:0:
346,108,205797,1,0,1:0:0:0:
348,84,205891,5,2,0:0:0:0:
173,109,206078,2,4,L|281:94,1,80,4|4,0:3|0:3,0:3:0:0:
461,167,206453,5,2,0:0:0:0:
195,205,206641,1,2,0:0:0:0:
368,180,206828,2,8,L|266:193,1,80,8|8,0:3|0:3,0:3:0:0:
100,313,207203,5,2,0:0:0:0:
366,275,207391,1,2,0:0:0:0:
193,300,207578,2,8,L|272:289,1,80,8|8,0:3|0:3,0:3:0:0:
496,333,207953,5,2,0:0:0:0:
272,85,208141,1,0,1:0:0:0:
250,96,208234,1,0,1:0:0:0:
236,115,208328,1,0,1:0:0:0:
232,138,208422,1,0,1:0:0:0:
237,161,208516,1,0,1:0:0:0:
253,179,208609,1,0,1:0:0:0:
274,190,208703,1,0,1:0:0:0:
298,189,208797,1,0,1:0:0:0:
319,179,208891,5,2,0:0:0:0:
402,101,209078,2,0,L|408:162,1,40,2|0,0:0|0:0,0:0:0:0:
471,268,209266,2,0,P|438:251|377:243,1,80,0|4,1:0|0:3,0:0:0:0:
381,248,209547,1,0,0:0:0:0:
369,258,209641,2,0,P|342:271|310:273,3,40,4|0|0|0,0:3|0:0|0:0|0:0,0:0:0:0:
319,179,210016,5,0,1:0:0:0:
284,355,210203,1,0,0:0:0:0:
268,358,210297,1,0,0:0:0:0:
252,361,210391,6,0,P|220:292|220:231,1,120,2|0,0:0|0:0,0:0:0:0:
225,149,210766,2,0,L|116:162,1,80,0|4,1:0|0:3,0:0:0:0:
129,160,211047,1,0,0:0:0:0:
113,163,211141,2,0,P|81:156|43:134,3,40,4|0|0|0,0:3|0:0|0:0|0:0,0:0:0:0:
97,58,211516,1,4,0:3:0:0:
111,50,211609,1,0,0:0:0:0:
126,45,211703,1,4,0:3:0:0:
141,42,211797,1,0,0:0:0:0:
156,40,211891,5,2,0:0:0:0:
225,149,212078,2,2,L|228:88,1,40,2|0,0:0|0:0,0:0:0:0:
303,30,212266,2,0,P|319:69|319:126,1,80,0|0,1:0|0:0,0:0:0:0:
209,249,212641,5,0,1:0:0:0:
209,249,212766,2,0,L|284:241,1,53.3333333333333,0|0,1:0|1:0,1:0:0:0:
434,186,213016,5,8,0:3:0:0:
434,186,213141,2,4,L|359:178,1,53.3333333333333,4|4,0:3|0:3,0:3:0:0:
131,157,213391,5,8,0:3:0:0:
131,157,214358,2,8,L|132:202,2,26.6666666666667,8|0|0,0:3|0:3|0:3,0:3:0:0:
130,135,214552,6,0,L|127:63,1,59.9999981689454,0|4,1:0|0:3,0:0:0:0:
381,254,214939,1,4,0:0:0:0:
256,192,215036,12,0,224229,0:0:0:0:
