osu file format v14

[General]
AudioFilename: ungrateful.mp3
AudioLeadIn: 0
PreviewTime: 95489
Countdown: 0
SampleSet: Soft
StackLeniency: 0.6
Mode: 0
LetterboxInBreaks: 0
WidescreenStoryboard: 1

[Editor]
Bookmarks: 37244,68211,80651,84112,89472,96920,113886,135563,146602,163538,184797
DistanceSpacing: 1.3
BeatDivisor: 4
GridSize: 4
TimelineZoom: 1.4

[Metadata]
Title:Ungrateful
TitleUnicode:Ungrateful
Artist:Streetlight Manifesto
ArtistUnicode:Streetlight Manifesto
Creator:pishifat
Version:Advanced
Source:
Tags:the hands that thieve catch 22 jazz ska punk
BeatmapID:946729
BeatmapSetID:436968

[Difficulty]
HPDrainRate:5
CircleSize:3
OverallDifficulty:5
ApproachRate:6
SliderMultiplier:1.25
SliderTickRate:1

[Events]
//Background and Video events
0,0,"ungrateful.jpg",0,0
//Break Periods
2,62315,67258
2,146886,154106
//Storyboard Layer 0 (Background)
//Storyboard Layer 1 (Fail)
//Storyboard Layer 2 (Pass)
//Storyboard Layer 3 (Foreground)
//Storyboard Sound Samples

[TimingPoints]
37341,387.096774193548,4,2,1,75,1,0
37341,-100,4,2,1,75,0,0
43534,-100,4,2,1,65,0,0
45953,-100,4,2,1,55,0,0
46244,-100,4,2,1,65,0,0
46340,-100,4,2,1,55,0,0
46534,-100,4,2,1,65,0,0
49050,-100,4,2,1,55,0,0
49340,-100,4,2,1,65,0,0
49437,-100,4,2,1,55,0,0
49728,-100,4,2,1,75,0,0
55921,-100,4,2,1,65,0,0
58340,-100,4,2,1,55,0,0
58631,-100,4,2,1,65,0,0
58728,-100,4,2,1,55,0,0
59018,-100,4,2,1,65,0,0
61340,-100,4,2,1,65,0,0
61437,-100,4,2,1,55,0,0
61728,-100,4,2,1,65,0,0
61824,-100,4,2,1,55,0,0
62115,-100,4,2,1,65,0,0
68308,319.148936170213,4,2,1,75,1,0
68308,-100,4,2,1,75,0,0
78520,315.789473684211,4,2,1,75,1,0
78520,-100,4,2,1,75,0,0
81046,352.941176470588,4,2,1,75,1,0
83869,324.324324324324,4,2,1,75,1,0
83869,-100,4,2,1,75,0,0
86463,342.857142857143,4,2,1,75,1,0
88520,352.941176470588,4,2,1,75,1,0
89225,329.67032967033,4,2,1,75,1,0
89225,-100,4,2,1,75,0,0
90543,319.148936170213,4,2,1,75,1,0
90543,-100,4,2,1,75,0,0
95649,338.983050847458,4,2,1,75,1,0
96496,-100,4,2,1,35,0,0
96665,-111.111111111111,4,2,1,75,0,0
96835,-100,4,2,1,45,0,0
97004,357.142857142857,4,2,1,75,1,1
102718,352.941176470588,4,2,1,75,1,1
109776,349.854227405248,4,2,1,75,1,1
112574,-100,4,2,1,75,0,0
113274,-100,4,2,1,65,0,0
113974,338.983050847458,4,2,1,75,1,0
117024,337.078651685393,4,2,1,75,1,0
117024,-100,4,2,1,75,0,0
119720,-100,4,2,1,65,0,0
120563,-100,4,2,1,55,0,0
120731,-100,4,2,1,65,0,0
121068,-100,4,2,1,65,0,0
122417,-100,4,2,1,65,0,0
125113,-100,4,2,1,65,0,0
135226,-100,4,2,1,65,0,0
135900,-100,4,2,1,60,0,0
143990,-100,4,2,1,56,0,0
144664,-100,4,2,1,62,0,0
145844,-100,4,2,1,55,0,0
146012,-100,4,2,1,55,0,0
146686,352.941176470588,4,2,1,75,1,0
155156,-100,4,2,1,75,0,0
163627,-100,4,2,1,75,0,1
168921,-100,4,2,1,75,0,1
169274,-100,4,2,1,75,0,1
182333,-100,4,2,1,75,0,1
182685,-100,4,2,1,75,0,1
182862,-100,4,2,1,75,0,1
183038,-100,4,2,1,75,0,1
183391,375,4,2,1,75,1,0
184234,-100,4,2,1,35,0,0
184516,-100,4,2,1,75,0,0
184609,-100,4,2,1,35,0,0
184891,-100,4,2,1,75,0,0
190891,-100,4,2,1,65,0,0
193141,-100,4,2,1,65,0,0
193234,-100,4,2,1,55,0,0
193516,-100,4,2,1,65,0,0
193609,-100,4,2,1,55,0,0
193891,-100,4,2,1,65,0,0
196141,-100,4,2,1,65,0,0
196234,-100,4,2,1,55,0,0
196516,-100,4,2,1,65,0,0
196609,-100,4,2,1,55,0,0
196891,-100,4,2,1,75,0,0
202891,-100,4,2,1,65,0,0
205141,-100,4,2,1,65,0,0
205234,-100,4,2,1,55,0,0
205516,-100,4,2,1,65,0,0
205609,-100,4,2,1,55,0,0
205891,-100,4,2,1,65,0,0
208141,-100,4,2,1,65,0,0
208234,-100,4,2,1,55,0,0
208516,-100,4,2,1,65,0,0
208609,-100,4,2,1,55,0,0
208891,-100,4,2,1,75,0,0
213391,387.096774193548,4,2,1,75,1,0
214358,-100,4,2,1,35,0,0
214552,-111.111111111111,4,2,1,75,0,0
214745,-100,4,2,1,35,0,0
214939,-100,4,2,1,75,0,0
215036,-100,4,2,1,5,0,0

[Colours]
Combo1 : 189,173,140
Combo2 : 97,150,214
Combo3 : 215,209,181
Combo4 : 140,166,208

[HitObjects]
46,133,37340,5,4,0:0:0:0:
172,235,37728,2,0,P|225:235|275:206,1,93.75,0|0,1:0|1:0,0:0:0:0:
279,182,38115,2,0,L|284:104,2,62.5,2|0|0,0:0|1:0|1:0,0:0:0:0:
361,321,38889,6,0,P|441:326|489:370,2,125,4|0|2,0:0|1:0|0:0,0:0:0:0:
296,370,39857,1,0,1:0:0:0:
216,355,40050,1,0,1:0:0:0:
211,192,40437,5,4,0:0:0:0:
290,209,40631,1,0,0:0:0:0:
369,226,40824,2,0,P|389:182|394:132,1,93.75,0|0,1:0|1:0,0:0:0:0:
382,98,41211,2,0,L|470:88,2,62.5,2|0|0,0:0|1:0|1:0,0:0:0:0:
235,26,41986,6,0,P|141:31|104:65,2,125,4|0|2,0:0|1:0|0:0,0:0:0:0:
292,82,42953,1,0,1:0:0:0:
248,150,43147,1,0,1:0:0:0:
334,287,43534,5,2,0:0:0:0:
99,219,44115,2,0,L|90:132,1,62.5,2|2,0:0|0:0,0:0:0:0:
335,182,44889,2,0,L|347:93,1,62.5,2|2,0:0|0:0,0:0:0:0:
170,291,45663,1,2,0:0:0:0:
244,323,45857,6,0,P|274:322|316:306,1,62.5,0|0,1:0|1:0,0:0:0:0:
365,258,46244,2,0,P|409:264|439:278,1,62.5,0|0,1:0|1:0,0:0:0:0:
476,334,46631,5,2,0:2:0:0:
260,220,47211,2,0,L|268:138,1,62.5,2|2,0:0|0:0,0:0:0:0:
87,324,47986,2,0,L|79:242,1,62.5,2|2,0:0|0:0,0:0:0:0:
309,347,48760,1,2,0:0:0:0:
353,279,48953,6,0,P|345:217|332:195,1,62.5,0|0,1:0|1:0,0:0:0:0:
293,154,49340,2,0,P|262:146|212:146,1,62.5,0|0,1:0|1:0,0:0:0:0:
157,179,49728,5,4,0:0:0:0:
231,34,50115,2,0,L|331:42,1,93.75,0|0,1:0|1:0,0:0:0:0:
364,46,50502,2,0,P|410:31|443:10,2,62.5,2|0|0,0:0|1:0|1:0,0:0:0:0:
218,117,51276,6,0,P|192:172|209:250,2,125,4|0|2,0:0|1:0|0:0,0:0:0:0:
290,79,52244,1,0,1:0:0:0:
354,128,52437,1,0,1:0:0:0:
328,288,52824,5,4,0:0:0:0:
408,272,53018,1,0,0:0:0:0:
487,257,53211,2,0,L|491:150,1,93.75,0|0,1:0|1:0,0:0:0:0:
493,122,53599,2,0,P|419:107|407:108,1,62.5,2|0,0:0|1:0,0:0:0:0:
354,128,53986,1,0,1:0:0:0:
238,242,54373,6,0,P|179:244|113:202,2,125,4|0|2,0:0|1:0|0:0,0:0:0:0:
314,214,55340,1,0,1:0:0:0:
381,260,55534,1,0,1:0:0:0:
243,346,55921,5,2,0:0:0:0:
57,187,56502,2,0,L|64:106,1,62.5,2|2,0:0|0:0,0:0:0:0:
267,256,57276,2,0,L|262:175,1,62.5,2|2,0:0|0:0,0:0:0:0:
468,325,58050,1,0,0:0:0:0:
500,250,58244,6,0,P|498:211|487:177,1,62.5,0|0,1:0|1:0,0:0:0:0:
435,129,58631,2,0,P|391:117|350:117,1,62.5,0|0,1:0|1:0,0:0:0:0:
298,145,59018,5,2,0:0:0:0:
125,317,59599,2,0,L|45:307,1,62.5,2|2,0:0|0:0,0:0:0:0:
196,105,60373,2,0,L|116:112,1,62.5,2|2,0:0|0:0,0:0:0:0:
254,322,61147,1,2,0:0:0:0:
321,277,61340,6,0,L|325:202,1,62.5,2|0,0:0|1:0,0:0:0:0:
277,147,61728,2,0,L|283:62,1,62.5,0|0,1:0|1:0,0:0:0:0:
333,21,62115,5,4,0:2:0:0:
132,78,68308,5,4,0:0:0:0:
10,143,68627,2,0,P|1:176|4:212,1,62.5,2|0,0:0|1:0,0:0:0:0:
34,278,68946,1,2,0:0:0:0:
104,238,69105,2,0,L|241:228,1,125,0|0,1:0|1:0,0:0:0:0:
296,273,69584,5,2,0:0:0:0:
427,178,69903,2,0,P|437:139|435:93,1,62.5,2|0,0:0|1:0,0:0:0:0:
392,48,70222,1,2,0:0:0:0:
322,91,70382,2,0,L|179:103,1,125,0|0,1:0|1:0,0:0:0:0:
130,55,70861,6,0,P|159:103|146:182,1,125,2|2,0:0|0:0,0:0:0:0:
70,309,71499,2,0,L|2:303,2,62.5,2|0|2,0:0|1:0|0:0,0:0:0:0:
144,342,71978,1,0,1:0:0:0:
220,367,72137,6,0,L|292:359,1,62.5,4|8,0:0|0:3,0:0:0:0:
287,275,72456,2,0,L|216:282,1,62.5,4|0,0:3|1:0,0:0:0:0:
229,195,72776,2,0,L|323:187,2,93.75,8|0|4,0:3|1:0|0:3,0:0:0:0:
148,203,73414,5,4,0:0:0:0:
99,48,73733,2,0,P|148:29|186:26,1,62.5,2|0,0:0|1:0,0:0:0:0:
236,46,74052,1,2,0:0:0:0:
303,91,74212,2,0,B|381:99|381:99|429:69,1,125,0|0,1:0|1:0,0:0:0:0:
488,30,74690,5,2,0:0:0:0:
423,179,75010,2,0,L|431:255,1,62.5,2|0,0:0|1:0,0:0:0:0:
438,322,75329,1,2,0:0:0:0:
371,366,75488,2,0,P|299:333|236:340,1,125,0|0,1:0|1:0,0:0:0:0:
181,369,75967,5,2,0:0:0:0:
78,242,76286,2,0,L|84:164,1,62.5,2|0,0:0|1:0,0:0:0:0:
91,98,76605,2,0,P|28:89|6:93,2,62.5,2|0|2,0:0|1:0|0:0,0:0:0:0:
157,145,77084,1,0,1:0:0:0:
230,180,77244,6,0,L|372:166,1,125,4|8,1:2|0:3,0:0:0:0:
270,28,77882,2,0,L|163:38,2,93.75,0|8|4,1:0|0:3|0:3,0:0:0:0:
351,20,78520,5,4,0:0:0:0:
292,173,78835,2,0,L|203:183,1,62.5,2|0,0:0|1:0,0:0:0:0:
156,143,79151,2,0,P|88:136|21:179,1,125,2|2,0:0|0:0,0:0:0:0:
8,236,79625,6,0,L|20:363,1,125,0|0,1:0|1:0,0:0:0:0:
97,383,80098,1,2,0:0:0:0:
216,263,80414,2,0,L|222:180,2,62.5,2|0|2,0:0|1:0|0:0,0:0:0:0:
341,373,81046,5,4,0:0:0:0:
410,226,81398,2,0,L|397:115,1,93.75,0|0,1:0|1:0,0:0:0:0:
393,92,81751,2,0,L|475:83,2,62.5,2|0|0,0:0|0:0|1:0,0:0:0:0:
241,32,82457,5,2,0:0:0:0:
162,174,82810,2,0,P|110:173|56:140,1,93.75,0|0,1:0|1:0,0:0:0:0:
52,119,83163,2,0,L|48:53,1,62.5,2|8,0:0|0:3,0:0:0:0:
128,32,83516,2,0,L|133:115,1,62.5,0|0,1:0|1:0,0:0:0:0:
162,174,83869,5,4,0:0:0:0:
302,92,84193,2,0,P|336:93|388:109,1,62.5,2|0,0:0|1:0,0:0:0:0:
424,154,84517,2,0,L|432:302,1,125,2|2,0:0|0:0,0:0:0:0:
392,350,85004,1,0,1:0:0:0:
321,309,85166,5,2,0:0:0:0:
168,365,85490,2,0,L|87:358,1,62.5,2|0,0:0|1:0,0:0:0:0:
50,300,85814,2,0,P|66:210|93:173,1,125,2|2,0:0|0:0,0:0:0:0:
154,142,86301,1,0,1:0:0:0:
227,179,86463,5,4,0:0:0:0:
337,60,86805,2,0,L|445:48,1,93.75,0|0,1:0|1:0,0:0:0:0:
470,43,87148,2,0,L|539:35,2,62.5,2|0|0,0:0|0:0|1:0,0:0:0:0:
358,162,87834,5,2,0:0:0:0:
407,316,88177,2,0,P|325:304|290:313,1,93.75,0|0,1:0|1:0,0:0:0:0:
281,326,88520,2,0,P|207:340|192:339,1,62.5,0|8,1:0|0:3,0:0:0:0:
141,322,88872,2,0,P|98:281|87:261,1,62.5,4|4,0:3|0:3,0:0:0:0:
80,197,89225,5,4,0:0:0:0:
229,133,89554,2,0,L|294:138,1,62.5,2|0,0:0|1:0,0:0:0:0:
325,56,89884,2,0,L|200:47,1,125,2|2,0:0|0:0,0:0:0:0:
122,69,90378,1,0,1:0:0:0:
44,101,90543,5,2,0:0:0:0:
179,189,90862,1,2,0:0:0:0:
36,266,91181,1,2,0:0:0:0:
169,358,91500,1,2,0:0:0:0:
312,282,91819,5,2,0:0:0:0:
179,189,92138,2,0,L|185:111,1,62.5,2|0,0:0|1:0,0:0:0:0:
208,49,92457,2,0,P|285:15|336:21,1,125,2|2,0:0|0:0,0:0:0:0:
398,50,92936,1,0,1:0:0:0:
462,100,93096,5,2,0:0:0:0:
313,165,93415,1,2,0:0:0:0:
440,265,93734,1,2,0:0:0:0:
294,336,94053,1,2,0:0:0:0:
166,235,94372,5,2,0:0:0:0:
313,165,94691,2,0,L|321:80,1,62.5,2|0,0:0|1:0,0:0:0:0:
325,21,95011,1,2,0:0:0:0:
179,73,95330,1,2,0:0:0:0:
172,153,95489,1,0,1:0:0:0:
166,235,95649,5,0,1:0:0:0:
166,235,97004,5,4,0:0:0:0:
321,283,97361,2,0,L|421:268,1,93.75,0|0,1:0|1:0,0:0:0:0:
453,260,97718,2,0,P|467:197|465:174,2,62.5,2|0|0,0:0|0:0|1:0,0:0:0:0:
333,370,98432,6,0,L|263:379,1,62.5,4|0,0:0|0:0,0:0:0:0:
201,335,98789,2,0,L|129:344,1,62.5,0|0,1:0|0:0,0:0:0:0:
62,314,99146,1,2,0:0:0:0:
176,198,99504,1,0,1:0:0:0:
20,151,99861,5,4,0:0:0:0:
143,45,100218,2,0,L|247:32,1,93.75,0|0,1:0|1:0,0:0:0:0:
276,29,100575,2,0,P|301:80|304:104,1,62.5,2|0,0:0|0:0,0:0:0:0:
284,164,100932,1,0,1:0:0:0:
426,242,101289,6,0,L|430:172,2,62.5,4|0|0,0:0|0:0|1:0,0:0:0:0:
420,323,101825,1,0,0:0:0:0:
359,377,102004,2,0,P|296:361|275:360,1,62.5,0|0,1:0|1:0,0:0:0:0:
236,308,102361,2,0,P|182:320|152:339,1,62.5,8|4,3:3|0:3,0:0:0:0:
104,282,102718,5,4,0:0:0:0:
257,230,103070,2,0,L|265:131,1,93.75,0|0,1:0|1:0,0:0:0:0:
266,95,103423,2,0,P|196:80|180:82,2,62.5,2|0|0,0:0|0:0|1:0,0:0:0:0:
383,207,104129,6,0,L|393:359,1,125,4|0,0:0|1:0,0:0:0:0:
315,362,104659,1,0,0:0:0:0:
253,308,104835,1,2,0:0:0:0:
177,339,105012,1,0,0:0:0:0:
112,289,105188,2,0,L|105:198,1,62.5,0|0,1:0|0:0,0:0:0:0:
98,145,105541,5,4,0:0:0:0:
206,24,105894,1,0,1:0:0:0:
276,64,106070,2,0,L|402:76,1,125,0|0,0:0|0:0,0:0:0:0:
481,84,106600,1,0,1:0:0:0:
341,167,106953,5,2,0:0:0:0:
402,219,107129,2,0,L|473:224,2,62.5,4|0|0,1:2|0:0|0:0,0:0:0:0:
383,299,107659,2,0,L|464:306,2,62.5,4|0|0,1:2|0:0|0:0,0:0:0:0:
305,324,108188,1,0,1:0:0:0:
226,347,108365,5,4,0:0:0:0:
83,269,108718,2,0,L|76:189,1,62.5,0|0,1:0|0:0,0:0:0:0:
163,236,109070,2,0,L|157:164,1,62.5,2|0,0:0|0:0,0:0:0:0:
244,211,109423,2,0,L|237:133,1,62.5,0|0,1:0|0:0,0:0:0:0:
235,66,109776,5,4,0:0:0:0:
351,179,110125,2,0,L|344:259,1,62.5,0|0,1:0|0:0,0:0:0:0:
431,212,110475,2,0,L|425:284,1,62.5,2|0,0:0|0:0,0:0:0:0:
512,237,110825,2,0,L|505:315,1,62.5,0|0,1:0|0:0,0:0:0:0:
498,380,111175,5,4,0:0:0:0:
343,330,111525,2,0,L|237:319,1,93.75,0|0,1:0|1:0,0:0:0:0:
209,315,111875,2,0,L|147:309,2,62.5,2|0|0,0:0|0:0|1:0,0:0:0:0:
356,246,112574,5,2,1:0:0:0:
194,231,112924,1,2,1:0:0:0:
290,100,113274,2,0,L|296:35,2,62.5,0|8|8,1:0|0:3|0:3,0:0:0:0:
282,181,113799,1,4,0:3:0:0:
273,264,113974,5,4,0:0:0:0:
273,264,115329,1,4,0:0:0:0:
273,264,117024,5,4,0:0:0:0:
137,173,117361,2,0,L|130:88,1,62.5,0|0,1:0|1:0,0:0:0:0:
126,29,117698,1,4,0:0:0:0:
10,143,118035,2,0,L|17:228,1,62.5,0|0,1:0|1:0,0:0:0:0:
21,285,118372,1,4,0:0:0:0:
175,334,118709,2,0,P|225:317|261:315,1,62.5,0|0,1:0|1:0,0:0:0:0:
307,352,119046,2,0,P|365:359|392:354,1,62.5,4|0,0:0|1:0,0:0:0:0:
441,323,119383,2,0,P|464:277|468:245,1,62.5,4|0,0:0|1:0,0:0:0:0:
463,185,119720,5,4,0:0:0:0:
463,185,120563,1,0,1:0:0:0:
383,198,120731,2,0,L|299:210,1,62.5,0|0,1:0|1:0,0:0:0:0:
241,223,121068,5,0,1:0:0:0:
241,223,122080,2,0,L|245:146,1,62.5,0|0,1:0|1:0,0:0:0:0:
249,79,122417,5,4,0:0:0:0:
123,181,122754,2,0,P|89:175|43:148,1,62.5,0|0,1:0|1:0,0:0:0:0:
17,96,123091,1,4,0:0:0:0:
0,272,123428,2,0,P|28:259|83:253,1,62.5,0|0,1:0|1:0,0:0:0:0:
135,280,123765,6,0,P|186:318|267:310,1,125,4|0,0:0|1:0,0:0:0:0:
317,280,124271,1,8,0:3:0:0:
388,318,124439,2,0,L|473:323,1,62.5,0|8,1:0|0:3,0:0:0:0:
451,240,124776,2,0,L|373:236,1,62.5,0|0,1:0|1:0,0:0:0:0:
317,197,125113,6,0,B|286:140|286:140|298:67,2,125,4|2|2,0:0|0:0|0:0,0:0:0:0:
388,236,125956,2,0,L|451:240,2,62.5,0|2|0,1:0|0:0|1:0,0:0:0:0:
319,279,126462,5,2,0:0:0:0:
251,324,126630,2,0,L|113:318,1,125,0|0,1:0|1:0,0:0:0:0:
46,303,127136,2,0,L|40:223,1,62.5,2|0,0:0|1:0,0:0:0:0:
35,159,127473,1,2,0:0:0:0:
178,235,127810,6,0,B|210:182|210:182|201:100,1,125,2|2,0:0|0:0,0:0:0:0:
236,44,128316,1,0,1:0:0:0:
314,24,128484,2,0,B|282:77|282:77|288:139,1,125,2|2,0:0|0:0,0:0:0:0:
300,220,128990,1,0,1:0:0:0:
314,299,129158,6,0,L|441:286,1,125,2|2,0:0|0:0,0:0:0:0:
501,234,129664,1,0,1:0:0:0:
425,203,129832,1,2,0:0:0:0:
502,59,130170,1,2,0:0:0:0:
425,31,130338,1,4,1:2:0:0:
345,11,130507,6,0,B|275:20,2,62.5,4|0|2,0:1|1:0|0:0,0:0:0:0:
409,160,131181,2,0,P|368:153|335:138,1,62.5,0|0,0:0|1:0,0:0:0:0:
279,103,131518,2,0,P|250:106|204:126,1,62.5,2|0,0:0|1:0,0:0:0:0:
158,172,131855,6,0,P|150:205|151:252,2,62.5,2|0|2,0:0|1:0|0:0,0:0:0:0:
44,55,132529,2,0,L|53:138,1,62.5,2|0,0:0|1:0,0:0:0:0:
7,186,132866,2,0,L|15:264,1,62.5,2|0,0:0|1:0,0:0:0:0:
22,329,133203,5,2,0:0:0:0:
148,233,133540,2,0,P|185:224|217:225,1,62.5,2|0,0:0|1:0,0:0:0:0:
286,250,133877,2,0,L|295:328,2,62.5,2|0|2,0:0|1:0|0:0,0:0:0:0:
269,87,134552,6,0,P|297:44|323:28,1,62.5,4|2,0:0|0:3,0:0:0:0:
383,14,134889,2,0,P|440:19|467:32,1,62.5,8|4,0:3|0:3,0:0:0:0:
503,76,135226,1,4,0:0:0:0:
396,198,135563,1,4,0:0:0:0:
441,353,135900,6,0,P|375:355|300:322,1,125,4|0,0:0|1:0,0:0:0:0:
255,285,136406,2,0,P|185:283|115:318,1,125,4|0,0:3|0:0,0:0:0:0:
83,365,136911,1,4,0:3:0:0:
17,216,137248,6,0,L|25:62,1,125,4|0,0:3|1:0,0:0:0:0:
105,70,137754,2,0,L|99:223,1,125,4|4,0:3|0:3,0:0:0:0:
147,263,138259,1,4,0:3:0:0:
251,138,138597,6,0,P|323:109|385:117,1,125,4|0,0:3|1:0,0:0:0:0:
436,156,139102,2,0,P|452:231|433:291,1,125,4|4,0:3|0:3,0:0:0:0:
377,327,139608,1,4,0:3:0:0:
243,234,139945,5,2,0:3:0:0:
173,274,140113,2,0,L|178:372,2,93.75,0|0|0,1:0|1:0|1:0,0:0:0:0:
163,111,140956,1,4,0:3:0:0:
308,182,141293,6,0,L|437:171,1,125,4|0,0:3|1:0,0:0:0:0:
434,89,141799,2,0,L|309:99,1,125,4|0,0:3|0:0,0:0:0:0:
234,67,142304,1,4,0:3:0:0:
108,170,142641,6,0,P|77:244|94:312,1,125,4|0,0:3|1:0,0:0:0:0:
149,332,143147,2,0,P|208:298|278:300,1,125,4|4,0:3|0:3,0:0:0:0:
338,327,143653,1,4,0:3:0:0:
255,187,143990,5,4,0:3:0:0:
403,251,144327,1,4,0:3:0:0:
465,100,144664,1,8,0:3:0:0:
316,33,145001,1,8,0:3:0:0:
183,127,145338,6,0,L|96:117,1,62.5,0|0,1:0|1:0,0:0:0:0:
40,108,145675,1,4,0:3:0:0:
174,17,146012,1,8,0:3:0:0:
280,139,146349,2,0,L|346:131,1,62.5,0|0,1:0|1:0,0:0:0:0:
421,118,146686,5,4,0:2:0:0:
51,120,155156,6,0,P|118:126|186:95,1,125,2|0,0:0|1:0,0:0:0:0:
237,58,155686,1,2,0:0:0:0:
316,75,155862,1,2,0:0:0:0:
215,203,156215,2,0,L|208:283,1,62.5,0|0,1:0|0:0,0:0:0:0:
281,304,156568,6,0,P|313:295|364:294,2,62.5,2|0|0,0:0|0:0|1:0,0:0:0:0:
212,348,157097,2,0,P|163:350|88:313,1,125,2|0,0:0|0:0,0:0:0:0:
53,248,157627,1,0,1:0:0:0:
150,118,157980,5,0,0:0:0:0:
226,143,158156,2,0,L|233:223,2,62.5,2|0|0,0:0|1:0|0:0,0:0:0:0:
266,71,158686,2,0,P|296:55|349:49,1,62.5,2|0,0:0|0:0,0:0:0:0:
401,70,159038,1,0,1:0:0:0:
343,222,159391,5,0,0:0:0:0:
409,268,159568,2,0,L|403:343,2,62.5,2|0|0,0:0|1:0|0:0,0:0:0:0:
455,201,160097,2,0,P|449:150|436:111,1,62.5,2|0,0:0|0:0,0:0:0:0:
401,70,160450,1,0,1:0:0:0:
276,174,160803,6,0,L|142:181,2,125,0|0|2,0:0|1:0|0:0,0:0:0:0:
357,168,161686,1,0,0:0:0:0:
437,163,161862,1,0,1:0:0:0:
301,254,162215,5,2,1:1:0:0:
289,91,162568,1,2,1:1:0:0:
437,163,162921,2,0,L|499:157,2,62.5,0|4|8,1:1|0:3|0:3,0:0:0:0:
357,168,163450,1,0,1:0:0:0:
276,174,163627,6,0,B|206:177|206:177|152:141,1,125,4|2,0:0|0:0,0:0:0:0:
121,75,164156,1,0,1:0:0:0:
43,100,164333,2,0,B|11:151|11:151|24:227,1,125,2|2,0:0|0:0,0:0:0:0:
137,329,165038,6,0,P|209:315|223:317,1,62.5,2|0,0:0|1:0,0:0:0:0:
262,265,165391,2,0,P|309:281|337:302,1,62.5,2|0,0:0|1:0,0:0:0:0:
365,355,165744,2,0,L|379:204,1,125,2|2,0:0|0:0,0:0:0:0:
384,148,166274,1,4,1:2:0:0:
393,67,166450,5,4,0:1:0:0:
260,160,166803,2,0,L|173:167,1,62.5,2|0,0:0|1:0,0:0:0:0:
119,143,167156,2,0,P|89:71|101:5,1,125,2|2,0:0|0:0,0:0:0:0:
46,181,167862,6,0,P|16:166|-14:157,2,62.5,2|0|2,0:0|1:0|0:0,0:0:0:0:
94,250,168391,1,0,1:0:0:0:
136,319,168568,2,0,L|211:322,1,62.5,4|0,1:2|1:0,0:0:0:0:
271,285,168921,2,0,L|342:288,1,62.5,8|4,0:3|0:3,0:0:0:0:
410,261,169274,6,0,B|445:211|445:211|436:134,2,125,4|2|2,0:0|0:0|0:0,0:0:0:0:
333,287,170156,2,0,L|201:282,1,125,0|0,1:0|1:0,0:0:0:0:
128,263,170686,6,0,B|97:207|97:207|103:136,1,125,2|2,0:0|0:0,0:0:0:0:
149,79,171215,1,0,1:0:0:0:
221,115,171391,2,0,P|253:124|285:127,1,62.5,2|0,0:0|1:0,0:0:0:0:
346,76,171744,2,0,P|398:61|434:60,1,62.5,2|4,0:0|1:2,0:0:0:0:
475,102,172097,6,0,L|484:242,1,125,4|2,0:1|0:0,0:0:0:0:
492,308,172627,1,0,1:0:0:0:
435,365,172803,2,0,B|378:334|378:334|292:346,1,125,2|2,0:0|0:0,0:0:0:0:
238,359,173333,1,0,1:0:0:0:
174,309,173509,6,0,L|179:228,2,62.5,2|0|2,0:0|1:0|0:0,0:0:0:0:
106,355,174038,2,0,P|77:297|70:227,1,125,0|0,1:0|1:0,0:0:0:0:
103,163,174568,1,2,0:0:0:0:
263,186,174921,5,4,0:1:0:0:
309,119,175097,2,0,L|315:51,2,62.5,0|2|0,1:0|0:0|1:0,0:0:0:0:
344,192,175627,2,0,P|395:207|433:205,1,62.5,2|0,0:0|1:0,0:0:0:0:
480,179,175980,1,2,0:0:0:0:
370,299,176333,5,2,0:0:0:0:
422,361,176509,2,0,L|490:367,2,62.5,0|2|0,1:0|0:0|1:0,0:0:0:0:
342,376,177038,2,0,L|260:382,1,62.5,2|0,0:0|1:0,0:0:0:0:
203,350,177391,1,2,0:0:0:0:
279,206,177744,5,2,0:0:0:0:
130,139,178097,2,0,B|70:149|70:149|13:201,2,125,2|2|2,0:0|0:0|0:0,0:0:0:0:
211,132,178980,1,0,1:0:0:0:
291,123,179156,6,0,P|318:67|308:-7,1,125,2|2,0:0|0:0,0:0:0:0:
424,125,179862,2,0,P|375:162|362:233,1,125,2|2,0:0|0:0,0:0:0:0:
375,301,180391,1,0,1:0:0:0:
434,357,180568,6,0,L|295:350,1,125,2|2,0:0|0:0,0:0:0:0:
244,201,181274,2,0,L|119:211,1,125,2|2,0:0|0:0,0:0:0:0:
38,199,181803,1,0,1:0:0:0:
0,126,181980,5,0,1:0:0:0:
161,108,182333,1,4,0:3:0:0:
322,91,182685,1,4,0:3:0:0:
483,75,183038,2,0,L|486:137,1,62.5,0|0,1:0|1:0,0:0:0:0:
493,217,183391,5,2,1:2:0:0:
493,217,184891,5,4,0:0:0:0:
347,143,185266,2,0,L|245:156,1,93.75,0|0,1:0|1:0,0:0:0:0:
214,162,185641,2,0,P|201:212|202:245,2,62.5,2|0|0,0:0|1:0|1:0,0:0:0:0:
113,34,186391,6,0,P|32:35|-19:0,2,125,4|0|2,0:0|1:0|0:0,0:0:0:0:
189,6,187328,1,0,1:0:0:0:
268,24,187516,1,0,1:0:0:0:
301,192,187891,5,4,0:0:0:0:
220,166,188078,1,0,0:0:0:0:
151,209,188266,2,0,P|131:253|126:303,1,93.75,0|0,1:0|1:0,0:0:0:0:
134,337,188641,2,0,L|46:347,2,62.5,2|0|0,0:0|1:0|1:0,0:0:0:0:
292,373,189391,6,0,P|386:368|423:334,2,125,4|0|2,0:0|1:0|0:0,0:0:0:0:
224,326,190328,1,0,1:0:0:0:
237,245,190516,1,0,1:0:0:0:
165,99,190891,5,2,0:0:0:0:
403,49,191453,2,0,L|412:136,1,62.5,2|2,0:0|0:0,0:0:0:0:
165,99,192203,2,0,L|153:188,1,62.5,2|2,0:0|0:0,0:0:0:0:
409,111,192953,1,2,0:0:0:0:
348,165,193141,6,0,P|331:200|327:238,1,62.5,0|0,1:0|1:0,0:0:0:0:
315,303,193516,2,0,P|279:315|239:313,1,62.5,0|0,1:0|1:0,0:0:0:0:
177,288,193891,5,2,0:0:0:0:
300,77,194453,2,0,L|293:1,1,62.5,2|2,0:0|0:0,0:0:0:0:
482,170,195203,2,0,L|488:106,1,62.5,2|2,0:0|0:0,0:0:0:0:
246,140,195953,1,2,0:0:0:0:
293,208,196141,6,0,L|287:292,1,62.5,0|0,1:0|1:0,0:0:0:0:
232,328,196516,2,0,L|159:319,1,62.5,0|0,1:0|1:0,0:0:0:0:
91,308,196891,5,4,0:0:0:0:
121,148,197266,2,0,P|174:123|221:129,1,93.75,0|0,1:0|1:0,0:0:0:0:
246,140,197641,2,0,L|252:55,2,62.5
324,276,198391,6,0,P|395:282|453:236,2,125,4|0|2,0:0|1:0|0:0,0:0:0:0:
260,225,199328,1,0,1:0:0:0:
180,241,199516,1,0,1:0:0:0:
185,78,199891,5,4,0:0:0:0:
105,94,200078,1,0,0:0:0:0:
26,114,200266,2,0,L|22:221,1,93.75,0|0,1:0|1:0,0:0:0:0:
39,244,200641,2,0,P|113:259|125:258,1,62.5,2|0,0:0|1:0,0:0:0:0:
180,241,201016,1,0,1:0:0:0:
268,105,201391,6,0,P|327:103|393:145,2,125,4|0|2,0:0|1:0|0:0,0:0:0:0:
207,159,202328,1,0,1:0:0:0:
129,133,202516,1,0,1:0:0:0:
251,25,202891,5,2,0:0:0:0:
398,216,203453,2,0,L|391:297,1,62.5,2|2,0:0|0:0,0:0:0:0:
236,90,204203,2,0,L|241:171,1,62.5,2|2,0:0|0:0,0:0:0:0:
46,4,204953,1,2,0:0:0:0:
4,74,205141,6,0,P|6:113|17:147,1,62.5,0|0,1:0|1:0,0:0:0:0:
58,202,205516,2,0,P|102:214|143:214,1,62.5,0|0,1:0|1:0,0:0:0:0:
197,193,205891,5,2,0:0:0:0:
390,44,206453,2,0,L|470:54,1,62.5,2|2,0:0|0:0,0:0:0:0:
318,255,207203,2,0,L|398:248,1,62.5,2|2,0:0|0:0,0:0:0:0:
251,42,207953,1,2,0:0:0:0:
188,94,208141,6,0,L|184:169,1,62.5,0|0,1:0|1:0,0:0:0:0:
226,226,208516,2,0,L|220:311,1,62.5,0|0,1:0|1:0,0:0:0:0:
178,357,208891,5,2,0:0:0:0:
24,304,209266,2,0,P|15:277|12:228,1,62.5,0|4,1:0|0:3,0:0:0:0:
75,193,209641,2,0,P|88:106|85:56,1,125,4|0,0:3|1:0,0:0:0:0:
156,27,210203,1,0,0:0:0:0:
209,88,210391,5,2,0:0:0:0:
364,41,210766,2,0,L|431:34,1,62.5,0|4,1:0|0:3,0:0:0:0:
436,115,211141,2,0,L|373:121,1,62.5,4|0,0:3|0:0,0:0:0:0:
383,202,211516,2,0,L|450:195,1,62.5,4|4,0:3|0:3,0:0:0:0:
422,282,211891,5,2,0:0:0:0:
304,169,212266,1,0,1:0:0:0:
265,326,212641,2,0,P|220:344|170:344,1,83.3333333333333,0|0,1:0|1:0,0:0:0:0:
134,329,213016,2,0,P|99:298|83:249,1,83.3333333333333,8|4,0:3|0:3,0:0:0:0:
85,212,213391,5,8,0:3:0:0:
256,192,214939,5,4,0:0:0:0:
256,192,215036,12,0,224229,0:0:0:0:
