osu file format v14

[General]
AudioFilename: blonde.mp3
AudioLeadIn: 0
PreviewTime: 30870
Countdown: 1
SampleSet: Soft
StackLeniency: 0.4
Mode: 0
LetterboxInBreaks: 0
WidescreenStoryboard: 0

[Editor]
DistanceSpacing: 1.6
BeatDivisor: 4
GridSize: 4
TimelineZoom: 1.7

[Metadata]
Title:The Blonde Lead The Blind
TitleUnicode:The Blonde Lead The Blind
Artist:Streetlight Manifesto
ArtistUnicode:Streetlight Manifesto
Creator:pishifat
Version:Extra
Source:
Tags:somewhere in the inbetween jazz ska
BeatmapID:824359
BeatmapSetID:376545

[Difficulty]
HPDrainRate:6
CircleSize:4.2
OverallDifficulty:8.2
ApproachRate:9.4
SliderMultiplier:1.6
SliderTickRate:1

[Events]
//Background and Video events
0,0,"el beacho.jpg",0,0
//Break Periods
2,31396,33307
2,38159,40880
//Storyboard Layer 0 (Background)
//Storyboard Layer 1 (Fail)
//Storyboard Layer 2 (Pass)
//Storyboard Layer 3 (Foreground)
//Storyboard Sound Samples

[TimingPoints]
84,217.391304347826,4,2,1,60,1,0
84,-166.666666666667,4,2,1,60,0,0
1497,-166.666666666667,4,2,1,40,0,0
1605,-166.666666666667,4,2,1,60,0,0
2692,230.769230769231,4,2,1,60,1,0
2692,-166.666666666667,4,2,1,60,0,0
3563,217.391304347826,4,2,1,80,1,0
6606,-100,4,2,1,40,0,0
6823,-100,4,2,1,50,0,0
7041,-100,4,2,1,70,0,0
8780,-117.64705882353,4,2,1,70,0,0
9541,217.391304347826,4,2,1,50,1,0
9541,-117.647058823529,4,2,1,50,0,0
9867,-117.647058823529,4,2,1,70,0,0
10410,-111.111111111111,4,2,1,80,0,0
10627,-100,4,2,1,80,0,0
15193,-100,4,2,1,50,0,0
15844,-128.205128205128,4,2,1,80,0,0
17366,-111.111111111111,4,2,1,80,0,0
17583,-100,4,2,1,80,0,0
22583,-333.333333333333,4,2,1,70,0,0
24323,-100,4,2,1,80,0,0
27366,230.769230769231,4,2,1,40,1,0
27596,-100,4,2,1,50,0,0
27827,217.391304347826,4,2,1,70,1,0
29131,-250,4,2,1,70,0,0
29566,-117.647058823529,4,2,1,70,0,0
30327,217.391304347826,4,2,1,70,1,0
30327,-117.647058823529,4,2,1,70,0,0
30544,-117.647058823529,4,2,1,50,0,0
30653,-117.647058823529,4,2,1,70,0,0
30761,-125,4,2,1,60,0,0
30979,-133.333333333333,4,2,1,60,0,0
33847,200,4,2,1,80,1,0
33847,-166.666666666667,4,2,1,60,0,0
34247,217.391304347826,4,2,1,60,1,0
34681,217.391304347826,4,2,1,80,1,0
37507,-100,4,2,1,40,0,0
37561,-100,4,2,1,50,0,0
37615,-100,4,2,1,60,0,0
37724,-100,4,2,1,80,0,0
40767,-166.666666666667,4,2,1,60,0,0
41637,-100,4,2,1,80,0,0
48159,-142.857142857143,4,2,1,80,0,0
48594,-133.333333333333,4,2,1,67,0,0
52072,-100,4,2,1,80,0,0
55550,-133.333333333333,4,2,1,65,0,0
59028,-100,4,2,1,80,0,0
62507,-133.333333333333,4,2,1,65,0,0
74680,226.415094339623,4,2,1,80,1,0
76457,217.391304347826,4,2,1,80,1,0
82109,-111.111111111111,4,2,1,80,0,0
83413,-100,4,2,1,80,0,0
88413,-111.111111111111,4,2,1,80,0,0
88630,226.415094339623,4,2,1,45,1,0
89082,-166.666666666667,4,2,1,60,0,0
89535,217.391304347826,4,2,1,80,1,0
89969,-90.9090909090909,4,2,1,100,0,0
90404,-100,4,2,1,80,0,0
93448,-100,4,2,1,35,0,0
93665,-100,4,2,1,50,0,0
93882,-100,4,2,1,70,0,0
95621,-117.647058823529,4,2,1,80,0,0
96382,217.391304347826,4,2,1,40,1,0
97251,-100,4,2,1,80,0,0
100729,-125,4,2,1,70,0,0
103338,-125,4,2,1,40,0,0
103773,-125,4,2,1,65,0,0
104208,-100,4,2,1,80,0,0
107686,-166.666666666667,4,2,1,65,0,0
109425,-166.666666666667,4,2,1,65,0,0
109479,-166.666666666667,4,2,1,35,0,0
109860,-166.666666666667,4,2,1,65,0,0
109914,-166.666666666667,4,2,1,35,0,0
110295,-166.666666666667,4,2,1,65,0,0
110349,-166.666666666667,4,2,1,35,0,0
110729,-166.666666666667,4,2,1,65,0,0
110784,-166.666666666667,4,2,1,35,0,0
111164,-100,4,2,1,80,0,0
118121,-100,4,2,1,70,0,0
121599,434.782608695652,4,2,1,70,1,0
121599,-83.3333333333334,4,2,1,70,0,0
125077,500,4,2,1,65,1,0
125077,-90.9090909090909,4,2,1,65,0,0
126077,600,4,2,1,65,1,0
126677,645.161290322581,4,2,1,65,1,0
127322,750,4,2,1,65,1,0
128072,833.333333333333,4,2,1,65,1,0
128905,967.741935483871,4,2,1,65,1,0
129872,1100.91743119266,4,2,1,65,1,0

[Colours]
Combo1 : 112,206,211
Combo2 : 149,176,223
Combo3 : 183,172,147

[HitObjects]
255,165,84,5,4,0:3:0:0:
263,178,301,2,0,P|315:197|361:187,1,95.9999970703126,8|0,0:3|0:3,0:3:0:0:
442,184,627,2,0,P|473:225|469:281,1,95.9999970703126,8|0,0:3|0:3,0:3:0:0:
396,313,953,6,0,P|360:290|304:287,1,95.9999970703126,8|0,0:3|0:3,0:3:0:0:
243,346,1279,2,0,P|194:366|132:356,1,95.9999970703126,8|8,0:3|0:3,0:3:0:0:
75,313,1605,1,4,0:3:0:0:
67,301,1823,6,0,L|76:187,1,95.9999970703126,2|0,0:3|0:0,0:0:0:0:
106,116,2149,2,0,L|97:52,2,47.9999985351563,2|8|2,0:3|0:3|0:3,0:0:0:0:
167,184,2475,2,0,P|198:194|228:198,1,47.9999985351563,2|8,0:3|0:3,0:0:0:0:
303,185,2692,6,0,L|352:179,2,31.9999990234375,2|2|2,0:3|0:3|0:3,0:3:0:0:
317,263,2922,2,0,L|366:258,2,31.9999990234375,2|2|2,0:3|0:3|0:3,0:3:0:0:
331,338,3153,1,8,0:0:0:0:
331,338,3563,6,0,L|447:351,1,80,4|0,0:0|0:0,0:0:0:0:
270,177,3780,1,8,0:0:0:0:
193,197,3889,1,0,0:0:0:0:
248,250,3997,1,2,0:0:0:0:
281,165,4106,2,0,P|275:124|233:75,1,80,2|8,0:0|0:0,0:0:0:0:
251,265,4323,6,0,P|284:279|336:278,1,80,2|2,0:1|0:0,0:0:0:0:
174,188,4541,2,0,B|113:193|113:193|86:224|86:224|27:231,1,160,2|2,0:1|0:1,0:0:0:0:
11,84,4867,2,0,P|51:87|104:117,1,80,2|2,0:1|0:0,0:0:0:0:
171,290,5084,1,8,0:0:0:0:
171,290,5193,1,0,0:0:0:0:
257,244,5302,6,0,L|264:148,1,80,2|0,0:0|0:0,0:0:0:0:
116,16,5519,1,8,0:0:0:0:
171,67,5628,1,0,0:0:0:0:
246,75,5736,1,2,0:0:0:0:
316,45,5845,2,0,P|372:33|419:37,1,80,2|8,0:0|0:0,0:0:0:0:
512,153,6062,6,0,P|480:130|422:116,1,80,2|2,0:1|0:0,0:0:0:0:
350,267,6280,2,0,P|374:236|384:198,1,80,2|8,0:1|0:0,0:0:0:0:
316,45,6497,1,2,0:1:0:0:
256,127,6606,5,8,0:0:0:0:
258,157,6678,1,8,0:0:0:0:
261,189,6751,1,8,0:0:0:0:
261,219,6823,5,8,0:0:0:0:
215,208,6896,1,8,0:0:0:0:
174,233,6968,1,8,0:0:0:0:
162,279,7041,5,2,0:1:0:0:
199,351,7476,1,2,0:1:0:0:
278,363,7910,1,2,0:1:0:0:
349,329,8345,1,2,0:1:0:0:
175,165,8780,6,0,L|89:173,1,68.0000012969971,6|0,0:0|0:0,0:0:0:0:
249,104,8997,2,0,L|338:113,1,68.0000012969971,2|0,0:1|0:0,0:0:0:0:
164,75,9215,2,0,P|152:43|154:2,2,68.0000012969971,2|0|2,0:1|0:1|0:1,0:0:0:0:
261,196,9541,6,0,L|395:179,1,136.000002593994,2|8,0:3|0:0,0:0:0:0:
484,210,9867,1,8,0:0:0:0:
484,210,9976,2,0,P|504:255|505:295,1,68.0000012969971,8|0,0:3|0:0,0:0:0:0:
467,123,10193,1,4,0:3:0:0:
467,123,10302,1,4,0:3:0:0:
413,269,10410,6,0,L|334:281,1,71.9999978027344,6|0,0:0|0:0,0:0:0:0:
219,144,10627,2,0,P|234:83|263:54,1,80,8|0,0:0|0:0,0:0:0:0:
183,229,10845,2,0,P|122:246|83:235,1,80,2|2,0:0|0:0,0:0:0:0:
274,216,11062,2,0,P|319:259|329:299,1,80,8|0,0:0|0:0,0:0:0:0:
127,154,11279,6,0,B|118:96|118:96|136:57|136:57|123:-13,1,160,2|8,0:0|0:0,0:0:0:0:
40,201,11605,2,0,P|106:243|182:228,1,160,2|2,0:0|0:0,0:0:0:0:
216,114,11932,2,0,P|273:97|324:101,1,80,8|0,0:0|0:0,0:0:0:0:
422,242,12149,6,0,B|377:206|377:206|259:192,1,160,2|8,0:0|0:0,0:0:0:0:
182,228,12475,1,0,0:0:0:0:
307,288,12583,2,0,P|355:256|348:132,1,160,2|8,0:0|0:0,0:0:0:0:
293,102,12910,1,0,0:0:0:0:
182,228,13018,6,0,P|140:242|81:239,1,80,2|0,0:0|0:0,0:0:0:0:
130,97,13236,2,0,P|174:111|209:140,1,80,8|0,0:0|0:0,0:0:0:0:
236,327,13453,1,2,0:0:0:0:
236,327,13561,1,2,0:0:0:0:
236,327,13671,1,8,0:0:0:0:
307,293,13779,1,8,0:0:0:0:
301,369,13888,6,0,P|243:358|143:351,1,160,6|8,0:0|0:0,0:0:0:0:
50,384,14214,1,0,0:0:0:0:
50,384,14323,2,0,B|43:321|43:321|64:281|64:281|54:210,1,160,2|8,0:0|0:0,0:0:0:0:
4,145,14649,1,0,0:0:0:0:
155,223,14758,6,0,P|201:217|242:184,1,80,2|0,0:0|0:0,0:0:0:0:
235,29,14975,2,0,P|218:87|233:132,1,80,8|0,0:0|0:0,0:0:0:0:
438,215,15192,5,8,0:0:0:0:
428,173,15264,1,8,0:0:0:0:
401,142,15338,1,8,0:0:0:0:
372,130,15409,5,2,0:3:0:0:
344,129,15483,1,2,0:3:0:0:
322,136,15554,1,8,0:3:0:0:
306,145,15626,5,4,0:3:0:0:
306,145,15844,2,0,P|372:131|434:240,1,187.20000628418,6|2,0:0|0:3,0:0:0:0:
402,300,16279,1,2,0:1:0:0:
390,313,16496,6,0,L|258:331,1,124.800004189453,8|0,0:0|0:0,0:0:0:0:
349,226,16823,2,0,L|217:244,1,124.800004189453,8|0,0:3|0:0,0:0:0:0:
142,286,17149,1,4,0:3:0:0:
142,286,17257,1,4,0:3:0:0:
53,151,17366,6,0,P|57:115|80:72,1,71.9999978027344,6|0,0:0|0:0,0:0:0:0:
274,9,17584,2,0,L|285:105,1,80,8|0,0:0|0:0,0:0:0:0:
225,242,17801,2,0,L|218:150,1,80,2|2,0:0|0:0,0:0:0:0:
287,19,18018,2,0,L|298:115,1,80,8|0,0:0|0:0,0:0:0:0:
323,284,18236,6,0,P|373:334|476:318,1,160,2|8,0:0|0:0,0:0:0:0:
412,95,18562,2,0,B|390:117|390:152|390:152|417:192|417:192|412:254,1,160,2|2,0:0|0:0,0:0:0:0:
237,151,18888,2,0,P|266:117|313:94,1,80,8|0,0:0|0:0,0:0:0:0:
323,284,19105,6,0,L|151:300,1,160,2|8,0:0|0:0,0:0:0:0:
72,270,19431,1,0,0:0:0:0:
209,384,19540,2,0,P|245:354|234:235,1,160,2|8,0:0|0:0,0:0:0:0:
161,205,19866,1,0,0:0:0:0:
161,205,19975,6,0,P|208:164|260:158,1,80,2|0,0:0|0:0,0:0:0:0:
377,226,20192,2,0,L|474:240,1,80,8|0,0:0|0:0,0:0:0:0:
351,52,20409,1,2,0:0:0:0:
351,52,20518,1,2,0:0:0:0:
351,52,20627,1,8,0:0:0:0:
331,122,20736,1,8,0:0:0:0:
271,72,20844,6,0,B|211:63|211:63|170:81|170:81|103:69,1,160,6|8,0:0|0:0,0:0:0:0:
32,28,21170,1,0,0:0:0:0:
32,28,21279,2,0,P|80:70|76:164,1,160,2|8,0:0|0:0,0:0:0:0:
13,229,21605,1,0,0:0:0:0:
142,344,21714,6,0,P|190:341|234:319,1,80,2|0,0:0|0:0,0:0:0:0:
289,186,21931,2,0,P|336:168|379:171,1,80,8|0,0:0|0:0,0:0:0:0:
391,326,22149,1,2,0:0:0:0:
391,326,22257,1,2,0:0:0:0:
391,326,22367,2,0,P|360:288|349:244,1,80,8|0,0:0|0:0,0:0:0:0:
327,71,22583,6,0,B|230:55|230:55|184:69|152:104|152:104|102:104|69:55,1,287.999991210938,6|8,0:0|0:0,0:0:0:0:
406,122,24323,6,0,P|427:165|423:229,1,80,6|0,0:0|0:0,0:0:0:0:
239,261,24540,1,8,0:0:0:0:
296,206,24649,1,0,0:0:0:0:
313,281,24757,1,2,0:0:0:0:
259,334,24866,2,0,P|199:345|164:338,1,80,2|8,0:0|0:0,0:0:0:0:
387,222,25084,6,0,L|477:228,1,80,2|2,0:1|0:0,0:0:0:0:
238,125,25301,2,0,B|178:130|178:130|149:160|149:160|66:171,1,160,2|2,0:1|0:1,0:0:0:0:
234,35,25627,2,0,P|288:49|321:86,1,80,2|2,0:1|0:0,0:0:0:0:
387,222,25844,1,8,0:0:0:0:
387,222,25954,1,0,0:0:0:0:
426,139,26062,6,0,L|432:37,1,80,2|0,0:0|0:0,0:0:0:0:
234,201,26279,1,8,0:0:0:0:
294,247,26388,1,0,0:0:0:0:
302,170,26496,1,2,0:0:0:0:
238,125,26605,2,0,P|197:123|149:142,1,80,2|8,0:0|0:0,0:0:0:0:
79,311,26823,6,0,L|-28:319,1,80,2|2,0:1|0:0,0:0:0:0:
69,98,27040,2,0,P|125:139|119:232,1,160,2|2,0:1|0:1,0:0:0:0:
154,364,27366,5,8,0:0:0:0:
185,367,27442,1,8,0:0:0:0:
217,370,27519,1,8,0:0:0:0:
248,373,27596,5,8,0:0:0:0:
230,327,27673,1,8,0:0:0:0:
254,286,27750,1,8,0:0:0:0:
302,286,27827,5,2,0:1:0:0:
377,313,28261,1,2,0:1:0:0:
447,271,28696,1,2,0:1:0:0:
454,192,29131,2,0,P|446:156|431:129,1,64,6|0,0:0|0:0,0:0:0:0:
210,208,29566,6,0,L|130:214,1,68.0000012969971,6|0,0:0|0:0,0:0:0:0:
296,236,29783,2,0,P|325:277|333:319,1,68.0000012969971,2|0,0:1|0:0,0:0:0:0:
280,142,30000,2,0,P|308:125|347:117,2,68.0000012969971,2|0|2,0:1|0:0|0:1,0:0:0:0:
230,303,30327,6,0,P|169:344|89:326,1,136.000002593994,2|8,0:3|0:0,0:0:0:0:
38,281,30653,1,8,0:0:0:0:
38,281,30761,2,0,L|32:204,1,64,2|0,0:0|0:0,0:0:0:0:
128,118,30979,2,0,L|119:189,1,60.0000022888184,8|4,0:3|0:3,0:0:0:0:
31,376,31196,5,6,0:0:0:0:
91,142,33847,6,0,L|100:210,2,63.9999980468751,8|8|8,0:0|0:0|0:0,0:0:0:0:
76,51,34247,1,8,0:0:0:0:
38,269,34464,5,8,0:3:0:0:
48,280,34681,2,0,P|129:292|198:221,1,160,6|8,0:0|0:0,0:0:0:0:
258,102,35007,2,0,P|311:112|349:140,1,80,2|0,0:0|0:0,0:0:0:0:
183,151,35224,2,0,P|166:107|173:67,1,80,2|8,0:0|0:0,0:0:0:0:
265,194,35441,1,0,0:0:0:0:
187,246,35550,5,2,0:0:0:0:
187,246,35659,2,0,L|88:237,1,80,0|8,0:0|0:0,0:0:0:0:
278,206,35876,2,0,B|290:259|290:259|269:302|269:302|283:372,1,160,0|2,0:0|0:0,0:0:0:0:
367,320,36202,1,8,0:0:0:0:
187,246,36311,5,2,0:0:0:0:
187,246,36420,2,0,P|167:282|172:340,1,80,2|0,0:0|0:0,0:0:0:0:
265,194,36637,2,0,P|259:149|235:106,1,80,8|2,0:0|0:0,0:0:0:0:
158,78,36854,1,0,0:0:0:0:
158,78,36963,2,0,L|345:62,1,160,2|2,0:0|0:3,0:0:0:0:
433,158,37289,6,0,L|535:171,1,80,2|0,0:3|0:0,0:0:0:0:
493,41,37507,1,8,0:0:0:0:
461,35,37579,1,8,0:0:0:0:
430,46,37652,1,8,0:0:0:0:
411,72,37724,5,8,0:0:0:0:
376,303,41420,5,8,0:0:0:0:
361,313,41637,2,0,B|307:308|307:308|276:276|276:276|182:271,1,160,6|8,0:0|0:0,0:0:0:0:
110,364,41963,2,0,P|63:378|14:375,1,80,2|0,0:0|0:0,0:0:0:0:
112,186,42181,1,2,0:0:0:0:
112,186,42289,2,0,L|121:275,1,80,8|0,0:0|0:0,0:0:0:0:
304,246,42507,6,0,L|312:142,1,80,2|0,0:0|0:0,0:0:0:0:
254,88,42724,1,8,0:0:0:0:
254,88,42833,2,0,P|310:133|400:115,1,160,2|2,0:0|0:0,0:0:0:0:
209,0,43159,2,0,P|172:33|154:84,1,80,8|0,0:0|0:0,0:0:0:0:
153,283,43376,5,2,0:0:0:0:
153,283,43485,1,0,0:0:0:0:
153,283,43594,2,0,L|55:292,1,80,8|2,0:0|0:0,0:0:0:0:
191,176,43811,1,0,0:0:0:0:
191,176,43920,1,2,0:0:0:0:
191,176,44028,2,0,L|94:166,1,80,8|0,0:0|0:0,0:0:0:0:
246,318,44246,5,2,0:0:0:0:
246,318,44354,2,0,P|292:333|344:329,1,80,0|8,0:0|0:0,0:0:0:0:
419,144,44572,2,0,P|362:144|329:161,1,80,2|2,0:0|0:0,0:0:0:0:
272,221,44789,1,2,0:0:0:0:
423,266,44898,1,8,0:0:0:0:
425,283,45115,6,0,L|430:364,1,80,6|0,0:0|0:0,0:0:0:0:
487,177,45333,1,8,0:0:0:0:
419,144,45441,1,0,0:0:0:0:
347,156,45550,1,2,0:0:0:0:
303,215,45659,2,0,P|252:232|202:223,1,80,2|8,0:0|0:0,0:0:0:0:
290,47,45876,6,0,L|380:58,1,80,2|2,0:1|0:0,0:0:0:0:
172,151,46094,2,0,B|117:142|117:142|83:110|83:110|7:96,1,160,2|2,0:1|0:1,0:0:0:0:
107,304,46420,1,2,0:1:0:0:
182,295,46528,1,2,0:0:0:0:
225,232,46637,2,0,P|264:215|326:218,1,80,8|0,0:0|0:0,0:0:0:0:
495,308,46854,6,0,P|465:293|383:290,1,80,2|0,0:1|0:0,0:0:0:0:
265,340,47072,1,8,0:0:0:0:
265,340,47181,1,0,0:0:0:0:
265,340,47289,1,2,0:1:0:0:
316,285,47398,1,0,0:0:0:0:
302,212,47507,1,8,0:0:0:0:
357,158,47615,6,0,B|419:150|419:150|455:168|455:168|523:158,1,160,2|0,0:1|0:0,0:0:0:0:
268,63,47941,1,8,0:0:0:0:
280,72,48159,6,0,L|408:58,1,111.999996582031,6|0,0:0|0:0,0:0:0:0:
92,121,48594,6,0,P|45:180|55:243,1,120.000004577637,4|0,0:0|0:0,0:0:0:0:
100,297,48920,1,0,0:0:0:0:
100,297,49028,2,0,L|243:283,1,120.000004577637,8|0,0:0|0:0,0:0:0:0:
309,307,49354,1,0,0:0:0:0:
309,307,49463,6,0,P|325:354|325:376,1,60.0000022888184,2|0,0:0|0:0,0:0:0:0:
282,217,49680,2,0,P|312:189|357:178,1,60.0000022888184,2|0,0:0|0:0,0:0:0:0:
456,209,49898,2,0,B|483:167|483:167|477:80,1,120.000004577637,8|0,0:0|0:0,0:0:0:0:
424,25,50224,1,0,0:0:0:0:
424,25,50333,6,0,P|370:58|305:50,1,120.000004577637,2|2,0:0|0:0,0:0:0:0:
241,4,50659,1,0,0:0:0:0:
241,4,50767,2,0,P|227:45|229:84,1,60.0000022888184,8|0,0:0|0:0,0:0:0:0:
285,147,50985,1,0,0:0:0:0:
285,147,51094,1,0,0:0:0:0:
285,147,51202,6,0,L|151:157,1,120.000004577637,2|2,0:0|0:0,0:0:0:0:
74,124,51528,1,0,0:0:0:0:
93,208,51637,1,8,0:0:0:0:
93,208,51746,1,8,0:0:0:0:
93,208,51854,1,8,0:0:0:0:
16,177,51963,1,8,0:0:0:0:
33,251,52072,6,0,P|104:247|215:280,1,160,4|8,0:0|0:0,0:0:0:0:
330,380,52398,2,0,L|424:373,1,80,2|0,0:0|0:0,0:0:0:0:
311,223,52615,1,0,0:0:0:0:
311,223,52724,2,0,P|286:272|289:316,1,80,8|0,0:0|0:0,0:0:0:0:
468,177,52941,6,0,B|475:120|475:120|450:83|450:83|458:52|480:16,1,160,2|8,0:0|0:0,0:0:0:0:
385,146,53267,2,0,P|342:139|291:110,1,80,2|0,0:0|0:0,0:0:0:0:
209,22,53485,1,2,0:0:0:0:
209,22,53594,2,0,L|220:130,1,80,8|0,0:0|0:0,0:0:0:0:
173,278,53811,6,0,P|127:326|24:311,1,160,2|8,0:0|0:0,0:0:0:0:
169,185,54137,1,2,0:0:0:0:
169,185,54246,2,0,P|137:156|87:143,1,80,0|2,0:0|0:0,0:0:0:0:
0,216,54463,1,8,0:0:0:0:
0,216,54572,1,8,0:0:0:0:
87,239,54680,5,2,0:0:0:0:
26,34,54898,1,2,0:0:0:0:
235,77,55115,1,12,0:0:0:0:
246,89,55550,6,0,L|369:93,1,120.000004577637,2|0,0:0|0:0,0:0:0:0:
453,136,55876,1,0,0:0:0:0:
453,136,55985,1,8,0:0:0:0:
453,136,56094,2,0,P|469:182|467:217,1,60.0000022888184
423,269,56311,1,0,0:0:0:0:
423,269,56420,6,0,P|385:332|392:378,2,120.000004577637,2|2|8,0:0|0:0|0:0,0:0:0:0:
209,180,57072,1,0,0:0:0:0:
209,180,57180,1,0,0:0:0:0:
209,180,57289,6,0,P|160:206|73:189,1,120.000004577637,2|0,0:0|0:0,0:0:0:0:
28,144,57615,1,0,0:0:0:0:
28,144,57724,1,8,0:0:0:0:
28,144,57833,2,0,P|9:179|8:222,1,60.0000022888184
56,283,58050,1,0,0:0:0:0:
56,283,58159,6,0,L|190:298,1,120.000004577637,2|2,0:0|0:0,0:0:0:0:
368,154,58594,1,8,0:0:0:0:
368,154,58702,1,8,0:0:0:0:
368,154,58811,1,8,0:0:0:0:
307,197,58920,1,8,0:0:0:0:
363,249,59028,6,0,B|421:243|421:243|451:217|451:217|517:210,1,160,6|8,0:0|0:0,0:0:0:0:
328,377,59354,2,0,P|294:333|288:289,1,80,2|0,0:0|0:0,0:0:0:0:
368,154,59572,1,2,0:0:0:0:
368,154,59680,2,0,L|262:143,1,80,8|0,0:0|0:0,0:0:0:0:
151,223,59898,5,2,0:0:0:0:
179,291,60007,1,0,0:0:0:0:
227,231,60115,1,8,0:0:0:0:
196,162,60224,2,0,P|144:145|35:207,1,160,2|2,0:0|0:0,0:0:0:0:
231,366,60550,2,0,L|341:357,1,80,8|0,0:0|0:0,0:0:0:0:
433,319,60767,5,2,0:0:0:0:
433,319,60876,1,0,0:0:0:0:
433,319,60985,2,0,P|393:298|365:259,1,80,8|2,0:0|0:0,0:0:0:0:
388,99,61202,2,0,P|389:143|370:186,1,80,0|2,0:0|0:0,0:0:0:0:
220,245,61420,2,0,P|257:221|304:216,1,80,8|0,0:0|0:0,0:0:0:0:
462,238,61637,6,0,B|408:224|408:224|365:235|365:235|286:213,1,160,2|8,0:0|0:0,0:0:0:0:
191,122,61963,2,0,P|115:113|50:172,1,160,2|2,0:0|0:0,0:0:0:0:
286,126,62289,2,0,P|306:82|308:33,1,80,12|0,0:0|0:0,0:0:0:0:
141,203,62507,6,0,L|149:286,1,60.0000022888184,4|0,0:3|0:0,0:0:0:0:
249,334,62724,2,0,L|236:194,1,120.000004577637,8|4,0:3|0:3,0:0:0:0:
338,268,63050,1,4,0:3:0:0:
338,268,63159,2,0,P|366:264|410:238,1,60.0000022888184,8|0,0:3|0:0,0:0:0:0:
286,126,63376,6,0,P|238:133|168:73,1,120.000004577637,4|0,0:3|0:0,0:0:0:0:
329,47,63702,2,0,P|373:96|366:174,1,120.000004577637,4|0,0:3|0:0,0:0:0:0:
311,220,64028,1,8,0:3:0:0:
301,234,64246,6,0,L|293:362,2,120.000004577637,4|0|4,0:3|0:0|0:3,0:0:0:0:
126,92,64898,2,0,P|109:121|105:164,1,60.0000022888184,8|0,0:3|0:0,0:0:0:0:
173,260,65115,6,0,P|205:197|183:126,1,120.000004577637,4|0,0:3|0:0,0:0:0:0:
100,314,65441,2,0,P|161:348|233:328,1,120.000004577637,2|0,0:3|0:0,0:0:0:0:
301,234,65767,1,2,0:3:0:0:
312,243,65985,6,0,L|379:248,1,60.0000022888184,4|0,0:3|0:0,0:0:0:0:
468,282,66202,1,0,0:0:0:0:
468,282,66311,1,8,0:3:0:0:
468,282,66420,2,0,P|491:335|491:361,1,60.0000022888184,0|0,0:3|0:0,0:0:0:0:
445,188,66637,2,0,P|471:157|507:140,1,60.0000022888184,4|0,0:3|0:0,0:0:0:0:
371,247,66854,6,0,L|245:238,1,120.000004577637,8|0,0:3|0:0,0:0:0:0:
109,123,67180,2,0,P|167:121|215:156,1,120.000004577637,2|0,0:3|0:3,0:0:0:0:
175,291,67507,1,2,0:3:0:0:
160,301,67724,6,0,L|31:310,2,120.000004577637,4|0|4,0:3|0:0|0:3,0:0:0:0:
407,211,68376,2,0,P|416:181|415:142,1,60.0000022888184,8|0,0:3|0:0,0:0:0:0:
334,263,68594,6,0,P|394:299|457:285,1,120.000004577637,8|0,0:0|0:0,0:0:0:0:
326,174,68920,2,0,B|295:168|262:173|277:191|238:198|211:190,1,120.000004577637,8|0,0:0|0:0,0:0:0:0:
132,144,69246,1,8,0:0:0:0:
132,144,69354,1,2,0:3:0:0:
132,144,69463,6,0,P|103:148|74:157,1,60.0000022888184,4|0,0:3|0:0,0:0:0:0:
11,225,69680,2,0,P|2:253|0:283,1,60.0000022888184,8|0,0:3|0:0,0:0:0:0:
181,288,69898,2,0,L|174:218,1,60.0000022888184,4|0,0:3|0:0,0:0:0:0:
89,271,70115,2,0,L|94:330,1,60.0000022888184,4|0,0:3|0:0,0:0:0:0:
268,261,70333,6,0,P|325:238|378:253,2,90.0000034332277,4|0|0,0:3|0:0|0:0,0:0:0:0:
256,358,70767,1,4,0:3:0:0:
256,358,70876,1,0,0:0:0:0:
256,358,70985,2,0,P|291:369|324:370,1,60.0000022888184,8|0,0:3|0:0,0:0:0:0:
485,284,71202,6,0,L|476:198,1,80.0000030517579,4|0,0:3|0:0,0:0:0:0:
469,189,71420,2,0,P|424:167|396:166,1,60.0000022888184,2|0,0:3|0:0,0:0:0:0:
512,110,71637,2,0,P|492:87|454:67,1,60.0000022888184,4|0,0:3|0:0,0:0:0:0:
329,108,71854,6,0,L|233:113,1,80.0000030517579,8|0,0:3|0:0,0:0:0:0:
233,103,72072,2,0,P|221:74|218:36,1,60.0000022888184,4|0,0:3|0:0,0:0:0:0:
175,171,72289,2,0,P|141:152|124:133,1,60.0000022888184,2|0,0:3|0:0,0:0:0:0:
260,197,72507,6,0,P|278:238|276:302,2,80.0000030517579,4|0|0,0:3|0:0|0:0,0:3:0:0:
85,221,72941,6,0,L|70:348,1,120.000004577637,4|0,0:3|0:0,0:0:0:0:
167,372,73267,1,0,0:0:0:0:
167,372,73376,2,0,L|174:291,1,60.0000022888184,8|0,0:3|0:0,0:0:0:0:
260,197,73594,2,0,P|277:232|281:266,1,60.0000022888184,4|0,0:3|0:0,0:0:0:0:
187,143,73811,6,0,P|240:111|312:123,1,120.000004577637,4|0,0:3|0:0,0:0:0:0:
354,188,74137,1,0,0:0:0:0:
354,188,74246,2,0,P|429:194|479:152,1,120.000004577637,8|0,0:3|0:0,0:0:0:0:
477,80,74572,1,0,0:0:0:0:
477,80,74680,5,2,0:3:0:0:
256,192,74735,12,8,75585,0:0:0:0:
117,275,76457,6,0,B|176:288|176:288|216:273|216:273|275:286,1,160,6|8,0:0|0:0,0:0:0:0:
229,366,76783,1,0,0:0:0:0:
166,192,76891,2,0,P|192:154|238:134,1,80,2|0,0:0|0:0,0:0:0:0:
362,306,77109,2,0,P|402:322|456:322,1,80,8|0,0:0|0:0,0:0:0:0:
422,84,77326,6,0,L|337:93,1,80,2|0,0:0|0:0,0:0:0:0:
421,239,77543,1,8,0:0:0:0:
421,239,77652,2,0,P|363:188|271:202,1,160,2|2,0:0|0:0,0:0:0:0:
198,337,77978,1,8,0:0:0:0:
125,353,78087,1,0,0:0:0:0:
56,322,78196,6,0,P|38:283|37:237,1,80,2|0,0:0|0:0,0:0:0:0:
147,105,78413,2,0,B|152:166|152:166|130:197|130:197|136:264,1,160,8|2,0:0|0:0,0:0:0:0:
224,227,78739,1,2,0:0:0:0:
60,142,78848,2,0,P|25:146|-20:173,1,80,8|0,0:0|0:0,0:0:0:0:
238,233,79065,6,0,B|294:228|294:228|330:200|330:200|414:193,1,160,2|8,0:0|0:0,0:0:0:0:
475,242,79391,2,0,P|495:293|490:334,1,80,2|0,0:0|0:0,0:0:0:0:
473,152,79609,1,2,0:0:0:0:
473,152,79717,2,0,P|510:119|555:109,1,80,8|0,0:0|0:0,0:0:0:0:
387,195,79935,6,0,L|223:186,1,160,2|8,0:0|0:0,0:0:0:0:
78,225,80261,1,0,0:0:0:0:
78,225,80370,2,0,P|48:264|41:306,1,80,2|0,0:0|0:0,0:0:0:0:
134,149,80587,2,0,P|129:100|101:57,1,80,8|0,0:0|0:0,0:0:0:0:
138,304,80804,5,2,0:0:0:0:
138,304,80913,2,0,L|248:294,1,80,0|8,0:0|0:0,0:0:0:0:
340,208,81130,2,0,P|409:191|489:260,1,160,2|2,0:0|0:0,0:0:0:0:
417,362,81457,2,0,P|397:315|406:258,1,80,8|0,0:0|0:0,0:0:0:0:
486,119,81674,6,0,P|479:70|453:29,1,80,2|0,0:0|0:0,0:0:0:0:
231,71,81891,2,0,P|219:140|231:172,1,80,8|0,0:0|0:0,0:0:0:0:
472,122,82109,6,0,P|465:73|440:34,1,71.9999978027344,2|0,0:0|0:0,0:0:0:0:
244,76,82326,2,0,P|237:163|242:174,1,71.9999978027344,8|0,0:0|0:0,0:0:0:0:
365,282,82543,5,2,0:0:0:0:
356,293,82761,2,0,L|265:301,1,71.9999978027344,8|2,0:0|0:0,0:0:0:0:
116,283,82978,1,2,0:0:0:0:
116,283,83086,1,2,0:0:0:0:
116,283,83196,2,0,P|93:331|95:375,1,71.9999978027344,8|0,0:0|0:0,0:0:0:0:
235,218,83413,6,0,B|229:152|229:152|201:125|201:125|195:47,1,160,2|8,0:0|0:0,0:0:0:0:
289,79,83739,1,0,0:0:0:0:
143,194,83848,2,0,P|88:187|48:161,1,80,2|0,0:0|0:0,0:0:0:0:
301,87,84065,2,0,P|326:132|327:179,1,80,8|0,0:0|0:0,0:0:0:0:
289,332,84283,6,0,P|335:375|454:356,1,160,2|8,0:0|0:0,0:0:0:0:
271,239,84609,1,2,0:0:0:0:
271,239,84717,2,0,P|227:258|194:298,1,80,0|2,0:0|0:0,0:0:0:0:
376,288,84935,2,0,L|380:197,1,80,8|0,0:0|0:0,0:0:0:0:
460,38,85152,6,0,P|513:80|502:181,1,160,2|8,0:0|0:0,0:0:0:0:
354,97,85478,1,0,0:0:0:0:
354,97,85587,2,0,P|406:107|444:140,1,80,2|2,0:0|0:0,0:0:0:0:
459,268,85804,2,0,P|409:299|361:301,1,80,8|0,0:0|0:0,0:0:0:0:
245,186,86022,6,0,L|260:16,2,160,2|8|0,0:0|0:0|0:0,0:0:0:0:
238,285,86565,1,2,0:0:0:0:
238,285,86674,2,0,L|229:381,1,80,8|0,0:0|0:0,0:0:0:0:
334,145,86891,6,0,P|291:105|239:92,1,80,2|0,0:0|0:0,0:0:0:0:
95,225,87109,1,8,0:0:0:0:
95,225,87217,2,0,B|153:220|153:220|188:191|188:191|258:184,1,160,0|2,0:0|0:0,0:0:0:0:
323,241,87543,2,0,P|370:257|417:250,1,80,8|0,0:0|0:0,0:0:0:0:
416,18,87761,5,2,0:0:0:0:
341,65,87870,2,0,L|331:156,1,80,0|8,0:0|0:0,0:0:0:0:
449,328,88087,2,0,L|430:148,1,160,2|2,0:0|0:0,0:0:0:0:
323,241,88413,2,0,P|286:252|230:248,1,71.9999978027344,8|0,0:0|0:0,0:0:0:0:
240,54,88630,5,8,0:0:0:0:
266,71,88705,1,8,0:0:0:0:
280,99,88780,1,8,0:0:0:0:
280,120,88856,5,8,0:0:0:0:
272,139,88931,1,8,0:0:0:0:
258,154,89007,1,8,0:0:0:0:
238,161,89082,6,0,P|192:175|170:190,2,63.9999980468751,8|8|8,0:0|0:0|0:3,0:0:0:0:
347,223,89535,1,4,0:3:0:0:
347,223,89969,6,0,B|312:225|312:225|289:216|289:216|276:228|258:234|258:234|169:188|105:271,1,264.000008056641,6|0,0:0|0:0,0:0:0:0:
81,357,90404,6,0,L|-17:366,1,80,6|0,0:0|0:0,0:0:0:0:
173,121,90621,1,8,0:0:0:0:
214,184,90730,1,0,0:0:0:0:
200,258,90839,1,2,0:0:0:0:
233,326,90948,2,0,P|267:344|322:348,1,80,2|8,0:0|0:0,0:0:0:0:
120,202,91165,6,0,L|25:213,1,80,2|2,0:1|0:0,0:0:0:0:
235,44,91382,2,0,B|297:53|297:53|331:83|331:83|410:97,1,160,2|2,0:1|0:1,0:0:0:0:
255,136,91708,2,0,P|226:208|234:235,1,80,0|2,0:1|0:0,0:0:0:0:
323,311,91926,1,8,0:0:0:0:
323,311,92035,1,0,0:0:0:0:
253,363,92143,6,0,L|162:370,1,80,2|0,0:0|0:0,0:0:0:0:
95,174,92361,1,8,0:0:0:0:
153,224,92469,1,0,0:0:0:0:
82,249,92578,1,2,0:0:0:0:
24,200,92687,2,0,P|12:148|21:103,1,80,2|8,0:0|0:0,0:0:0:0:
220,28,92904,6,0,P|236:63|235:136,1,80,2|2,0:1|0:0,0:0:0:0:
215,284,93121,2,0,P|260:302|315:301,1,80,2|8,0:1|0:0,0:0:0:0:
457,238,93339,1,2,0:1:0:0:
377,195,93448,5,8,0:0:0:0:
345,200,93520,1,8,0:0:0:0:
313,205,93592,1,8,0:0:0:0:
281,210,93665,5,8,0:0:0:0:
301,166,93737,1,8,0:0:0:0:
285,120,93810,1,8,0:0:0:0:
240,103,93882,5,2,0:1:0:0:
174,147,94317,1,2,0:1:0:0:
97,127,94752,1,2,0:1:0:0:
80,50,95187,1,2,0:1:0:0:
311,298,95621,6,0,L|400:311,1,68.0000012969971,6|0,0:0|0:0,0:0:0:0:
233,248,95839,2,0,L|134:253,1,68.0000012969971,2|0,0:1|0:0,0:0:0:0:
319,210,96056,2,0,P|329:177|326:120,2,68.0000012969971,2|0|2,0:1|0:0|0:1,0:0:0:0:
227,336,96382,5,8,0:0:0:0:
191,346,96454,1,8,0:0:0:0:
154,345,96526,1,8,0:0:0:0:
121,326,96599,1,8,0:0:0:0:
99,296,96671,1,8,0:0:0:0:
91,260,96744,1,8,0:0:0:0:
96,236,96816,5,8,0:3:0:0:
102,211,96889,1,8,0:3:0:0:
109,187,96961,1,8,0:3:0:0:
114,162,97034,1,4,0:3:0:0:
109,138,97106,1,4,0:3:0:0:
92,118,97179,1,4,0:3:0:0:
67,107,97251,6,0,L|-16:116,1,80,6|0,0:0|0:0,0:0:0:0:
187,252,97468,2,0,P|234:208|247:167,1,80,8|0,0:0|0:0,0:0:0:0:
182,35,97686,2,0,P|193:97|222:128,1,80,2|2,0:0|0:0,0:0:0:0:
367,135,97903,2,0,P|304:112|263:123,1,80,8|0,0:0|0:0,0:0:0:0:
187,252,98121,6,0,B|124:259|124:259|85:241|85:241|15:248,1,160,2|8,0:0|0:0,0:0:0:0:
234,342,98447,2,0,P|279:282|253:179,1,160,2|2,0:0|0:0,0:0:0:0:
48,162,98773,2,0,P|26:197|25:255,1,80,8|0,0:0|0:0,0:0:0:0:
185,160,98990,6,0,L|366:146,1,160,2|8,0:0|0:0,0:0:0:0:
440,116,99316,1,0,0:0:0:0:
440,116,99425,2,0,P|395:65|284:70,1,160,2|8,0:0|0:0,0:0:0:0:
269,201,99751,1,0,0:0:0:0:
269,201,99860,6,0,P|277:248|305:286,1,80,2|0,0:0|0:0,0:0:0:0:
292,62,100077,2,0,P|236:27|193:27,1,80,8|2,0:0|0:0,0:0:0:0:
58,125,100295,1,0,0:0:0:0:
58,125,100403,1,2,0:0:0:0:
58,125,100512,1,8,0:0:0:0:
133,138,100621,1,8,0:0:0:0:
84,198,100729,6,0,L|68:264,1,64,2|0,0:0|0:0,0:0:0:0:
190,211,100947,1,8,0:0:0:0:
190,211,101055,1,8,0:0:0:0:
190,211,101164,2,0,L|197:278,1,64,2|0,0:0|0:0,0:0:0:0:
284,180,101382,1,8,0:0:0:0:
284,180,101490,1,8,0:0:0:0:
284,180,101599,6,0,L|314:240,1,64,2|0,0:0|0:0,0:0:0:0:
360,117,101816,1,8,0:0:0:0:
360,117,101924,1,8,0:0:0:0:
360,117,102034,2,0,L|409:163,1,64,2|0,0:0|0:0,0:0:0:0:
381,17,102251,1,8,0:0:0:0:
381,17,102360,1,8,0:0:0:0:
381,17,102468,6,0,L|234:28,1,128,2|2,0:0|0:3,0:0:0:0:
169,62,102795,1,2,0:3:0:0:
169,62,102903,2,0,P|152:93|149:137,1,64,0|2,0:0|0:3,0:0:0:0:
228,173,103121,2,0,P|250:228|251:263,1,64,8|0,0:3|0:0,0:0:0:0:
190,315,103338,5,8,0:0:0:0:
164,319,103410,1,8,0:0:0:0:
138,323,103483,1,8,0:0:0:0:
113,327,103555,5,8,0:0:0:0:
87,323,103628,1,8,0:0:0:0:
67,307,103700,1,8,0:0:0:0:
56,283,103773,6,0,L|45:174,1,85.3333333333333,8|8,0:3|0:3,0:0:0:0:
57,184,103990,2,0,P|95:163|132:159,1,64,4|4,0:3|0:3,0:0:0:0:
280,258,104208,6,0,L|374:265,1,80,6|0,0:0|0:0,0:0:0:0:
250,103,104425,2,0,P|225:149|228:209,1,80,8|0,0:0|0:0,0:0:0:0:
399,140,104642,2,0,P|363:91|325:77,1,80,2|2,0:0|0:0,0:0:0:0:
127,151,104860,2,0,L|22:157,1,80,8|0,0:0|0:0,0:0:0:0:
312,170,105077,6,0,B|325:226|325:226|305:267|305:267|322:338,1,160,2|8,0:0|0:0,0:0:0:0:
399,140,105403,2,0,P|360:88|262:91,1,160,2|2,0:0|0:0,0:0:0:0:
176,232,105729,2,0,P|127:246|80:237,1,80,8|0,0:0|0:0,0:0:0:0:
73,18,105947,6,0,P|128:71|111:174,1,160,2|8,0:0|0:0,0:0:0:0:
44,108,106273,1,0,0:0:0:0:
44,108,106382,2,0,L|235:87,1,160,2|8,0:0|0:0,0:0:0:0:
303,156,106708,1,0,0:0:0:0:
216,187,106816,6,0,P|195:242|206:285,1,80,2|0,0:0|0:0,0:0:0:0:
397,177,107034,2,0,P|390:112|367:81,1,80,8|0,0:0|0:0,0:0:0:0:
213,41,107251,1,2,0:0:0:0:
213,41,107360,1,2,0:0:0:0:
213,41,107468,1,8,0:0:0:0:
285,58,107577,1,8,0:0:0:0:
235,114,107686,6,0,L|225:218,1,95.9999970703126,2|0,0:0|0:0,0:0:0:0:
239,297,108012,1,0,0:0:0:0:
239,297,108121,2,0,P|198:314|139:308,1,95.9999970703126,2|0,0:0|0:0,0:0:0:0:
418,146,108555,5,2,0:0:0:0:
418,146,108664,2,0,P|447:191|445:249,1,95.9999970703126,8|0,0:0|0:0,0:0:0:0:
413,313,108990,2,0,L|528:324,1,95.9999970703126,2|0,0:0|0:0,0:0:0:0:
193,88,109425,6,8,L|151:93,5,31.9999990234375
274,113,109860,2,8,L|316:118,5,31.9999990234375
208,172,110295,6,8,L|166:177,5,31.9999990234375,8|8|8|8|8|8,0:3|0:3|0:3|0:3|0:3|0:3,0:3:0:0:
289,197,110729,2,4,L|331:202,5,31.9999990234375,4|4|4|4|4|4,0:3|0:3|0:3|0:3|0:3|0:3,0:3:0:0:
226,258,111164,6,0,P|213:287|208:350,1,80,6|0,0:0|0:0,0:0:0:0:
414,222,111382,2,0,P|410:175|378:120,1,80,8|0,0:0|0:0,0:0:0:0:
269,90,111599,1,2,0:0:0:0:
269,90,111708,2,0,P|228:85|163:54,1,80,2|8,0:0|0:0,0:0:0:0:
320,200,111925,1,2,0:0:0:0:
320,200,112034,6,0,P|254:183|176:260,1,160,2|8,0:0|0:0,0:0:0:0:
423,327,112360,2,0,B|434:266|434:266|413:223|413:223|422:193|448:160,1,160,2|2,0:0|0:0,0:0:0:0:
337,289,112686,2,0,P|301:301|244:297,1,80,8|0,0:0|0:0,0:0:0:0:
121,191,112903,6,0,L|288:211,1,160,2|8,0:0|0:0,0:0:0:0:
353,151,113229,1,0,0:0:0:0:
230,91,113338,1,2,0:0:0:0:
230,91,113447,1,2,0:0:0:0:
230,91,113555,2,0,P|268:72|325:71,1,80,8|0,0:0|0:0,0:0:0:0:
429,217,113773,6,0,P|481:231|537:228,1,80,2|0,0:0|0:0,0:0:0:0:
353,151,113990,1,8,0:0:0:0:
308,217,114098,1,2,0:0:0:0:
318,292,114208,2,0,P|350:323|400:343,1,80,0|2,0:0|0:0,0:0:0:0:
343,137,114425,2,0,P|294:115|245:120,1,80,8|0,0:0|0:0,0:0:0:0:
138,248,114642,6,0,P|71:260|-1:209,1,160,2|8,0:0|0:0,0:0:0:0:
91,85,114968,1,8,0:0:0:0:
91,85,115077,2,0,L|84:167,1,80,2|0,0:0|0:0,0:0:0:0:
268,114,115295,2,0,P|265:75|236:24,1,80,8|0,0:0|0:0,0:0:0:0:
215,198,115512,6,0,P|291:213|322:203,1,80,2|0,0:0|0:0,0:0:0:0:
399,72,115729,1,8,0:0:0:0:
399,72,115838,1,2,0:0:0:0:
399,72,115947,2,0,P|367:112|359:165,1,80,0|2,0:0|0:0,0:0:0:0:
445,280,116164,2,0,P|396:240|356:234,1,80,8|0,0:0|0:0,0:0:0:0:
155,329,116382,6,0,L|43:338,1,80,2|0,0:0|0:0,0:0:0:0:
212,205,116599,2,0,L|315:214,1,80,8|0,0:0|0:0,0:0:0:0:
337,380,116816,1,2,0:0:0:0:
337,380,116925,1,2,0:0:0:0:
337,380,117034,2,0,P|317:322|328:274,1,80,8|0,0:0|0:0,0:0:0:0:
445,135,117251,5,2,0:0:0:0:
445,135,117360,1,2,0:0:0:0:
445,135,117468,2,0,P|404:181|357:195,1,80,8|0,0:0|0:0,0:0:0:0:
185,164,117686,1,2,0:0:0:0:
185,164,117795,1,2,0:0:0:0:
185,164,117903,1,8,0:0:0:0:
408,274,118121,5,10,0:0:0:0:
117,308,118555,1,10,0:0:0:0:
408,274,119208,5,10,0:0:0:0:
263,294,119425,1,10,0:0:0:0:
408,274,119860,5,10,0:0:0:0:
180,185,120295,1,10,0:0:0:0:
408,274,120947,5,10,0:0:0:0:
295,231,121164,1,10,0:0:0:0:
408,274,121599,6,0,L|509:268,1,95.9999970703126,6|2,0:0|0:0,0:0:0:0:
327,89,122034,2,0,P|270:111|242:147,1,95.9999970703126,8|2,0:0|0:0,0:0:0:0:
278,337,122468,1,2,0:0:0:0:
289,346,122686,1,2,0:0:0:0:
330,181,122903,1,8,0:0:0:0:
171,221,123121,1,2,0:0:0:0:
366,277,123338,6,0,P|426:217|408:117,1,191.999994140625,2|8,0:0|0:0,0:0:0:0:
237,142,123990,1,2,0:0:0:0:
237,142,124099,1,0,0:0:0:0:
237,142,124207,1,2,0:0:0:0:
330,181,124425,1,2,0:0:0:0:
174,219,124642,2,0,L|69:209,1,95.9999970703126,8|2,0:0|0:0,0:0:0:0:
330,181,125077,6,0,P|358:216|367:278,1,88.000002685547,2|2,0:0|0:0,0:0:0:0:
175,373,125577,2,0,P|183:325|221:280,1,88.000002685547,8|2,0:0|0:0,0:0:0:0:
464,310,126077,1,2,0:0:0:0:
476,321,126377,1,2,0:0:0:0:
282,246,126677,1,8,0:0:0:0:
353,358,126999,1,2,0:0:0:0:
408,135,127322,6,0,P|401:92|371:42,1,80,6|2,0:0|0:0,0:0:0:0:
132,185,128072,2,0,P|139:142|169:92,1,80,8|2,0:0|0:0,0:0:0:0:
409,272,128905,6,0,L|310:290,1,80,6|6,0:0|0:0,0:0:0:0:
65,328,129872,2,0,L|131:346,1,40,8|2,0:0|0:0,0:0:0:0:
183,357,130422,2,0,P|211:306|206:264,1,93.3333333333333,2|0,0:0|0:0,0:0:0:0:
256,192,134275,5,6,0:0:0:0:
256,192,134344,12,6,148725,0:0:0:0:
