osu file format v14

[General]
AudioFilename: audio.mp3
AudioLeadIn: 0
PreviewTime: 20690
Countdown: 0
SampleSet: Soft
StackLeniency: 0.9
Mode: 0
LetterboxInBreaks: 0
WidescreenStoryboard: 1

[Editor]
Bookmarks: 2240,17440,23840,31840,38240,46240,60691,76691,83091,100291,111840,118290,135440
DistanceSpacing: 0.6
BeatDivisor: 4
GridSize: 4
TimelineZoom: 4.299998

[Metadata]
Title:Punk Rock Girl
TitleUnicode:Punk Rock Girl
Artist:Streetlight Manifesto
ArtistUnicode:Streetlight Manifesto
Creator:Milan-
Version:pishi's Extra
Source:
Tags:pho pishifat punk jazz ska
BeatmapID:1225554
BeatmapSetID:577394

[Difficulty]
HPDrainRate:5
CircleSize:5
OverallDifficulty:8.6
ApproachRate:9.2
SliderMultiplier:2
SliderTickRate:1

[Events]
//Background and Video events
0,0,"a.jpg",0,0
//Break Periods
//Storyboard Layer 0 (Background)
//Storyboard Layer 1 (Fail)
//Storyboard Layer 2 (Pass)
//Storyboard Layer 3 (Foreground)
//Storyboard Sound Samples

[TimingPoints]
691,200,4,2,1,60,1,0
2091,-100,4,2,1,60,0,0
2291,-200,4,2,1,60,0,0
2491,-111.111111111111,4,2,1,60,0,0
3891,-200,4,2,1,60,0,0
4091,-111.111111111111,4,2,1,60,0,0
7091,-100,4,2,1,60,0,0
7291,-200,4,2,1,60,0,0
8891,-111.111111111111,4,2,1,60,0,0
10291,-200,4,2,1,60,0,0
10491,-111.111111111111,4,2,1,60,0,0
17491,-200,4,2,1,50,0,0
17691,-151.515151515152,4,2,1,50,0,0
20691,-200,4,2,1,50,0,0
20891,-151.515151515152,4,2,1,50,0,0
23491,-151.515151515152,4,2,1,55,0,0
23891,-100,4,2,1,60,0,1
27091,-133.333333333333,4,2,1,60,0,1
28691,-100,4,2,1,55,0,1
29091,-117.647058823529,4,2,1,55,0,1
31891,-151.515151515152,4,2,1,50,0,0
35091,-200,4,2,1,50,0,0
35291,-151.515151515152,4,2,1,50,0,0
37891,-151.515151515152,4,2,1,55,0,0
38291,-100,4,2,1,60,0,1
41491,-133.333333333333,4,2,1,60,0,1
43091,-100,4,2,1,55,0,1
43391,-117.647058823529,4,2,1,55,0,1
46291,-133.333333333333,4,2,1,50,0,0
47891,-200,4,2,1,50,0,0
48091,-133.333333333333,4,2,1,50,0,0
60291,-181.818181818181,4,2,1,50,0,0
60691,-285.714285714286,4,2,1,45,0,0
73891,-238.095238095238,4,2,1,45,0,0
74291,-200,4,2,1,50,0,0
75091,-100,4,2,1,55,0,0
75891,-100,4,2,1,60,0,0
76491,-153.846153846154,4,2,1,60,0,0
76691,-200,4,2,1,50,0,0
76891,-151.515151515152,4,2,1,50,0,0
82691,-151.515151515152,4,2,1,55,0,0
83091,-100,4,2,1,60,0,1
86291,-133.333333333333,4,2,1,60,0,1
87891,-100,4,2,1,60,0,1
88291,-117.647058823529,4,2,1,60,0,1
89491,-133.333333333333,4,2,1,60,0,1
91091,-100,4,2,1,60,0,1
91491,-117.647058823529,4,2,1,60,0,1
92691,-133.333333333333,4,2,1,60,0,1
94291,-100,4,2,1,55,0,1
99941,-100,4,2,1,5,0,1
99991,-100,4,2,1,55,0,1
100141,-100,4,2,1,5,0,1
100191,-100,4,2,1,55,0,1
100291,-100,4,2,1,55,0,0
100341,-100,4,2,1,5,0,0

[Colours]
Combo1 : 194,145,255
Combo2 : 255,177,125
Combo3 : 140,255,252
Combo4 : 207,255,119

[HitObjects]
101,64,2091,5,8,0:0:0:0:
101,64,2191,1,8,0:3:0:0:
101,64,2291,2,0,L|112:7,1,50,4|0,0:0|0:0,0:0:0:0:
110,14,2491,6,0,B|99:71|99:71|132:124|132:124|113:212,1,179.999994506836,10|0,0:1|0:0,0:0:0:0:
56,142,2791,1,0,0:0:0:0:
199,155,2891,2,0,P|188:168|96:169,1,89.9999972534181,10|0,0:1|0:0,0:0:0:0:
6,207,3091,6,0,P|81:181|94:259,1,179.999994506836,2|8,0:1|0:0,0:0:0:0:
182,257,3391,2,0,P|257:282|270:204,1,179.999994506836,2|0,0:1|0:0,0:0:0:0:
372,97,3691,2,0,P|341:166|353:200,1,89.9999972534181,10|0,0:1|0:0,0:0:0:0:
302,271,3891,6,0,L|359:282,1,50,0|0,0:0|0:0,0:0:0:0:
351,280,4091,5,10,0:1:0:0:
286,284,4191,1,2,0:1:0:0:
236,333,4291,2,0,P|194:360|145:350,1,89.9999972534181,2|0,0:1|0:0,0:0:0:0:
20,275,4491,2,0,P|62:302|111:292,1,89.9999972534181,10|0,0:1|0:0,0:0:0:0:
228,234,4691,6,0,B|178:200|178:200|119:217|119:217|43:172,1,179.999994506836,2|8,0:1|0:0,0:0:0:0:
35,118,4991,1,0,0:0:0:0:
230,140,5091,2,0,B|124:201|124:201|32:177,1,179.999994506836,2|8,0:1|0:0,0:0:0:0:
110,122,5391,1,0,0:0:0:0:
228,234,5491,6,0,P|283:231|320:186,1,89.9999972534181,2|0,0:1|0:0,0:0:0:0:
342,92,5691,2,0,P|303:124|387:178,1,179.999994506836,10|0,0:1|0:0,0:0:0:0:
417,268,5991,1,0,0:0:0:0:
417,268,6091,2,0,P|362:271|325:316,1,89.9999972534181,10|0,0:1|0:0,0:0:0:0:
213,310,6291,6,0,B|162:288|162:288|141:132,1,179.999994506836,2|8,0:1|0:0,0:0:0:0:
77,75,6591,2,0,B|60:198|60:198|9:220,1,179.999994506836,2|0,0:1|0:0,0:0:0:0:
145,165,6891,2,0,P|205:181|223:211,1,89.9999972534181,10|0,0:1|0:0,0:0:0:0:
77,316,7091,5,8,0:3:0:0:
77,316,7191,1,4,0:3:0:0:
77,316,7291,2,0,L|88:259,1,50,0|0,0:0|0:3,0:0:0:0:
146,372,7491,1,8,0:3:0:0:
146,372,7591,1,4,0:3:0:0:
146,372,7691,2,0,L|157:315,1,50,8|0,0:0|0:0,0:0:0:0:
295,243,7891,5,8,0:3:0:0:
295,243,7991,1,4,0:3:0:0:
295,243,8091,2,0,L|306:300,1,50,8|0,0:0|0:0,0:0:0:0:
225,281,8291,1,8,0:3:0:0:
225,281,8391,1,4,0:3:0:0:
225,281,8491,2,0,L|236:338,1,50,8|0,0:0|0:0,0:0:0:0:
366,93,8691,6,0,L|316:83,1,50,4|0,0:0|0:0,0:0:0:0:
316,83,8891,6,0,B|372:94|372:94|399:149|399:149|492:166,1,179.999994506836,10|0,0:1|0:0,0:0:0:0:
449,84,9191,1,0,0:0:0:0:
413,227,9291,2,0,P|455:192|451:131,1,89.9999972534181,10|0,0:1|0:0,0:0:0:0:
275,22,9491,6,0,P|203:79|270:116,1,179.999994506836,2|8,0:1|0:0,0:0:0:0:
235,223,9791,2,0,P|240:144|162:153,1,179.999994506836,2|0,0:1|0:0,0:0:0:0:
114,88,10091,2,0,P|45:118|35:160,1,89.9999972534181,10|0,0:1|0:0,0:0:0:0:
107,236,10291,6,0,L|169:229,1,50,0|0,0:0|0:0,0:0:0:0:
156,230,10491,5,10,0:1:0:0:
99,274,10591,1,2,0:1:0:0:
129,339,10691,2,0,P|195:331|224:296,1,89.9999972534181,2|0,0:1|0:0,0:0:0:0:
383,289,10891,2,0,P|317:281|288:246,1,89.9999972534181,10|0,0:1|0:0,0:0:0:0:
185,77,11091,6,0,B|248:118|248:118|231:259,1,179.999994506836,2|8,0:1|0:0,0:0:0:0:
172,157,11391,1,0,0:0:0:0:
332,88,11491,2,0,B|314:143|314:143|252:167|252:167|232:230,1,179.999994506836,2|8,0:1|0:0,0:0:0:0:
210,317,11791,1,8,0:0:0:0:
383,289,11891,6,0,P|379:243|339:208,1,89.9999972534181,6|0,0:1|0:0,0:0:0:0:
284,308,12091,2,0,P|362:309|347:232,1,179.999994506836,10|0,0:1|0:0,0:0:0:0:
478,125,12391,1,0,0:0:0:0:
478,125,12491,2,0,P|428:154|370:143,1,89.9999972534181,10|10,0:1|0:1,0:0:0:0:
189,190,12691,6,0,P|175:145|199:98,1,89.9999972534181,6|0,0:1|0:0,0:0:0:0:
287,170,12891,2,0,P|214:200|200:123,1,179.999994506836,10|0,0:1|0:0,0:0:0:0:
88,4,13191,1,0,0:0:0:0:
88,4,13291,2,0,P|138:33|196:22,1,89.9999972534181,10|10,0:1|0:1,0:0:0:0:
338,8,13491,6,0,L|235:19,1,89.9999972534181,6|0,0:1|0:0,0:0:0:0:
94,80,13691,2,0,B|150:75|150:75|192:34|192:34|292:24,1,179.999994506836,10|0,0:1|0:0,0:0:0:0:
398,76,13991,1,0,0:0:0:0:
398,76,14091,2,0,L|295:87,1,89.9999972534181,10|10,0:1|0:1,0:0:0:0:
137,153,14291,6,0,L|240:164,1,89.9999972534181,6|0,0:1|0:0,0:0:0:0:
381,225,14491,2,0,B|325:220|325:220|283:179|283:179|183:169,1,179.999994506836,10|0,0:1|0:0,0:0:0:0:
74,221,14791,1,0,0:0:0:0:
74,221,14891,2,0,L|177:232,1,89.9999972534181,10|10,0:1|0:1,0:0:0:0:
404,319,15091,6,0,P|339:339|293:314,1,89.9999972534181,6|0,0:1|0:0,0:0:0:0:
248,254,15291,2,0,P|325:242|314:319,1,179.999994506836,10|0,0:1|0:0,0:0:0:0:
219,384,15591,1,0,0:0:0:0:
219,384,15691,2,0,P|188:339|197:290,1,89.9999972534181,10|10,0:1|0:1,0:0:0:0:
320,115,15891,6,0,P|255:95|209:120,1,89.9999972534181,6|0,0:1|0:0,0:0:0:0:
248,254,16091,2,0,P|232:187|188:160,1,89.9999972534181,4|0,0:3|0:0,0:0:0:0:
79,161,16291,1,8,0:0:0:0:
115,188,16391,1,8,0:0:0:0:
142,152,16491,1,8,0:0:0:0:
106,125,16591,1,8,0:0:0:0:
111,155,16691,5,8,0:3:0:0:
114,183,16791,1,0,0:3:0:0:
118,212,16891,1,8,0:3:0:0:
122,241,16991,1,0,0:3:0:0:
100,309,17091,5,8,0:2:0:0:
143,366,17191,1,8,0:2:0:0:
213,372,17291,1,8,0:3:0:0:
252,359,17391,1,4,0:3:0:0:
292,345,17491,6,0,L|299:282,1,50,4|0,0:0|0:0,0:0:0:0:
297,295,17691,6,0,P|351:283|368:262,1,65.999999798584,8|0,0:0|0:0,0:0:0:0:
473,241,17891,1,0,0:0:0:0:
473,241,17991,2,0,P|419:228|402:207,1,65.999999798584,0|8,0:0|0:0,0:0:0:0:
317,121,18191,1,0,0:0:0:0:
383,154,18291,6,0,P|320:140|303:203,1,131.999999597168,2|8,0:0|0:0,0:0:0:0:
240,242,18591,1,0,0:0:0:0:
240,242,18691,2,0,P|197:213|163:216,1,65.999999798584,0|0,0:0|0:0,0:0:0:0:
95,136,18891,2,0,P|63:143|39:166,1,65.999999798584,8|0,0:0|0:0,0:0:0:0:
11,311,19091,6,0,P|12:275|-10:237,1,65.999999798584,2|0,0:0|0:0,0:0:0:0:
104,208,19291,2,0,P|105:244|83:282,1,65.999999798584,8|0,0:0|0:0,0:0:0:0:
128,355,19491,2,0,P|156:332|171:291,1,65.999999798584,0|0,0:0|0:0,0:0:0:0:
272,326,19691,2,0,P|252:352|223:367,1,65.999999798584,8|0,0:0|0:0,0:0:0:0:
341,277,19891,6,0,P|418:262|421:320,1,131.999999597168,2|8,0:0|0:0,0:0:0:0:
504,369,20191,1,0,0:0:0:0:
504,369,20291,2,0,P|499:336|512:306,1,65.999999798584,2|2,0:0|0:0,0:0:0:0:
479,169,20491,2,0,P|491:198|487:231,1,65.999999798584,10|0,0:0|0:0,0:0:0:0:
400,172,20691,6,0,L|391:106,1,50,2|0,0:0|0:0,0:0:0:0:
393,122,20891,6,0,P|339:102|308:115,1,65.999999798584,8|0,0:0|0:0,0:0:0:0:
209,71,21091,1,2,0:0:0:0:
209,71,21191,2,0,P|263:50|294:63,1,65.999999798584,2|10,0:0|0:0,0:0:0:0:
295,172,21391,1,0,0:0:0:0:
222,184,21491,6,0,P|286:189|291:249,1,131.999999597168,2|8,0:0|0:0,0:0:0:0:
384,304,21791,1,0,0:0:0:0:
384,304,21891,2,0,P|327:317|295:303,1,65.999999798584,2|0,0:0|0:0,0:0:0:0:
199,359,22091,2,0,P|229:371|262:369,1,65.999999798584,8|0,0:0|0:0,0:0:0:0:
166,237,22291,6,0,P|148:271|157:324,1,65.999999798584,2|0,0:0|0:0,0:0:0:0:
56,235,22491,2,0,P|74:207|102:191,1,65.999999798584,8|0,0:0|0:0,0:0:0:0:
85,114,22691,2,0,P|46:115|5:149,1,65.999999798584,2|0,0:0|0:0,0:0:0:0:
33,18,22891,2,0,P|65:20|93:36,1,65.999999798584,8|8,0:0|0:0,0:0:0:0:
238,156,23091,5,10,0:0:0:0:
267,163,23191,1,8,0:0:0:0:
297,159,23291,1,8,0:0:0:0:
322,142,23391,1,8,0:0:0:0:
368,89,23491,5,12,0:1:0:0:
353,138,23591,1,8,0:0:0:0:
373,186,23691,1,8,0:0:0:0:
419,207,23791,1,8,0:0:0:0:
488,230,23891,6,0,B|425:221|425:221|363:266|363:266|272:251,1,200,6|8,0:1|0:0,0:0:0:0:
229,235,24191,1,0,0:0:0:0:
326,345,24291,2,0,P|333:304|274:244,1,100,2|0,0:0|0:0,0:0:0:0:
72,207,24491,1,8,0:0:0:0:
85,246,24591,1,8,0:0:0:0:
97,285,24691,6,0,P|137:308|206:286,1,100,10|8,0:0|0:0,0:0:0:0:
149,92,24891,2,0,P|157:138|218:176,1,100,8|8,0:0|0:0,0:0:0:0:
310,117,25091,5,12,0:1:0:0:
286,161,25191,1,8,0:0:0:0:
284,210,25291,1,8,0:0:0:0:
303,255,25391,1,8,0:0:0:0:
369,298,25491,6,0,B|415:268|415:268|434:182|434:182|500:145,1,200,6|8,0:1|0:0,0:0:0:0:
501,233,25791,1,0,0:0:0:0:
437,74,25891,2,0,P|474:105|483:153,1,100,2|0,0:0|0:0,0:0:0:0:
375,304,26091,1,8,0:0:0:0:
375,304,26191,1,0,0:0:0:0:
375,304,26291,6,0,P|412:273|421:225,1,100,2|0,0:0|0:0,0:0:0:0:
195,223,26491,2,0,P|243:222|281:191,1,100,8|0,0:0|0:0,0:0:0:0:
270,68,26691,1,2,0:0:0:0:
270,68,26791,1,0,0:0:0:0:
270,68,26891,1,8,0:0:0:0:
298,109,26991,1,8,0:0:0:0:
345,130,27091,6,0,L|430:118,1,75.0000028610231,6|0,0:1|0:0,0:0:0:0:
221,248,27291,1,8,0:0:0:0:
243,202,27391,1,8,0:0:0:0:
238,151,27491,6,0,L|185:83,1,75.0000028610231,14|8,0:1|0:0,0:0:0:0:
403,201,27691,1,8,0:0:0:0:
352,204,27791,1,8,0:0:0:0:
310,234,27891,6,0,L|277:313,1,75.0000028610231,6|8,0:1|0:0,0:0:0:0:
330,146,28091,5,8,0:3:0:0:
257,159,28191,1,4,0:3:0:0:
306,215,28291,1,8,0:3:0:0:
320,156,28391,1,4,0:3:0:0:
269,164,28491,1,8,0:3:0:0:
303,203,28591,1,4,0:3:0:0:
296,181,28691,6,0,B|239:168|239:168|175:213|175:213|78:191,1,200,6|8,0:0|0:0,0:0:0:0:
52,156,28991,1,0,0:0:0:0:
141,323,29091,2,0,P|171:278|159:215,1,85.0000016212464,2|0,0:0|0:0,0:0:0:0:
153,47,29291,1,8,0:0:0:0:
157,89,29391,1,8,0:0:0:0:
162,131,29491,5,10,0:0:0:0:
182,93,29591,1,8,0:0:0:0:
178,50,29691,1,8,0:3:0:0:
149,18,29791,5,4,0:3:0:0:
130,56,29891,1,8,0:3:0:0:
134,98,29991,1,4,0:3:0:0:
162,131,30091,5,8,0:3:0:0:
168,173,30191,1,4,0:3:0:0:
176,214,30291,6,0,P|235:240|275:226,1,85.0000016212464,6|0,0:0|0:0,0:0:0:0:
368,218,30491,1,8,0:0:0:0:
368,218,30591,1,0,0:0:0:0:
368,218,30691,5,2,0:0:0:0:
338,235,30791,1,0,0:0:0:0:
321,264,30891,1,8,0:0:0:0:
317,297,30991,1,8,0:0:0:0:
324,329,31091,5,10,0:0:0:0:
282,297,31191,1,8,0:0:0:0:
231,285,31291,1,10,0:0:0:0:
181,301,31391,1,8,0:0:0:0:
141,334,31491,5,10,0:0:0:0:
179,281,31591,1,8,0:0:0:0:
200,218,31691,1,10,0:0:0:0:
193,152,31791,1,8,0:0:0:0:
159,93,31891,6,0,P|127:107|82:99,1,65.999999798584,4|0,0:0|0:0,0:0:0:0:
1,79,32091,1,8,0:0:0:0:
1,79,32191,2,0,P|56:100|39:160,1,131.999999597168,0|0,0:0|0:0,0:0:0:0:
80,222,32491,2,0,P|112:236|157:228,1,65.999999798584,8|0,0:0|0:0,0:0:0:0:
284,181,32691,6,0,P|316:167|361:175,1,65.999999798584,2|0,0:0|0:0,0:0:0:0:
217,215,32891,1,8,0:0:0:0:
217,215,32991,2,0,P|274:197|297:253,1,131.999999597168,0|0,0:0|0:0,0:0:0:0:
316,329,33291,2,0,P|283:330|253:316,1,65.999999798584,8|0,0:0|0:0,0:0:0:0:
385,245,33491,6,0,P|425:288|429:315,1,65.999999798584,2|0,0:0|0:0,0:0:0:0:
508,217,33691,2,0,P|480:199|448:196,1,65.999999798584,8|0,0:0|0:0,0:0:0:0:
404,132,33891,2,0,P|461:118|486:128,1,65.999999798584,0|0,0:0|0:0,0:0:0:0:
446,7,34091,2,0,P|417:22|398:49,1,65.999999798584,8|0,0:0|0:0,0:0:0:0:
315,151,34291,6,0,P|269:145|239:120,1,65.999999798584,2|0,0:0|0:0,0:0:0:0:
198,49,34491,1,8,0:0:0:0:
198,49,34591,2,0,P|225:97|158:125,1,131.999999597168,0|2,0:0|0:0,0:0:0:0:
60,178,34891,2,0,P|92:179|121:197,1,65.999999798584,10|0,0:0|0:0,0:0:0:0:
221,204,35091,6,0,L|230:269,1,50,2|0,0:0|0:0,0:0:0:0:
227,253,35291,6,0,P|195:254|163:273,1,65.999999798584,8|0,0:0|0:0,0:0:0:0:
296,371,35491,2,0,P|328:370|360:351,1,65.999999798584,2|2,0:0|0:0,0:0:0:0:
471,312,35691,2,0,P|439:311|407:292,1,65.999999798584,10|0,0:0|0:0,0:0:0:0:
294,224,35891,6,0,P|332:225|373:259,1,65.999999798584,2|0,0:0|0:0,0:0:0:0:
473,164,36091,1,8,0:0:0:0:
473,164,36191,1,0,0:0:0:0:
473,164,36291,2,0,P|439:165|411:181,1,65.999999798584,2|0,0:0|0:0,0:0:0:0:
305,296,36491,2,0,P|271:294|243:278,1,65.999999798584,8|0,0:0|0:0,0:0:0:0:
241,166,36691,6,0,P|274:147|327:155,1,65.999999798584,2|0,0:0|0:0,0:0:0:0:
237,56,36891,2,0,P|209:74|193:102,1,65.999999798584,8|0,0:0|0:0,0:0:0:0:
116,86,37091,2,0,P|116:46|149:5,1,65.999999798584,2|0,0:0|0:0,0:0:0:0:
18,36,37291,2,0,P|20:67|37:95,1,65.999999798584,8|8,0:0|0:0,0:0:0:0:
174,231,37491,5,10,0:0:0:0:
152,210,37591,1,8,0:0:0:0:
124,198,37691,1,8,0:0:0:0:
94,199,37791,1,8,0:0:0:0:
31,225,37891,5,12,0:1:0:0:
65,189,37991,1,8,0:0:0:0:
65,138,38091,1,8,0:0:0:0:
37,96,38191,1,8,0:0:0:0:
1,158,38291,6,0,B|59:166|59:166|128:127|128:127|226:138,1,200,6|8,0:1|0:0,0:0:0:0:
253,172,38591,1,0,0:0:0:0:
212,45,38691,2,0,P|184:85|189:134,1,100,2|0,0:0|0:0,0:0:0:0:
446,201,38891,1,8,0:0:0:0:
430,160,38991,1,0,0:0:0:0:
415,119,39091,6,0,P|369:115|315:164,1,100,2|0,0:0|0:0,0:0:0:0:
459,326,39291,2,0,P|432:288|360:279,1,100,8|8,0:0|0:0,0:0:0:0:
302,384,39491,5,12,0:1:0:0:
306,335,39591,1,8,0:0:0:0:
284,290,39691,1,8,0:0:0:0:
242,263,39791,1,8,0:0:0:0:
169,248,39891,6,0,B|161:187|161:187|210:120|210:120|200:37,1,200,6|8,0:1|0:0,0:0:0:0:
158,4,40191,1,0,0:0:0:0:
293,90,40291,2,0,P|243:60|173:86,1,100,2|0,0:0|0:0,0:0:0:0:
14,167,40491,2,0,P|64:137|134:163,1,100,8|8,0:0|0:0,0:0:0:0:
197,320,40691,6,0,P|147:322|107:294,1,100,10|8,0:0|0:0,0:0:0:0:
208,164,40891,1,4,0:3:0:0:
238,203,40991,1,8,0:3:0:0:
199,227,41091,1,4,0:3:0:0:
172,191,41191,1,8,0:3:0:0:
238,203,41291,5,8,0:3:0:0:
286,207,41391,1,4,0:3:0:0:
331,184,41491,6,0,L|382:114,1,75.0000028610231,6|0,0:1|0:0,0:0:0:0:
360,358,41691,1,8,0:0:0:0:
340,313,41791,1,8,0:0:0:0:
297,285,41891,6,0,L|210:274,1,75.0000028610231,14|0,0:1|0:0,0:0:0:0:
430,174,42091,1,8,0:0:0:0:
400,213,42191,1,8,0:0:0:0:
398,264,42291,6,0,L|432:342,1,75.0000028610231,6|0,0:1|0:0,0:0:0:0:
480,115,42491,2,0,P|421:96|385:109,1,75.0000028610231,8|8,0:0|0:0,0:0:0:0:
272,161,42691,1,8,0:3:0:0:
308,188,42791,1,4,0:3:0:0:
335,152,42891,1,8,0:3:0:0:
299,125,42991,1,4,0:3:0:0:
304,157,43091,6,0,B|251:166|251:166|174:118|174:118|94:135,1,200,6|8,0:0|0:0,0:0:0:0:
158,197,43391,1,0,0:0:0:0:
210,17,43491,2,0,P|188:52|190:94,1,85.0000016212464,2|0,0:0|0:0,0:0:0:0:
277,309,43691,1,8,0:0:0:0:
319,308,43791,1,8,0:0:0:0:
349,277,43891,5,10,0:0:0:0:
306,280,43991,1,8,0:0:0:0:
292,320,44091,1,8,0:0:0:0:
322,350,44191,5,8,0:0:0:0:
329,308,44291,1,10,0:0:0:0:
295,281,44391,1,8,0:0:0:0:
257,300,44491,5,8,0:0:0:0:
214,297,44591,1,8,0:0:0:0:
177,274,44691,6,0,P|155:238|157:196,1,85.0000016212464,6|0,0:0|0:0,0:0:0:0:
215,42,44891,1,8,0:0:0:0:
215,42,44991,1,0,0:0:0:0:
215,42,45091,5,2,0:0:0:0:
204,74,45191,1,0,0:0:0:0:
179,97,45291,1,8,0:0:0:0:
147,105,45391,1,8,0:0:0:0:
114,101,45491,5,10,0:0:0:0:
167,105,45591,1,8,0:0:0:0:
213,130,45691,1,8,0:3:0:0:
239,176,45791,1,4,0:3:0:0:
238,227,45891,5,8,0:3:0:0:
248,195,45991,1,4,0:3:0:0:
271,170,46091,1,8,0:3:0:0:
302,155,46191,1,4,0:3:0:0:
339,160,46291,6,0,P|398:150|424:118,1,75.0000028610231,6|0,0:1|0:0,0:0:0:0:
405,256,46491,1,10,0:0:0:0:
405,256,46591,1,2,0:0:0:0:
405,256,46691,2,0,P|451:217|457:177,1,75.0000028610231,2|0,0:1|0:0,0:0:0:0:
510,305,46891,1,10,0:0:0:0:
510,305,46991,1,2,0:0:0:0:
510,305,47091,6,0,P|530:248|516:210,1,75.0000028610231,2|0,0:1|0:0,0:0:0:0:
339,160,47291,2,0,P|398:150|424:118,1,75.0000028610231,10|0,0:0|0:0,0:0:0:0:
405,256,47491,2,0,P|451:217|457:177,1,75.0000028610231,2|0,0:1|0:0,0:0:0:0:
317,47,47691,2,0,P|373:67|411:53,1,75.0000028610231,10|0,0:0|0:0,0:0:0:0:
494,3,47891,6,0,L|429:-5,1,50,0|0,0:0|0:0,0:0:0:0:
444,0,48091,6,0,P|517:8|496:69,1,150.000005722046,10|0,0:1|0:0,0:0:0:0:
508,148,48391,1,0,0:0:0:0:
508,148,48491,2,0,P|459:130|418:144,1,75.0000028610231,10|0,0:1|0:0,0:0:0:0:
337,122,48691,6,0,P|296:155|288:197,1,75.0000028610231,2|0,0:1|0:0,0:0:0:0:
350,337,48891,1,10,0:0:0:0:
333,269,48991,2,0,P|320:214|245:240,1,150.000005722046,2|0,0:1|0:0,0:0:0:0:
177,272,49291,2,0,P|146:251|129:218,1,75.0000028610231,10|0,0:1|0:0,0:0:0:0:
187,58,49491,6,0,P|233:96|239:136,1,75.0000028610231,2|0,0:1|0:0,0:0:0:0:
292,7,49691,1,8,0:0:0:0:
292,7,49791,1,2,0:0:0:0:
292,7,49891,2,0,P|312:63|297:101,1,75.0000028610231,2|0,0:1|0:0,0:0:0:0:
407,17,50091,1,10,0:0:0:0:
407,17,50191,1,2,0:0:0:0:
407,17,50291,6,0,P|395:76|364:102,1,75.0000028610231,2|0,0:1|0:0,0:0:0:0:
187,58,50491,2,0,P|233:96|239:136,1,75.0000028610231,10|0,0:0|0:0,0:0:0:0:
292,7,50691,2,0,P|312:63|297:101,1,75.0000028610231,2|0,0:1|0:0,0:0:0:0:
111,144,50891,2,0,P|169:154|195:185,1,75.0000028610231,10|0,0:0|0:0,0:0:0:0:
298,186,51091,6,0,P|330:204|367:205,1,75.0000028610231,2|0,0:1|0:0,0:0:0:0:
391,309,51291,2,0,P|373:243|438:223,1,150.000005722046,10|0,0:1|0:0,0:0:0:0:
505,122,51591,1,0,0:0:0:0:
505,122,51691,2,0,P|473:140|436:141,1,75.0000028610231,10|8,0:0|0:0,0:0:0:0:
319,49,51891,5,14,0:1:0:0:
266,47,51991,1,8,0:0:0:0:
221,74,52091,1,8,0:0:0:0:
205,125,52191,1,8,0:0:0:0:
278,115,52291,5,14,0:1:0:0:
248,69,52391,1,8,0:0:0:0:
196,57,52491,1,8,0:0:0:0:
147,73,52591,1,8,0:0:0:0:
132,146,52691,6,0,B|148:186|148:186|120:243|120:243|144:312,1,150.000005722046,6|8,0:1|0:0,0:0:0:0:
197,338,52991,1,0,0:0:0:0:
197,338,53091,2,0,P|226:315|263:311,1,75.0000028610231,0|0,0:0|0:0,0:0:0:0:
366,234,53291,2,0,P|336:211|299:207,1,75.0000028610231,10|0,0:1|0:0,0:0:0:0:
374,383,53491,6,0,P|425:377|404:294,1,150.000005722046,2|8,0:1|0:0,0:0:0:0:
510,201,53791,2,0,P|473:205|443:228,1,75.0000028610231,10|8,0:1|0:1,0:0:0:0:
339,305,53991,1,8,0:0:0:0:
339,305,54091,2,0,P|302:300|272:277,1,75.0000028610231,10|8,0:1|0:0,0:0:0:0:
250,70,54291,6,0,P|286:106|289:146,1,75.0000028610231,6|0,0:1|0:0,0:0:0:0:
336,232,54491,2,0,P|349:182|382:160,1,75.0000028610231,8|0,0:0|0:0,0:0:0:0:
431,78,54691,2,0,P|381:91|345:73,1,75.0000028610231,0|0,0:0|0:0,0:0:0:0:
239,195,54891,1,10,0:1:0:0:
239,195,54991,1,8,0:0:0:0:
239,195,55091,5,14,0:1:0:0:
197,176,55191,1,8,0:0:0:0:
154,191,55291,1,8,0:3:0:0:
160,220,55391,1,4,0:3:0:0:
154,249,55491,1,8,0:3:0:0:
138,274,55591,1,4,0:3:0:0:
113,290,55691,1,8,0:3:0:0:
83,296,55791,1,4,0:3:0:0:
18,251,55891,6,0,P|46:226|82:220,1,75.0000028610231,12|8,0:1|0:0,0:0:0:0:
286,316,56091,1,10,0:1:0:0:
286,316,56191,1,8,0:0:0:0:
286,316,56291,2,0,P|257:291|221:285,1,75.0000028610231,12|8,0:0|0:0,0:0:0:0:
35,361,56491,1,10,0:1:0:0:
35,361,56591,1,8,0:0:0:0:
35,361,56691,5,14,0:1:0:0:
79,369,56791,1,8,0:0:0:0:
120,351,56891,1,8,0:0:0:0:
141,311,56991,1,8,0:0:0:0:
138,266,57091,5,8,0:3:0:0:
143,244,57191,1,4,0:3:0:0:
154,224,57291,1,8,0:3:0:0:
172,211,57391,1,4,0:3:0:0:
211,276,57491,6,0,P|243:292|275:208,1,150.000005722046,6|8,0:1|0:0,0:0:0:0:
360,78,57791,1,0,0:0:0:0:
360,78,57891,2,0,P|330:97|386:167,1,150.000005722046,2|8,0:1|0:0,0:0:0:0:
512,223,58191,1,0,0:0:0:0:
512,223,58291,6,0,P|459:205|423:221,1,75.0000028610231,2|0,0:1|0:0,0:0:0:0:
347,340,58491,2,0,P|404:304|367:248,1,150.000005722046,8|0,0:0|0:0,0:0:0:0:
377,171,58791,1,0,0:0:0:0:
377,171,58891,2,0,P|319:182|292:222,1,75.0000028610231,8|8,0:0|0:0,0:0:0:0:
213,315,59091,5,10,0:1:0:0:
168,307,59191,1,8,0:0:0:0:
133,277,59291,1,10,0:1:0:0:
120,233,59391,1,8,0:0:0:0:
129,189,59491,1,8,0:0:0:0:
159,156,59591,1,8,0:0:0:0:
201,142,59691,5,8,0:3:0:0:
176,125,59791,1,4,0:3:0:0:
146,123,59891,1,8,0:3:0:0:
119,136,59991,1,4,0:3:0:0:
90,145,60091,1,8,0:3:0:0:
60,142,60191,1,4,0:3:0:0:
33,127,60291,2,0,L|24:55,2,55.0000016784668,8|0|0,0:0|0:0|0:0,0:0:0:0:
280,364,60691,6,0,P|285:301|298:220,1,139.999995727539,4|10,0:0|0:0,0:0:0:0:
208,57,61391,1,8,0:0:0:0:
208,57,61491,2,0,P|221:106|223:129,1,69.9999978637696,2|0,0:0|0:0,0:0:0:0:
222,125,61791,1,0,0:0:0:0:
222,125,61891,2,0,P|187:129|153:139,1,69.9999978637696,10|0,0:0|0:0,0:0:0:0:
0,247,62291,6,0,P|73:263|113:263,1,104.999996795654,6|0,0:0|0:0,0:0:0:0:
103,263,62691,1,10,0:0:0:0:
217,216,62891,1,0,0:0:0:0:
217,216,62991,1,8,0:0:0:0:
217,216,63091,2,0,P|227:249|231:284,1,69.9999978637696,2|0,0:0|0:0,0:0:0:0:
231,284,63391,1,0,0:0:0:0:
231,284,63491,2,0,P|265:288|299:298,1,69.9999978637696,8|0,0:0|0:0,0:0:0:0:
471,348,63891,6,0,P|454:266|454:238,1,104.999996795654,6|0,0:0|0:0,0:0:0:0:
453,245,64291,1,10,0:0:0:0:
352,51,64591,1,8,0:0:0:0:
352,51,64691,2,0,L|348:88,1,34.9999989318848,2|0,0:0|0:0,0:0:0:0:
276,78,64891,2,0,L|279:112,1,34.9999989318848,0|0,0:0|0:0,0:0:0:0:
205,108,65091,2,0,P|171:97|136:93,1,69.9999978637696,10|0,0:0|0:0,0:0:0:0:
158,300,65491,6,0,P|221:278|269:275,1,104.999996795654,6|0,0:0|0:0,0:0:0:0:
258,274,65891,1,10,0:0:0:0:
95,185,66191,1,8,0:0:0:0:
95,185,66291,2,0,P|128:195|163:199,1,69.9999978637696,2|0,0:0|0:0,0:0:0:0:
163,199,66591,1,0,0:0:0:0:
163,199,66691,2,0,P|196:188|231:184,1,69.9999978637696,10|0,0:0|0:0,0:0:0:0:
442,95,67091,6,0,P|343:86|326:79,1,104.999996795654,6|0,0:0|0:0,0:0:0:0:
338,84,67491,1,10,0:0:0:0:
389,200,67691,1,0,0:0:0:0:
389,200,67791,1,8,0:0:0:0:
389,200,67891,2,0,P|378:233|374:268,1,69.9999978637696,2|0,0:0|0:0,0:0:0:0:
374,268,68191,1,0,0:0:0:0:
374,268,68291,2,0,P|339:272|305:282,1,69.9999978637696,10|0,0:0|0:0,0:0:0:0:
139,357,68691,6,0,P|82:351|33:340,1,104.999996795654,6|0,0:0|0:0,0:0:0:0:
35,340,69091,1,10,0:0:0:0:
128,234,69291,1,0,0:0:0:0:
128,234,69391,1,8,0:0:0:0:
128,234,69491,2,0,P|94:244|59:248,1,69.9999978637696,2|0,0:0|0:0,0:0:0:0:
59,248,69791,1,0,0:0:0:0:
59,248,69891,2,0,P|54:213|44:179,1,69.9999978637696,10|0,0:0|0:0,0:0:0:0:
227,12,70291,6,0,P|216:45|210:125,1,104.999996795654,6|0,0:0|0:0,0:0:0:0:
209,114,70691,1,10,0:0:0:0:
332,78,70891,1,0,0:0:0:0:
332,78,70991,1,8,0:0:0:0:
332,78,71091,2,0,P|365:88|400:92,1,69.9999978637696,2|0,0:0|0:0,0:0:0:0:
400,92,71391,1,0,0:0:0:0:
400,92,71491,2,0,P|410:125|414:160,1,69.9999978637696,10|0,0:0|0:0,0:0:0:0:
282,278,71891,6,0,P|221:255|171:251,1,104.999996795654,6|0,0:0|0:0,0:0:0:0:
181,250,72291,1,10,0:0:0:0:
213,370,72491,1,0,0:0:0:0:
213,370,72591,1,8,0:0:0:0:
213,370,72691,2,0,P|178:374|144:384,1,69.9999978637696,2|0,0:0|0:0,0:0:0:0:
144,384,72991,1,0,0:0:0:0:
144,384,73091,2,0,P|133:350|129:315,1,69.9999978637696,10|0,0:0|0:0,0:0:0:0:
112,44,73491,6,0,P|99:142|93:158,1,104.999996795654,6|0,0:0|0:0,0:0:0:0:
97,147,73891,2,0,P|143:122|217:102,1,125.999996154785,10|8,0:0|0:0,0:0:0:0:
213,102,74291,2,0,P|243:108|268:108,2,50,2|0|0,0:0|0:0|0:0,0:0:0:0:
129,221,74691,2,0,P|201:202|243:201,1,100,10|0,0:0|0:0,0:0:0:0:
397,222,75091,5,2,0:0:0:0:
397,222,75191,1,0,0:0:0:0:
397,222,75291,1,10,0:0:0:0:
364,245,75391,1,8,0:0:0:0:
341,278,75491,1,10,0:0:0:0:
326,315,75591,1,8,0:0:0:0:
319,354,75691,1,10,0:0:0:0:
168,176,75891,5,10,0:0:0:0:
168,176,75991,1,0,0:0:0:0:
168,176,76091,1,10,0:0:0:0:
201,199,76191,1,8,0:0:0:0:
224,232,76291,1,10,0:0:0:0:
239,269,76391,1,8,0:0:0:0:
246,308,76491,2,0,P|286:306|323:278,1,64.9999970245363,8|12,0:3|0:3,0:0:0:0:
346,156,76691,6,0,L|339:102,1,50,6|0,0:0|0:0,0:0:0:0:
339,106,76891,6,0,P|390:109|416:132,1,65.999999798584,8|0,0:0|0:0,0:0:0:0:
477,206,77091,2,0,P|426:209|400:232,1,65.999999798584,0|0,0:0|0:0,0:0:0:0:
307,294,77291,2,0,P|278:308|230:306,1,65.999999798584,8|0,0:0|0:0,0:0:0:0:
247,168,77491,5,2,0:0:0:0:
247,168,77591,2,0,P|260:197|262:230,1,65.999999798584,0|8,0:0|0:0,0:0:0:0:
155,293,77791,2,0,P|129:243|206:229,1,131.999999597168,0|0,0:0|0:0,0:0:0:0:
158,128,78091,2,0,P|128:141|80:139,1,65.999999798584,8|0,0:0|0:0,0:0:0:0:
69,20,78291,6,0,P|95:38|117:81,1,65.999999798584,2|0,0:0|0:0,0:0:0:0:
222,80,78491,2,0,P|220:47|207:18,1,65.999999798584,8|0,0:0|0:0,0:0:0:0:
338,66,78691,2,0,P|335:98|309:138,1,65.999999798584,0|0,0:0|0:0,0:0:0:0:
380,216,78891,2,0,P|407:198|426:171,1,65.999999798584,8|0,0:0|0:0,0:0:0:0:
219,223,79091,6,0,P|218:273|294:248,1,131.999999597168,2|8,0:0|0:0,0:0:0:0:
331,341,79391,1,0,0:0:0:0:
331,341,79491,2,0,P|378:336|397:320,1,65.999999798584,2|2,0:0|0:0,0:0:0:0:
512,286,79691,2,0,P|465:281|446:265,1,65.999999798584,10|0,0:0|0:0,0:0:0:0:
382,126,79891,6,0,P|385:78|410:48,1,65.999999798584,2|0,0:0|0:0,0:0:0:0:
335,185,80091,1,8,0:0:0:0:
335,185,80191,1,0,0:0:0:0:
335,185,80291,2,0,P|283:177|265:156,1,65.999999798584,2|2,0:0|0:0,0:0:0:0:
155,135,80491,2,0,P|203:128|225:106,1,65.999999798584,10|0,0:0|0:0,0:0:0:0:
130,14,80691,6,0,P|101:58|104:92,1,65.999999798584,2|0,0:0|0:0,0:0:0:0:
62,143,80891,1,8,0:0:0:0:
62,143,80991,1,0,0:0:0:0:
62,143,81091,2,0,P|91:187|88:221,1,65.999999798584,2|0,0:0|0:0,0:0:0:0:
20,321,81291,2,0,P|27:289|49:265,1,65.999999798584,8|0,0:0|0:0,0:0:0:0:
246,310,81491,6,0,P|214:319|182:311,1,65.999999798584,2|0,0:0|0:0,0:0:0:0:
201,205,81691,2,0,P|225:227|257:235,1,65.999999798584,8|0,0:0|0:0,0:0:0:0:
307,174,81891,2,0,P|283:151|273:120,1,65.999999798584,2|0,0:0|0:0,0:0:0:0:
376,81,82091,2,0,P|368:112|377:144,1,65.999999798584,8|8,0:0|0:0,0:0:0:0:
497,295,82291,5,10,0:0:0:0:
477,271,82391,1,8,0:0:0:0:
451,256,82491,1,8,0:0:0:0:
421,253,82591,1,8,0:0:0:0:
355,271,82691,5,12,0:1:0:0:
393,240,82791,1,8,0:0:0:0:
400,189,82891,1,8,0:0:0:0:
377,144,82991,1,8,0:0:0:0:
307,174,83091,6,0,B|253:180|253:180|178:128|178:128|116:136,1,200,6|8,0:1|0:0,0:0:0:0:
161,206,83391,1,0,0:0:0:0:
141,45,83491,2,0,P|115:87|139:151,1,100,2|0,0:0|0:0,0:0:0:0:
21,318,83691,1,8,0:0:0:0:
11,279,83791,1,8,0:0:0:0:
1,240,83891,6,0,P|45:200|105:211,1,100,10|8,0:0|0:0,0:0:0:0:
208,312,84091,1,8,0:3:0:0:
236,320,84191,1,4,0:3:0:0:
264,328,84291,5,12,0:1:0:0:
253,277,84391,1,8,0:0:0:0:
260,225,84491,1,8,0:0:0:0:
292,184,84591,1,8,0:0:0:0:
361,211,84691,6,0,B|408:220|408:220|489:159|489:159|548:171,1,200,6|8,0:1|0:0,0:0:0:0:
508,239,84991,1,0,0:0:0:0:
497,86,85091,2,0,P|538:133|534:184,1,100,2|0,0:0|0:0,0:0:0:0:
473,337,85291,1,8,0:0:0:0:
434,326,85391,1,8,0:0:0:0:
395,315,85491,5,10,0:0:0:0:
358,350,85591,1,8,0:0:0:0:
307,350,85691,1,8,0:0:0:0:
269,315,85791,1,8,0:0:0:0:
263,264,85891,1,8,0:0:0:0:
294,223,85991,1,8,0:0:0:0:
344,218,86091,1,8,0:0:0:0:
308,181,86191,1,8,0:0:0:0:
261,159,86291,6,0,L|166:152,1,75.0000028610231,14|8,0:1|0:0,0:0:0:0:
380,146,86491,1,8,0:0:0:0:
344,109,86591,1,8,0:0:0:0:
297,87,86691,6,0,L|202:80,1,75.0000028610231,14|8,0:1|0:0,0:0:0:0:
416,74,86891,1,8,0:0:0:0:
380,37,86991,1,8,0:0:0:0:
333,15,87091,6,0,L|238:8,1,75.0000028610231,14|8,0:1|0:0,0:0:0:0:
37,78,87291,5,8,0:3:0:0:
63,145,87391,1,4,0:3:0:0:
108,89,87491,1,8,0:3:0:0:
145,84,87591,1,4,0:3:0:0:
180,97,87691,1,8,0:3:0:0:
200,129,87791,1,4,0:3:0:0:
190,204,87891,6,0,B|237:222|237:222|333:197|333:197|386:216,1,200,6|8,0:0|0:0,0:0:0:0:
332,277,88191,1,0,0:0:0:0:
283,93,88291,2,0,P|312:136|300:194,1,85.0000016212464,2|0,0:0|0:0,0:0:0:0:
379,364,88491,2,0,P|408:321|396:263,1,85.0000016212464,8|8,0:0|0:0,0:0:0:0:
490,66,88691,5,10,0:0:0:0:
500,115,88791,1,8,0:0:0:0:
490,165,88891,1,8,0:0:0:0:
453,200,88991,1,8,0:0:0:0:
403,214,89091,1,10,0:0:0:0:
354,199,89191,1,8,0:0:0:0:
303,201,89291,1,8,0:0:0:0:
257,223,89391,1,8,0:0:0:0:
229,266,89491,6,0,L|223:340,1,75.0000028610231,14|8,0:1|0:0,0:0:0:0:
121,135,89691,1,8,0:0:0:0:
163,163,89791,1,8,0:0:0:0:
214,166,89891,6,0,L|281:134,1,75.0000028610231,14|8,0:1|0:0,0:0:0:0:
156,329,90091,1,8,0:0:0:0:
159,278,90191,1,8,0:0:0:0:
136,232,90291,6,0,L|74:189,1,75.0000028610231,14|8,0:1|0:0,0:0:0:0:
214,244,90491,5,8,0:3:0:0:
204,193,90591,1,4,0:3:0:0:
164,226,90691,1,8,0:3:0:0:
221,254,90791,1,8,0:0:0:0:
209,182,90891,1,8,0:0:0:0:
151,229,90991,1,8,0:0:0:0:
230,264,91091,6,0,B|278:271|278:271|358:213|358:213|427:223,1,200,6|8,0:0|0:0,0:0:0:0:
485,237,91391,1,0,0:0:0:0:
441,86,91491,2,0,P|465:147|441:192,1,85.0000016212464,2|0,0:0|0:0,0:0:0:0:
467,378,91691,1,8,0:0:0:0:
452,340,91791,1,8,0:0:0:0:
434,304,91891,6,0,P|384:305|346:336,1,85.0000016212464,2|0,0:0|0:0,0:0:0:0:
142,231,92091,2,0,P|197:238|227:286,1,85.0000016212464,8|8,0:0|0:0,0:0:0:0:
347,20,92291,1,10,0:0:0:0:
306,51,92391,1,8,0:0:0:0:
272,89,92491,1,8,0:0:0:0:
277,138,92591,1,8,0:0:0:0:
286,189,92691,6,0,L|378:213,1,75.0000028610231,14|8,0:1|0:0,0:0:0:0:
128,131,92891,1,8,0:0:0:0:
133,180,92991,1,8,0:0:0:0:
142,231,93091,6,0,L|234:255,1,75.0000028610231,14|8,0:1|0:0,0:0:0:0:
0,180,93291,1,8,0:0:0:0:
5,229,93391,1,8,0:0:0:0:
14,280,93491,6,0,L|106:304,1,75.0000028610231,14|8,0:1|0:0,0:0:0:0:
283,329,93691,1,8,0:3:0:0:
225,287,93791,1,4,0:3:0:0:
218,355,93891,5,8,0:3:0:0:
240,325,93991,1,4,0:3:0:0:
263,295,94091,1,8,0:3:0:0:
285,265,94191,1,4,0:3:0:0:
356,302,94291,6,0,P|421:328|432:228,1,200,6|8,0:0|0:0,0:0:0:0:
450,127,94591,1,0,0:0:0:0:
450,127,94691,2,0,P|383:160|337:140,1,100,2|0,0:0|0:0,0:0:0:0:
206,24,94891,1,8,0:0:0:0:
230,55,94991,1,8,0:0:0:0:
251,88,95091,6,0,P|245:160|159:109,1,200,6|8,0:0|0:0,0:0:0:0:
46,78,95391,1,0,0:0:0:0:
46,78,95491,2,0,P|79:145|59:191,1,100,2|0,0:0|0:0,0:0:0:0:
30,304,95691,1,8,0:0:0:0:
60,278,95791,1,8,0:0:0:0:
90,252,95891,6,0,B|141:243|141:243|210:314|210:314|299:301,1,200,6|8,0:0|0:0,0:0:0:0:
323,190,96191,1,0,0:0:0:0:
323,190,96291,2,0,P|255:211|232:249,1,100,2|0,0:0|0:0,0:0:0:0:
155,79,96491,2,0,P|203:86|239:120,1,100,8|8,0:0|0:0,0:0:0:0:
357,304,96691,6,0,P|443:323|416:233,1,200,6|8,0:0|0:0,0:0:0:0:
359,127,96991,1,0,0:0:0:0:
359,127,97091,2,0,P|357:199|445:154,1,200,2|8,0:0|0:0,0:0:0:0:
341,50,97391,1,8,0:0:0:0:
341,50,97491,6,0,P|276:45|240:76,1,100,6|0,0:0|0:0,0:0:0:0:
115,139,97691,2,0,P|143:197|188:213,1,100,8|0,0:0|0:0,0:0:0:0:
306,297,97891,1,2,0:0:0:0:
306,297,97991,1,0,0:0:0:0:
306,297,98091,2,0,P|342:243|333:196,1,100,8|8,0:0|0:0,0:0:0:0:
151,75,98291,6,0,P|86:70|50:101,1,100,6|0,0:0|0:0,0:0:0:0:
226,297,98491,1,8,0:0:0:0:
226,297,98591,1,8,0:0:0:0:
226,297,98691,2,0,P|254:355|299:371,1,100,2|0,0:0|0:0,0:0:0:0:
384,119,98891,2,0,P|420:65|411:18,1,100,8|8,0:0|0:0,0:0:0:0:
59,88,99091,6,0,P|94:132|144:140,1,100,6|0,0:0|0:0,0:0:0:0:
283,369,99291,1,8,0:0:0:0:
283,369,99391,1,8,0:0:0:0:
283,369,99491,2,0,P|303:316|285:268,1,100,2|0,0:0|0:0,0:0:0:0:
418,33,99691,2,0,P|361:42|329:81,1,100,8|8,0:0|0:0,0:0:0:0:
134,141,99891,6,0,P|159:140|184:123,1,50,6|0,0:0|0:0,0:0:0:0:
290,275,100091,2,0,P|278:254|257:241,1,50,6|0,0:0|0:0,0:0:0:0:
334,71,100290,2,0,P|321:93|320:117,1,50,6|0,0:0|0:0,0:0:0:0:
