osu file format v14

[General]
AudioFilename: audio.mp3
AudioLeadIn: 0
PreviewTime: 20690
Countdown: 0
SampleSet: Soft
StackLeniency: 0.9
Mode: 0
LetterboxInBreaks: 0
WidescreenStoryboard: 1

[Editor]
Bookmarks: 2240,17440,23840,31840,38240,46240,60691,76691,83091,100291,111840,118290,135440
DistanceSpacing: 1.5
BeatDivisor: 2
GridSize: 4
TimelineZoom: 3.299999

[Metadata]
Title:Punk Rock Girl
TitleUnicode:Punk Rock Girl
Artist:Streetlight Manifesto
ArtistUnicode:Streetlight Manifesto
Creator:Milan-
Version:Pho's Hard
Source:
Tags:pho pishifat punk jazz ska
BeatmapID:1366921
BeatmapSetID:577394

[Difficulty]
HPDrainRate:5
CircleSize:4
OverallDifficulty:6
ApproachRate:7
SliderMultiplier:1
SliderTickRate:1

[Events]
//Background and Video events
0,0,"a.jpg",0,0
//Break Periods
//Storyboard Layer 0 (Background)
//Storyboard Layer 1 (Fail)
//Storyboard Layer 2 (Pass)
//Storyboard Layer 3 (Foreground)
//Storyboard Sound Samples

[TimingPoints]
691,200,4,2,1,50,1,0
2091,-100,4,2,1,50,0,0
2291,-100,4,2,1,50,0,0
2491,-100,4,2,1,50,0,0
3891,-100,4,2,1,50,0,0
4091,-100,4,2,1,50,0,0
7091,-100,4,2,1,50,0,0
7291,-100,4,2,1,50,0,0
8891,-100,4,2,1,50,0,0
10291,-100,4,2,1,50,0,0
10491,-100,4,2,1,50,0,0
17491,-100,4,2,1,40,0,0
17691,-100,4,2,1,40,0,0
20691,-100,4,2,1,40,0,0
20891,-100,4,2,1,40,0,0
23491,-100,4,2,1,45,0,0
23891,-100,4,2,1,50,0,1
27091,-100,4,2,1,50,0,1
28691,-100,4,2,1,45,0,1
29091,-100,4,2,1,45,0,1
31891,-100,4,2,1,40,0,0
35091,-100,4,2,1,40,0,0
35291,-100,4,2,1,40,0,0
37891,-100,4,2,1,45,0,0
38291,-100,4,2,1,50,0,1
41491,-100,4,2,1,50,0,1
43091,-100,4,2,1,45,0,1
43391,-100,4,2,1,45,0,1
46291,-100,4,2,1,40,0,0
47891,-100,4,2,1,40,0,0
48091,-100,4,2,1,40,0,0
60291,-100,4,2,1,40,0,0
60691,-100,4,2,1,35,0,0
73891,-100,4,2,1,35,0,0
74291,-100,4,2,1,40,0,0
75091,-100,4,2,1,45,0,0
75891,-100,4,2,1,50,0,0
76491,-100,4,2,1,50,0,0
76691,-100,4,2,1,40,0,0
76891,-100,4,2,1,40,0,0
82691,-100,4,2,1,45,0,0
83091,-100,4,2,1,50,0,1
86291,-100,4,2,1,50,0,1
87891,-100,4,2,1,50,0,1
88291,-100,4,2,1,50,0,1
89491,-100,4,2,1,50,0,1
91091,-100,4,2,1,50,0,1
91491,-100,4,2,1,50,0,1
92691,-100,4,2,1,50,0,1
94291,-100,4,2,1,45,0,1
100291,-100,4,2,1,45,0,0
100491,-100,4,2,1,45,0,0

[Colours]
Combo1 : 194,145,255
Combo2 : 255,177,125
Combo3 : 140,255,252
Combo4 : 207,255,119

[HitObjects]
339,125,2091,5,8,0:0:0:0:
339,125,2191,1,8,0:3:0:0:
339,125,2291,2,0,L|228:112,1,100,4|10,0:0|0:1,0:0:0:0:
239,113,2591,2,0,P|208:74|102:70,1,150,0|10,0:0|0:1,0:0:0:0:
28,137,3091,2,0,B|44:189|44:189|30:224|30:224|45:285,2,150,2|2|10,0:1|0:1|0:1,0:0:0:0:
84,33,3891,5,0,0:0:0:0:
175,96,4091,1,10,0:1:0:0:
175,96,4191,1,2,0:1:0:0:
175,96,4291,2,0,P|231:118|288:98,1,100,2|10,0:1|0:1,0:0:0:0:
330,31,4691,2,0,L|435:14,1,100,2|8,0:1|0:0,0:0:0:0:
512,140,5091,2,0,P|451:123|356:138,1,150,2|0,0:1|0:0,0:0:0:0:
365,134,5491,1,2,0:1:0:0:
295,216,5691,6,0,B|317:266|317:266|301:332,1,100,10|0,0:1|0:0,0:0:0:0:
228,369,6091,1,10,0:1:0:0:
146,307,6291,2,0,P|86:279|30:296,1,100,2|8,0:1|0:0,0:0:0:0:
54,283,6591,2,0,L|35:127,1,150,2|10,0:1|0:1,0:0:0:0:
173,64,7091,6,0,L|88:75,2,50,8|4|8,0:3|0:3|0:0,0:0:0:0:
224,159,7491,2,0,L|303:170,2,50,8|4|8,0:3|0:3|0:0,0:0:0:0:
292,21,7891,2,0,L|277:89,2,50,8|4|8,0:3|0:3|0:0,0:0:0:0:
383,184,8291,2,0,L|366:117,2,50,8|4|8,0:3|0:3|0:0,0:0:0:0:
418,354,8691,6,0,P|471:328|484:263,1,100,4|10,0:0|0:1,0:0:0:0:
486,292,8991,2,0,B|433:257|433:257|307:281,1,150,0|10,0:0|0:1,0:0:0:0:
178,302,9491,2,0,B|191:360|191:360|240:397,1,100,2|8,0:1|0:0,0:0:0:0:
223,384,9791,2,0,P|266:304|245:217,1,150,2|10,0:1|0:1,0:0:0:0:
188,116,10291,5,0,0:0:0:0:
116,195,10491,1,10,0:1:0:0:
116,195,10591,1,2,0:1:0:0:
116,195,10691,2,0,L|-13:182,1,100,2|10,0:1|0:1,0:0:0:0:
112,89,11091,2,0,P|70:46|57:3,1,100,2|8,0:1|0:0,0:0:0:0:
209,72,11491,2,0,P|249:25|350:32,1,150,2|8,0:1|0:0,0:0:0:0:
332,21,11891,5,6,0:1:0:0:
444,190,12091,2,0,B|488:134|488:134|450:11,1,200,10|10,0:1|0:1,0:0:0:0:
449,10,12591,1,10,0:1:0:0:
449,10,12691,1,6,0:1:0:0:
328,107,12891,6,0,B|300:228|300:228|353:283,1,200,10|10,0:1|0:1,0:0:0:0:
353,283,13391,1,10,0:1:0:0:
353,283,13491,1,6,0:1:0:0:
456,271,13691,6,0,P|378:280|333:394,1,200,10|10,0:1|0:1,0:0:0:0:
426,361,14291,1,6,0:1:0:0:
302,226,14491,6,0,P|241:202|120:302,1,200,10|10,0:1|0:1,0:0:0:0:
63,154,15091,1,6,0:1:0:0:
49,311,15291,6,0,B|118:297|118:297|172:329|172:329|257:311,1,200,10|10,0:1|0:1,0:0:0:0:
314,384,15891,1,6,0:1:0:0:
420,353,16091,1,4,0:3:0:0:
432,356,16191,1,0,0:0:0:0:
443,362,16291,2,0,L|471:296,3,50,8|8|8|8,0:0|0:0|0:0|0:0,0:0:0:0:
392,260,16691,2,0,L|369:199,3,50,8|0|8|0,0:3|0:3|0:3|0:3,0:0:0:0:
320,151,17091,6,0,P|377:159|388:155,1,50,8|4,0:3|0:3,0:0:0:0:
442,124,17291,2,0,P|459:82|455:52,1,50,8|4,0:3|0:3,0:0:0:0:
391,14,17491,6,0,L|286:23,1,100,4|8,0:0|0:0,0:0:0:0:
211,111,17891,1,0,0:0:0:0:
109,28,18091,1,8,0:0:0:0:
109,28,18191,2,0,P|109:96|91:151,1,100,0|0,0:0|0:0,0:0:0:0:
101,126,18491,1,8,0:0:0:0:
146,214,18691,2,0,L|228:229,2,50,0|0|8,0:0|0:0|0:0,0:0:0:0:
22,304,19091,6,0,P|-7:244|5:200,1,100,2|8,0:0|0:0,0:0:0:0:
116,292,19491,2,0,P|112:357|84:392,1,100,0|8,0:0|0:0,0:0:0:0:
195,222,19891,1,2,0:0:0:0:
278,328,20091,1,8,0:0:0:0:
278,328,20191,2,0,P|339:310|404:344,1,100,0|2,0:0|0:0,0:0:0:0:
393,339,20491,2,0,L|408:259,1,50,10|0,0:0|0:0,0:0:0:0:
475,216,20691,5,2,0:0:0:0:
343,199,20891,2,0,L|336:149,1,50,8|0,0:0|0:0,0:0:0:0:
331,119,21091,2,0,L|272:124,2,50,2|0|10,0:0|0:0|0:0,0:0:0:0:
458,56,21491,2,0,P|398:47|355:4,1,100,2|8,0:0|0:0,0:0:0:0:
263,6,21891,2,0,P|213:49|205:97,1,100,2|8,0:0|0:0,0:0:0:0:
213,195,22291,5,2,0:0:0:0:
213,195,22491,1,8,0:0:0:0:
110,116,22691,1,2,0:0:0:0:
110,116,22891,1,8,0:0:0:0:
32,203,23091,2,0,L|50:261,3,50,10|8|8|8,0:0|0:0|0:0|0:0,0:0:0:0:
4,317,23491,6,0,P|28:339|59:349,1,50,14|8,0:1|0:0,0:0:0:0:
112,384,23691,2,0,P|167:351|171:340,1,50,14|8,0:1|0:0,0:0:0:0:
177,286,23891,6,0,P|182:236|162:175,1,100,6|8,0:1|0:0,0:0:0:0:
287,55,24291,2,0,P|272:118|277:155,1,100,2|8,0:0|0:0,0:0:0:0:
292,175,24591,1,8,0:0:0:0:
292,174,24691,2,0,L|368:155,3,50,10|8|8|8,0:0|0:0|0:0|0:0,0:0:0:0:
412,113,25091,6,0,L|425:183,1,50,14|8,0:1|0:0,0:0:0:0:
498,171,25291,2,0,L|482:230,1,50,14|8,0:1|0:0,0:0:0:0:
466,296,25491,6,0,P|408:275|349:295,1,100,6|8,0:1|0:0,0:0:0:0:
230,352,25891,2,0,P|293:368|336:349,1,100,2|8,0:0|0:0,0:0:0:0:
133,296,26291,2,0,P|184:263|232:260,1,100,2|8,0:0|0:0,0:0:0:0:
68,375,26691,1,2,0:0:0:0:
0,320,26891,1,8,0:0:0:0:
26,224,27091,6,0,L|1:166,3,50,6|0|8|8,0:1|0:0|0:0|0:0,0:0:0:0:
113,250,27491,2,0,L|75:300,3,50,14|8|8|8,0:1|0:0|0:0|0:0,0:0:0:0:
90,157,27891,2,0,L|152:164,3,50,6|8|8|4,0:1|0:0|0:3|0:3,0:0:0:0:
194,96,28291,6,0,P|176:58|135:42,1,50,8|4,0:3|0:3,0:0:0:0:
112,7,28491,2,0,P|54:19|44:28,1,50,8|4,0:3|0:3,0:0:0:0:
3,85,28691,6,0,L|29:198,1,100,6|8,0:0|0:0,0:0:0:0:
117,133,29091,1,2,0:0:0:0:
224,168,29291,1,8,0:0:0:0:
164,256,29491,2,0,P|114:261|93:249,3,50,10|8|8|4,0:0|0:0|0:3|0:3,0:0:0:0:
19,334,29891,2,0,P|69:329|90:341,3,50,8|4|8|4,0:3|0:3|0:3|0:3,0:0:0:0:
139,374,30291,6,0,B|192:383|192:383|252:360,3,100,6|8|2|8,0:0|0:0|0:0|0:0,0:0:0:0:
285,247,31091,5,10,0:0:0:0:
392,208,31291,1,10,0:0:0:0:
382,324,31491,2,0,L|314:318,3,50,10|8|10|8,0:0|0:0|0:0|0:0,0:0:0:0:
311,244,31891,6,0,P|318:184|296:122,1,100,4|8,0:0|0:0,0:0:0:0:
308,146,32191,2,0,B|248:142|248:142|213:107|213:107|162:103,1,150,0|8,0:0|0:0,0:0:0:0:
93,154,32691,1,2,0:0:0:0:
122,40,32891,1,8,0:0:0:0:
231,32,33091,2,0,L|337:63,1,100,0|8,0:0|0:0,0:0:0:0:
446,146,33491,6,0,B|479:112|479:112|481:34,1,100,2|8,0:0|0:0,0:0:0:0:
350,165,33891,2,0,B|362:210|362:210|429:251,1,100,0|8,0:0|0:0,0:0:0:0:
512,293,34291,2,0,L|372:324,1,100,2|8,0:0|0:0,0:0:0:0:
414,314,34591,1,0,0:0:0:0:
337,372,34791,1,2,0:0:0:0:
337,372,34891,1,10,0:0:0:0:
276,274,35091,6,0,L|256:160,1,100,2|8,0:0|0:0,0:0:0:0:
255,152,35391,1,0,0:0:0:0:
255,152,35491,2,0,P|191:167|145:141,1,100,2|10,0:0|0:0,0:0:0:0:
80,104,35891,2,0,P|54:183|77:230,1,100,2|8,0:0|0:0,0:0:0:0:
1,262,36291,2,0,P|41:296|101:304,1,100,2|8,0:0|0:0,0:0:0:0:
234,268,36691,5,2,0:0:0:0:
283,340,36891,1,8,0:0:0:0:
202,375,37091,2,0,B|170:336|170:336|158:267,1,100,2|8,0:0|0:0,0:0:0:0:
202,98,37491,2,0,L|210:168,3,50,10|8|8|8,0:0|0:0|0:0|0:0,0:0:0:0:
195,177,37891,6,0,L|124:160,1,50,14|8,0:1|0:0,0:0:0:0:
73,218,38091,2,0,L|26:169,1,50,14|8,0:1|0:0,0:0:0:0:
0,108,38291,6,0,P|46:80|73:8,1,100,6|8,0:1|0:0,0:0:0:0:
212,24,38691,2,0,P|177:76|132:88,1,100,2|8,0:0|0:0,0:0:0:0:
289,89,39091,2,0,P|318:148|361:164,1,100,2|8,0:0|0:0,0:0:0:0:
421,133,39391,1,8,0:0:0:0:
421,133,39491,6,0,L|433:56,1,50,14|8,0:1|0:0,0:0:0:0:
510,135,39691,2,0,L|503:199,1,50,14|8,0:1|0:0,0:0:0:0:
406,226,39891,6,0,B|406:283|406:283|465:345,1,100,6|8,0:1|0:0,0:0:0:0:
511,359,40291,1,2,0:0:0:0:
393,378,40491,1,8,0:0:0:0:
328,280,40691,2,0,P|246:298|228:322,1,100,10|8,0:0|0:3,0:0:0:0:
232,324,40991,1,4,0:3:0:0:
232,324,41091,2,0,P|176:352|116:336,1,100,8|8,0:3|0:3,0:0:0:0:
48,248,41491,6,0,B|16:280|16:280|32:340,1,100,6|8,0:1|0:0,0:0:0:0:
152,264,41891,2,0,L|260:248,1,100,14|8,0:1|0:0,0:0:0:0:
112,184,42291,2,0,P|84:124|104:32,1,150,6|8,0:1|0:0,0:0:0:0:
112,20,42691,2,0,L|176:32,3,50,8|4|8|4,0:3|0:3|0:3|0:3,0:0:0:0:
220,84,43091,6,0,B|220:135|220:135|204:192,1,100,6|8,0:0|0:0,0:0:0:0:
304,196,43491,2,0,B|305:253|305:253|324:308,1,100,2|8,0:0|0:0,0:0:0:0:
340,320,43791,1,8,0:0:0:0:
340,320,43891,2,0,L|400:308,3,50,10|8|8|8,0:0|0:0|0:0|0:0,0:0:0:0:
464,348,44291,6,0,P|432:304|428:288,1,50,10|8,0:0|0:0,0:0:0:0:
416,232,44491,2,0,P|424:192|452:164,1,50,8|8,0:0|0:0,0:0:0:0:
487,135,44691,6,0,L|375:127,1,100,6|8,0:0|0:0,0:0:0:0:
305,179,45091,1,2,0:0:0:0:
254,101,45291,2,0,L|273:-2,1,100,8|10,0:0|0:0,0:0:0:0:
157,35,45691,1,8,0:3:0:0:
157,35,45791,1,4,0:3:0:0:
157,35,45891,2,0,L|177:107,3,50,8|4|8|4,0:3|0:3|0:3|0:3,0:0:0:0:
172,117,46291,6,0,P|105:96|43:119,1,100,6|10,0:1|0:0,0:0:0:0:
38,121,46591,1,2,0:0:0:0:
38,121,46691,2,0,P|17:176|37:239,1,100,2|10,0:1|0:0,0:0:0:0:
51,234,46991,1,2,0:0:0:0:
51,234,47091,2,0,L|158:215,1,100,2|10,0:1|0:0,0:0:0:0:
231,274,47491,2,0,B|253:332|253:332|240:382,1,100,2|10,0:1|0:0,0:0:0:0:
155,334,47891,5,0,0:0:0:0:
297,329,48091,2,0,P|363:348|443:309,1,150,10|0,0:1|0:0,0:0:0:0:
435,317,48491,1,10,0:1:0:0:
373,217,48691,2,0,B|351:171|351:171|369:109,1,100,2|10,0:1|0:0,0:0:0:0:
364,123,48991,2,0,P|418:142|504:112,1,150,2|10,0:1|0:1,0:0:0:0:
331,9,49491,6,0,L|206:42,1,100,2|8,0:1|0:0,0:0:0:0:
213,46,49791,1,2,0:0:0:0:
213,44,49891,2,0,L|329:104,1,100,2|10,0:1|0:0,0:0:0:0:
327,109,50191,1,2,0:0:0:0:
327,108,50291,2,0,P|339:178|308:233,1,100,2|10,0:1|0:0,0:0:0:0:
217,266,50691,2,0,B|183:229|183:229|189:155,2,100,2|10|2,0:1|0:0|0:1,0:0:0:0:
312,280,51291,6,0,P|252:294|217:369,1,150,10|0,0:1|0:0,0:0:0:0:
217,369,51691,2,0,L|136:370,1,50,10|8,0:0|0:0,0:0:0:0:
105,305,51891,6,0,L|90:222,3,50,14|8|8|8,0:1|0:0|0:0|0:0,0:0:0:0:
8,234,52291,2,0,L|26:156,3,50,14|8|8|8,0:1|0:0|0:0|0:0,0:0:0:0:
84,140,52691,6,0,B|101:114|120:107|120:107|128:40|74:27,1,150,6|0,0:1|0:0,0:0:0:0:
80,28,53091,1,0,0:0:0:0:
6,89,53291,1,10,0:1:0:0:
107,155,53491,6,0,P|173:116|220:120,1,100,2|8,0:1|0:0,0:0:0:0:
221,116,53791,1,8,0:0:0:0:
221,116,53891,2,0,P|276:136|336:116,1,100,14|10,0:1|0:1,0:0:0:0:
375,34,54291,6,0,L|436:18,4,50,6|0|8|0|0,0:1|0:0|0:0|0:0|0:0,0:0:0:0:
315,128,54891,1,10,0:1:0:0:
440,206,55091,2,0,B|468:165|468:165|441:77,1,100,14|8,0:1|0:3,0:0:0:0:
453,116,55391,2,0,B|400:131|400:131|286:99,1,150,4|8,0:3|0:3,0:0:0:0:
182,27,55891,6,0,L|199:142,1,100,12|10,0:1|0:1,0:0:0:0:
166,145,56191,1,8,0:0:0:0:
166,145,56291,2,0,L|153:274,1,100,12|10,0:0|0:1,0:0:0:0:
190,272,56591,1,8,0:0:0:0:
190,272,56691,2,0,L|201:335,3,50,14|8|8|8,0:1|0:0|0:0|0:0,0:0:0:0:
286,335,57091,2,0,L|278:400,3,50,8|4|8|4,0:3|0:3|0:3|0:3,0:0:0:0:
348,267,57491,6,0,P|414:245|467:269,1,100,6|8,0:1|0:0,0:0:0:0:
284,199,57891,2,0,P|253:154|249:53,1,150,2|0,0:1|0:0,0:0:0:0:
246,60,58291,1,2,0:1:0:0:
105,20,58491,1,8,0:0:0:0:
105,20,58591,2,0,B|126:142|54:173,1,150,0|8,0:0|0:0,0:0:0:0:
0,222,59091,5,10,0:1:0:0:
72,318,59291,1,10,0:1:0:0:
72,318,59391,1,8,0:0:0:0:
72,318,59491,2,0,L|140:298,3,50,8|8|8|4,0:0|0:0|0:3|0:3,0:0:0:0:
214,249,59891,2,0,L|161:236,3,50,8|4|8|4,0:3|0:3|0:3|0:3,0:0:0:0:
208,368,60291,2,0,B|279:397|296:331|368:358,1,150,8|0,0:0|0:0,0:0:0:0:
353,354,60691,6,0,B|332:294|332:294|359:225|359:225|326:146,1,200,4|10,0:0|0:0,0:0:0:0:
350,154,61391,5,8,0:0:0:0:
350,154,61491,2,0,P|408:154|448:130,1,100,2|0,0:0|0:0,0:0:0:0:
452,108,61791,1,0,0:0:0:0:
452,108,61891,2,0,P|442:54|445:1,1,100,10|0,0:0|0:0,0:0:0:0:
335,70,62291,6,0,L|156:61,1,150,6|0,0:0|0:0,0:0:0:0:
185,62,62691,1,10,0:0:0:0:
96,16,62891,1,0,0:0:0:0:
96,16,62991,1,8,0:0:0:0:
96,16,63091,2,0,P|82:82|106:131,1,100,2|0,0:0|0:0,0:0:0:0:
173,165,63491,2,0,P|184:219|142:281,1,100,8|0,0:0|0:0,0:0:0:0:
269,301,63891,6,0,P|206:293|106:334,1,150,6|0,0:0|0:0,0:0:0:0:
125,319,64291,1,10,0:0:0:0:
113,343,64591,5,8,0:0:0:0:
113,343,64691,2,0,B|82:296|82:296|87:218,1,100,2|0,0:0|0:0,0:0:0:0:
90,224,64991,1,0,0:0:0:0:
90,224,65091,2,0,L|205:203,1,100,10|0,0:0|0:0,0:0:0:0:
341,160,65491,6,0,B|272:118|272:118|197:115,1,150,6|0,0:0|0:0,0:0:0:0:
202,115,65891,1,10,0:0:0:0:
190,103,66191,5,8,0:0:0:0:
188,102,66291,2,0,B|245:104|245:104|308:69,1,100,2|0,0:0|0:0,0:0:0:0:
304,72,66591,1,0,0:0:0:0:
304,72,66691,2,0,P|350:34|414:39,1,100,10|0,0:0|0:0,0:0:0:0:
494,90,67091,6,0,B|476:199|476:199|455:145,1,150,6|0,0:0|0:0,0:0:0:0:
461,162,67491,1,10,0:0:0:0:
345,146,67691,1,0,0:0:0:0:
345,146,67791,1,8,0:0:0:0:
345,146,67891,2,0,L|375:258,1,100,2|0,0:0|0:0,0:0:0:0:
446,325,68291,2,0,P|379:337|331:360,1,100,10|0,0:0|0:0,0:0:0:0:
211,367,68691,6,0,P|166:311|242:268,1,150,6|0,0:0|0:0,0:0:0:0:
210,263,69091,1,10,0:0:0:0:
81,282,69291,1,0,0:0:0:0:
81,282,69391,1,8,0:0:0:0:
81,282,69491,2,0,L|88:163,1,100,2|0,0:0|0:0,0:0:0:0:
93,41,69891,1,10,0:0:0:0:
93,41,69991,2,0,B|48:62|48:62|33:117,1,100,0|0,0:0|0:0,0:0:0:0:
34,110,70291,6,0,B|132:182|160:66|252:146,1,200,6|10,0:0|0:0,0:0:0:0:
336,129,70891,1,0,0:0:0:0:
336,129,70991,1,8,0:0:0:0:
336,129,71091,2,0,B|385:113|385:113|417:54,1,100,2|0,0:0|0:0,0:0:0:0:
494,96,71491,2,0,B|483:146|483:146|518:203,1,100,10|0,0:0|0:0,0:0:0:0:
403,248,71891,6,0,L|242:209,1,150,6|0,0:0|0:0,0:0:0:0:
257,212,72291,1,10,0:0:0:0:
115,258,72491,1,0,0:0:0:0:
115,258,72591,1,8,0:0:0:0:
115,258,72691,2,0,B|167:296|167:296|238:295,1,100,2|0,0:0|0:0,0:0:0:0:
291,344,73091,2,0,L|285:235,1,100,10|0,0:0|0:0,0:0:0:0:
274,88,73491,5,6,0:0:0:0:
256,192,73591,12,2,75091,0:0:0:0:
275,90,75291,6,0,L|205:102,3,50,10|8|10|8,0:0|0:0|0:0|0:0,0:0:0:0:
154,105,75691,2,0,L|168:219,1,100,10|10,0:0|0:0,0:0:0:0:
281,256,76091,6,0,P|315:269|353:273,1,50,10|8,0:0|0:0,0:0:0:0:
405,250,76291,2,0,P|438:223|446:195,1,50,10|8,0:0|0:0,0:0:0:0:
460,138,76491,2,0,P|456:99|434:64,1,50,8|12,0:3|0:3,0:0:0:0:
393,26,76691,6,0,L|268:11,1,100,6|8,0:0|0:0,0:0:0:0:
222,91,77091,1,0,0:0:0:0:
130,26,77291,1,8,0:0:0:0:
51,93,77491,2,0,P|63:155|60:207,1,100,2|8,0:0|0:0,0:0:0:0:
62,191,77791,2,0,L|194:181,1,100,0|0,0:0|0:0,0:0:0:0:
161,183,78091,1,8,0:0:0:0:
89,284,78291,6,0,P|74:336|89:377,1,100,2|8,0:0|0:0,0:0:0:0:
165,320,78691,2,0,P|218:274|263:276,1,100,0|8,0:0|0:0,0:0:0:0:
244,361,79091,1,2,0:0:0:0:
91,284,79291,1,8,0:0:0:0:
91,284,79391,2,0,B|64:248|64:248|74:166,1,100,0|2,0:0|0:0,0:0:0:0:
71,194,79691,1,10,0:0:0:0:
190,110,79891,6,0,B|150:89|150:89|78:99,1,100,2|8,0:0|0:0,0:0:0:0:
182,209,80291,2,0,B|226:225|226:225|312:200,1,100,2|10,0:0|0:0,0:0:0:0:
337,99,80691,1,2,0:0:0:0:
399,178,80891,1,8,0:0:0:0:
399,178,80991,2,0,L|386:296,1,100,0|0,0:0|0:0,0:0:0:0:
388,277,81291,1,8,0:0:0:0:
319,350,81491,5,2,0:0:0:0:
319,350,81691,1,8,0:0:0:0:
433,372,81891,1,2,0:0:0:0:
433,372,82091,1,8,0:0:0:0:
505,284,82291,2,0,P|512:233|495:198,3,50,10|8|8|8,0:0|0:0|0:0|0:0,0:0:0:0:
478,161,82691,6,0,L|423:173,1,50,14|8,0:1|0:0,0:0:0:0:
383,230,82891,2,0,L|327:211,1,50,14|8,0:1|0:0,0:0:0:0:
309,135,83091,6,0,P|332:80|330:29,1,100,6|8,0:1|0:0,0:0:0:0:
206,116,83491,2,0,P|179:46|185:6,1,100,2|8,0:0|0:0,0:0:0:0:
169,10,83791,1,8,0:0:0:0:
169,10,83891,2,0,L|100:32,3,50,10|8|8|4,0:0|0:0|0:3|0:3,0:0:0:0:
260,49,84291,6,0,L|278:96,1,50,14|8,0:1|0:0,0:0:0:0:
215,160,84491,2,0,L|202:208,1,50,14|8,0:1|0:0,0:0:0:0:
259,278,84691,6,0,P|311:267|384:264,1,100,6|8,0:1|0:0,0:0:0:0:
251,378,85091,2,0,P|193:375|132:357,1,100,2|8,0:0|0:0,0:0:0:0:
139,347,85391,1,8,0:0:0:0:
139,347,85491,2,0,L|150:275,3,50,10|8|8|8,0:0|0:0|0:0|0:0,0:0:0:0:
65,265,85891,2,0,L|48:185,3,50,8|8|8|8,0:0|0:0|0:0|0:0,0:0:0:0:
118,153,86291,6,0,L|189:168,2,50,14|8|8,0:1|0:0|0:0,0:0:0:0:
81,58,86591,1,8,0:0:0:0:
81,58,86691,2,0,L|97:3,2,50,14|8|8,0:1|0:0|0:0,0:0:0:0:
165,78,86991,1,8,0:0:0:0:
165,78,87091,2,0,P|226:78|279:56,1,100,14|8,0:1|0:3,0:0:0:0:
385,23,87491,2,0,L|367:82,3,50,8|4|8|4,0:3|0:3|0:3|0:3,0:0:0:0:
388,144,87891,6,0,P|438:162|495:138,1,100,6|8,0:0|0:0,0:0:0:0:
391,236,88291,2,0,P|396:290|438:325,1,100,2|8,0:0|0:0,0:0:0:0:
464,332,88591,1,8,0:0:0:0:
464,332,88691,2,0,L|453:387,3,50,10|8|8|8,0:0|0:0|0:0|0:0,0:0:0:0:
510,247,89091,2,0,L|486:188,3,50,10|8|8|8,0:0|0:0|0:0|0:0,0:0:0:0:
403,257,89491,6,0,L|286:239,1,100,14|8,0:1|0:0,0:0:0:0:
226,289,89791,1,8,0:0:0:0:
226,289,89891,2,0,L|238:344,2,50,14|8|8,0:1|0:0|0:0,0:0:0:0:
152,223,90191,1,8,0:0:0:0:
152,223,90291,2,0,L|172:152,2,50,14|8|8,0:1|0:0|0:3,0:0:0:0:
80,291,90591,1,4,0:3:0:0:
80,291,90691,2,0,L|66:364,3,50,8|8|8|8,0:0|0:0|0:0|0:0,0:0:0:0:
8,382,91091,6,0,P|84:357|140:378,1,100,6|8,0:0|0:0,0:0:0:0:
249,363,91491,2,0,P|212:317|166:292,1,100,2|8,0:0|0:0,0:0:0:0:
177,296,91791,1,8,0:0:0:0:
177,296,91891,1,2,0:0:0:0:
81,310,92091,1,8,0:0:0:0:
73,205,92291,2,0,L|66:140,3,50,10|8|8|8,0:0|0:0|0:0|0:0,0:0:0:0:
147,89,92691,6,0,L|158:37,2,50,14|8|8,0:1|0:0|0:0,0:0:0:0:
258,150,92991,1,8,0:0:0:0:
258,150,93091,2,0,L|245:83,2,50,14|8|8,0:1|0:0|0:0,0:0:0:0:
345,85,93391,1,8,0:0:0:0:
345,85,93491,2,0,L|350:23,2,50,14|8|8,0:1|0:0|0:3,0:0:0:0:
407,164,93791,1,4,0:3:0:0:
407,164,93891,2,0,P|437:172|469:197,1,50,8|4,0:3|0:3,0:0:0:0:
478,258,94091,2,0,P|451:303|413:309,1,50,8|4,0:3|0:3,0:0:0:0:
375,313,94291,6,0,L|255:280,1,100,6|8,0:0|0:0,0:0:0:0:
183,258,94691,1,2,0:0:0:0:
254,158,94891,6,0,L|313:173,1,50,8|8,0:0|0:0,0:0:0:0:
323,172,95091,2,0,P|336:110|316:60,1,100,6|8,0:0|0:0,0:0:0:0:
224,13,95491,1,2,0:0:0:0:
152,114,95691,6,0,L|93:131,1,50,8|8,0:0|0:0,0:0:0:0:
80,137,95891,2,0,L|57:27,2,100,6|8|2,0:0|0:0|0:0,0:0:0:0:
45,229,96491,5,8,0:0:0:0:
45,229,96591,1,8,0:0:0:0:
45,229,96691,2,0,P|96:264|148:268,1,100,6|8,0:0|0:0,0:0:0:0:
210,210,97091,2,0,P|264:196|318:221,1,100,2|8,0:0|0:0,0:0:0:0:
394,359,97491,6,0,B|413:246,1,100,6|8,0:0|0:0,0:0:0:0:
426,169,97891,1,2,0:0:0:0:
271,103,98091,5,8,0:0:0:0:
271,103,98291,2,0,B|390:98,1,100,6|8,0:0|0:0,0:0:0:0:
487,96,98691,1,2,0:0:0:0:
344,16,98891,5,8,0:0:0:0:
344,16,99091,2,0,L|228:3,1,100,6|8,0:0|0:0,0:0:0:0:
96,126,99491,2,0,L|212:101,1,100,2|8,0:0|0:0,0:0:0:0:
319,144,99891,6,0,L|349:194,1,50,6|0,0:0|0:0,0:0:0:0:
226,207,100091,2,0,L|209:260,1,50,6|0,0:0|0:0,0:0:0:0:
299,259,100291,2,0,B|290:312|339:320|326:359,1,100,6|0,0:0|0:0,0:0:0:0:
