osu file format v14

[General]
AudioFilename: audio.mp3
AudioLeadIn: 0
PreviewTime: 20690
Countdown: 0
SampleSet: Soft
StackLeniency: 0.4
Mode: 0
LetterboxInBreaks: 0
WidescreenStoryboard: 1

[Editor]
Bookmarks: 2240,17440,23840,31840,38240,46240,60691,76691,83091,100291,111840,118290,135440
DistanceSpacing: 0.9
BeatDivisor: 2
GridSize: 32
TimelineZoom: 0.9999988

[Metadata]
Title:Punk Rock Girl
TitleUnicode:Punk Rock Girl
Artist:Streetlight Manifesto
ArtistUnicode:Streetlight Manifesto
Creator:Milan-
Version:Normal
Source:
Tags:pho pishifat punk jazz ska
BeatmapID:1363625
BeatmapSetID:577394

[Difficulty]
HPDrainRate:3
CircleSize:3
OverallDifficulty:3
ApproachRate:5
SliderMultiplier:0.6
SliderTickRate:1

[Events]
//Background and Video events
0,0,"a.jpg",0,0
//Break Periods
//Storyboard Layer 0 (Background)
//Storyboard Layer 1 (Fail)
//Storyboard Layer 2 (Pass)
//Storyboard Layer 3 (Foreground)
//Storyboard Sound Samples

[TimingPoints]
691,200,4,2,1,50,1,0
17491,-100,4,2,1,40,0,0
23491,-100,4,2,1,45,0,1
23891,-100,4,2,1,50,0,0
25091,-100,4,2,1,50,0,1
25491,-100,4,2,1,50,0,0
28691,-100,4,2,1,45,0,0
31891,-100,4,2,1,40,0,0
37891,-100,4,2,1,45,0,1
38291,-100,4,2,1,50,0,0
39491,-100,4,2,1,50,0,1
39891,-100,4,2,1,50,0,0
43091,-100,4,2,1,45,0,0
46291,-100,4,2,1,40,0,0
60691,-100,4,2,1,35,0,0
74291,-100,4,2,1,40,0,0
75091,-100,4,2,1,45,0,0
75891,-100,4,2,1,50,0,0
76691,-100,4,2,1,40,0,0
82691,-100,4,2,1,45,0,1
83091,-100,4,2,1,50,0,0
84291,-100,4,2,1,50,0,1
84691,-100,4,2,1,50,0,0
94291,-100,4,2,1,45,0,0

[Colours]
Combo1 : 194,145,255
Combo2 : 255,177,125
Combo3 : 140,255,252
Combo4 : 207,255,119

[HitObjects]
488,76,2291,5,4,0:0:0:0:
488,76,2491,2,0,P|444:36|385:33,1,120,10|10,0:1|0:1,0:0:0:0:
348,74,3091,2,0,L|245:64,2,90,2|2|10,0:1|0:1|0:1,0:0:0:0:
404,166,4091,2,0,P|360:205|301:208,1,120,10|10,0:1|0:1,0:0:0:0:
254,179,4691,2,0,L|124:165,1,120,2|2,0:1|0:1,0:0:0:0:
39,207,5491,5,2,0:1:0:0:
39,207,5691,2,0,B|33:167|33:167|71:84,1,120,10|10,0:1|0:1,0:0:0:0:
96,49,6291,2,0,P|62:52|10:28,2,90,2|2|10,0:1|0:1|0:1,0:0:0:0:
143,23,7091,5,8,0:3:0:0:
358,43,7891,1,8,0:3:0:0:
306,138,8291,1,8,0:3:0:0:
396,196,8691,5,4,0:0:0:0:
396,196,8891,2,0,P|418:261|400:326,1,120,10|10,0:1|0:1,0:0:0:0:
422,362,9491,2,0,L|511:370,2,90,2|2|10,0:1|0:1|0:1,0:0:0:0:
316,336,10491,2,0,L|181:353,1,120,10|10,0:1|0:1,0:0:0:0:
147,329,11091,2,0,P|138:270|159:214,1,120,2|2,0:1|0:1,0:0:0:0:
234,136,11891,6,0,L|224:63,1,60,6|10,0:1|0:1,0:0:0:0:
377,19,12691,2,0,L|368:78,1,60,6|10,0:1|0:1,0:0:0:0:
294,222,13491,2,0,L|284:295,1,60,6|10,0:1|0:1,0:0:0:0:
437,339,14291,2,0,L|428:279,1,60,6|10,0:1|0:1,0:0:0:0:
286,201,15091,2,0,L|276:128,1,60,6|10,0:1|0:1,0:0:0:0:
151,39,15891,6,0,P|92:35|52:145,1,180,6|8,0:1|0:0,0:0:0:0:
96,151,16691,2,0,B|129:213|81:263|81:263|94:282|99:329,1,180,8|8,0:3|0:3,0:0:0:0:
147,339,17491,6,0,P|251:248|345:283,1,240,4|2,0:0|0:0,0:0:0:0:
443,290,18691,1,0,0:0:0:0:
400,190,19091,2,0,P|402:158|408:130,2,60,2|8|0,0:0|0:0|0:0,0:0:0:0:
336,275,19891,2,0,P|261:297|173:239,1,180,2|10,0:0|0:0,0:0:0:0:
126,263,20691,6,0,P|97:206|206:85,1,240,2|2,0:0|0:0,0:0:0:0:
283,145,21891,1,2,0:0:0:0:
370,81,22291,2,0,P|421:70|452:68,1,60,2|8,0:0|0:0,0:0:0:0:
446,120,22691,2,0,P|489:148|513:168,1,60,2|8,0:0|0:0,0:0:0:0:
477,204,23091,2,0,P|469:283|428:325,1,120,10|14,0:0|0:1,0:0:0:0:
393,330,23691,1,14,0:1:0:0:
393,330,23891,6,0,B|339:306|339:306|268:316,1,120,6|2,0:1|0:0,0:0:0:0:
309,210,24691,2,0,B|248:218|248:218|194:194,1,120,10|14,0:0|0:1,0:0:0:0:
140,198,25291,1,14,0:1:0:0:
140,198,25491,6,0,L|134:61,1,120,6|2,0:1|0:0,0:0:0:0:
220,12,26291,1,2,0:0:0:0:
317,57,26691,1,2,0:0:0:0:
417,17,27091,6,0,P|465:75|454:124,1,120,6|14,0:1|0:1,0:0:0:0:
417,149,27691,1,8,0:0:0:0:
364,161,27891,2,0,P|316:219|327:268,1,120,6|8,0:1|0:3,0:0:0:0:
360,359,28691,2,0,P|304:365|243:329,1,120,6|2,0:0|0:0,0:0:0:0:
147,299,29491,2,0,L|84:322,2,60,10|8|8,0:0|0:3|0:3,0:0:0:0:
168,249,30091,1,8,0:3:0:0:
168,249,30291,6,0,P|174:185|83:111,1,180,6|8,0:0|0:0,0:0:0:0:
43,92,31091,2,0,B|136:103|123:45|228:58,1,180,10|10,0:0|0:0,0:0:0:0:
257,21,31891,6,0,P|361:112|455:77,1,240,4|2,0:0|0:0,0:0:0:0:
508,173,33091,1,0,0:0:0:0:
442,258,33491,2,0,P|435:287|433:317,2,60,2|8|0,0:0|0:0|0:0,0:0:0:0:
336,231,34291,2,0,P|261:253|173:195,1,180,2|10,0:0|0:0,0:0:0:0:
180,149,35091,6,0,P|95:145|25:281,1,240,2|2,0:0|0:0,0:0:0:0:
87,351,36291,1,2,0:0:0:0:
194,346,36691,2,0,P|245:357|276:359,1,60,2|8,0:0|0:0,0:0:0:0:
299,384,37091,2,0,P|342:363|359:351,1,60,2|8,0:0|0:0,0:0:0:0:
404,344,37491,2,0,P|436:294|435:235,1,120,10|14,0:0|0:1,0:0:0:0:
418,192,38091,1,14,0:1:0:0:
418,192,38291,6,0,B|362:211|362:211|292:195,1,120,6|2,0:1|0:0,0:0:0:0:
282,91,39091,2,0,B|226:71|226:71|156:87,1,120,2|14,0:0|0:1,0:0:0:0:
125,121,39691,1,14,0:1:0:0:
125,121,39891,6,0,L|119:258,1,120,6|2,0:1|0:0,0:0:0:0:
46,320,40691,1,10,0:0:0:0:
151,344,41091,1,8,0:3:0:0:
224,264,41491,6,0,P|302:247|341:285,1,120,6|14,0:1|0:1,0:0:0:0:
360,312,42091,1,8,0:0:0:0:
379,362,42291,2,0,P|457:379|496:341,1,120,6|8,0:1|0:3,0:0:0:0:
504,251,43091,2,0,L|495:125,1,120,6|2,0:0|0:0,0:0:0:0:
454,31,43891,2,0,L|510:10,2,60,10|8|10,0:0|0:0|0:0,0:0:0:0:
411,63,44491,1,8,0:0:0:0:
369,97,44691,6,0,P|304:113|223:37,1,180,6|8,0:0|0:0,0:0:0:0:
185,5,45491,2,0,B|130:27|121:86|121:86|107:59|55:51,1,180,10|8,0:0|0:3,0:0:0:0:
14,79,46291,5,6,0:1:0:0:
56,178,46691,1,2,0:1:0:0:
23,280,47091,2,0,P|82:282|163:184,1,180,2|10,0:1|0:0,0:0:0:0:
224,113,48091,2,0,L|356:98,1,120,10|10,0:1|0:1,0:0:0:0:
375,56,48691,2,0,P|444:73|465:183,1,180,2|10,0:1|0:1,0:0:0:0:
423,195,49491,5,2,0:1:0:0:
427,302,49891,1,2,0:1:0:0:
341,368,50291,2,0,L|156:351,1,180,2|10,0:1|0:0,0:0:0:0:
137,303,51091,1,2,0:1:0:0:
137,303,51291,2,0,L|271:268,1,120,10|10,0:1|0:0,0:0:0:0:
307,268,51891,2,0,P|331:225|319:140,1,120,14|14,0:1|0:1,0:0:0:0:
218,155,52691,6,0,P|193:86|250:-4,1,180,6|10,0:1|0:1,0:0:0:0:
290,27,53491,2,0,L|426:16,1,120,2|14,0:1|0:1,0:0:0:0:
450,117,54291,2,0,P|373:121|318:215,1,180,6|10,0:1|0:1,0:0:0:0:
274,231,55091,2,0,L|286:353,1,120,14|8,0:1|0:3,0:0:0:0:
180,375,55891,5,12,0:1:0:0:
76,343,56291,1,12,0:0:0:0:
28,246,56691,1,14,0:1:0:0:
56,141,57091,1,8,0:3:0:0:
121,54,57491,6,0,L|248:48,1,120,6|2,0:1|0:1,0:0:0:0:
252,155,58291,2,0,L|379:149,1,120,2|0,0:1|0:0,0:0:0:0:
465,203,59091,2,0,P|510:276|469:363,1,180,10|8,0:1|0:3,0:0:0:0:
424,370,59891,2,0,L|304:375,1,120,8|8,0:3|0:0,0:0:0:0:
208,324,60691,5,4,0:0:0:0:
109,367,61091,1,10,0:0:0:0:
31,292,61491,2,0,L|59:43,1,240,2|6,0:0|0:0,0:0:0:0:
153,3,62691,1,10,0:0:0:0:
231,78,63091,2,0,L|203:327,1,240,2|6,0:0|0:0,0:0:0:0:
295,374,64291,5,10,0:0:0:0:
375,301,64691,2,0,P|444:285|487:117,1,240,2|6,0:0|0:0,0:0:0:0:
439,47,65891,1,10,0:0:0:0:
359,120,66291,2,0,P|290:136|247:304,1,240,2|6,0:0|0:0,0:0:0:0:
142,335,67491,5,10,0:0:0:0:
44,381,67891,2,0,B|36:294|36:294|87:251|87:251|81:158,1,240,2|6,0:0|0:0,0:0:0:0:
137,73,69091,1,10,0:0:0:0:
236,31,69491,2,0,B|244:118|244:118|193:161|193:161|198:246,1,240,2|6,0:0|0:0,0:0:0:0:
298,205,70691,5,10,0:0:0:0:
392,257,71091,2,0,P|448:256|506:192,1,120,2|10,0:0|0:0,0:0:0:0:
411,150,71891,2,0,L|382:22,1,120,6|10,0:0|0:0,0:0:0:0:
290,86,72691,2,0,P|233:94|175:59,1,120,2|10,0:0|0:0,0:0:0:0:
76,96,73491,6,0,P|148:99|189:200,1,180,6|0,0:0|0:0,0:0:0:0:
137,189,74291,2,0,L|160:371,1,180,2|0,0:0|0:0,0:0:0:0:
210,346,75091,2,0,B|277:323|277:323|326:338|326:338|392:312,1,180,2|10,0:0|0:0,0:0:0:0:
433,327,75891,2,0,B|427:273|399:242|399:242|437:231|472:188,1,180,10|8,0:0|0:3,0:0:0:0:
484,140,76691,6,0,P|371:161|294:76,1,240,6|2,0:0|0:0,0:0:0:0:
204,15,77891,1,0,0:0:0:0:
213,122,78291,2,0,P|206:151|204:181,2,60,2|8|0,0:0|0:0|0:0,0:0:0:0:
111,83,79091,2,0,P|26:126|7:207,1,180,2|10,0:0|0:0,0:0:0:0:
60,194,79891,6,0,P|134:240|142:391,1,240,2|2,0:0|0:0,0:0:0:0:
251,354,81091,1,2,0:0:0:0:
346,302,81491,2,0,P|366:251|367:223,1,60,2|8,0:0|0:0,0:0:0:0:
411,216,81891,2,0,P|404:153|400:142,1,60,2|8,0:0|0:0,0:0:0:0:
445,121,82291,2,0,P|414:33|374:8,1,120,10|14,0:0|0:1,0:0:0:0:
341,18,82891,1,14,0:1:0:0:
341,18,83091,6,0,B|285:37|285:37|215:21,1,120,6|2,0:1|0:0,0:0:0:0:
206,129,83891,2,0,B|152:102|152:102|114:42,1,120,10|14,0:0|0:1,0:0:0:0:
90,6,84491,1,14,0:1:0:0:
90,6,84691,6,0,L|-2:103,1,120,6|2,0:1|0:0,0:0:0:0:
42,195,85491,2,8,L|-11:246,2,60,10|8|8,0:0|0:0|0:0,0:0:0:0:
127,260,86291,6,0,P|205:277|244:239,1,120,14|14,0:1|0:1,0:0:0:0:
269,216,86891,1,8,0:0:0:0:
302,173,87091,2,0,P|380:156|419:194,1,120,14|8,0:1|0:3,0:0:0:0:
504,124,87891,2,0,L|495:-2,1,120,6|2,0:0|0:0,0:0:0:0:
387,15,88691,2,0,L|312:-10,2,60,10|8|10,0:0|0:0|0:0,0:0:0:0:
350,116,89491,6,0,P|297:141|243:119,1,120,14|14,0:1|0:1,0:0:0:0:
190,113,90091,1,8,0:0:0:0:
141,135,90291,2,0,P|96:189|106:245,1,120,14|8,0:1|0:0,0:0:0:0:
206,257,91091,2,0,L|334:244,1,120,6|2,0:0|0:0,0:0:0:0:
433,247,91891,2,0,L|459:181,2,60,2|8|10,0:0|0:0|0:0,0:0:0:0:
381,342,92691,6,0,P|323:368|249:344,1,120,14|14,0:1|0:1,0:0:0:0:
221,332,93291,1,8,0:0:0:0:
182,293,93491,2,0,P|123:283|70:308,1,120,14|8,0:1|0:3,0:0:0:0:
44,203,94291,2,0,L|60:68,1,120,6|2,0:0|0:0,0:0:0:0:
158,44,95091,2,0,L|143:163,1,120,6|2,0:0|0:0,0:0:0:0:
236,218,95891,6,0,L|252:83,1,120,6|2,0:0|0:0,0:0:0:0:
348,53,96691,1,6,0:0:0:0:
438,112,97091,1,2,0:0:0:0:
342,161,97491,2,0,L|327:280,1,120,6|2,0:0|0:0,0:0:0:0:
227,320,98291,1,6,0:0:0:0:
134,264,98691,1,2,0:0:0:0:
31,298,99091,5,6,0:0:0:0:
123,243,99491,1,2,0:0:0:0:
80,143,99891,2,0,P|85:111|102:69,2,60,6|6|6,0:0|0:0|0:0,0:0:0:0:
