osu file format v14

[General]
AudioFilename: audio.mp3
AudioLeadIn: 0
PreviewTime: 20690
Countdown: 0
SampleSet: Soft
StackLeniency: 0.4
Mode: 0
LetterboxInBreaks: 0
WidescreenStoryboard: 1

[Editor]
Bookmarks: 2240,17440,23840,31840,38240,46240,60691,76691,83091,100291,111840,118290,135440
DistanceSpacing: 1.4
BeatDivisor: 4
GridSize: 32
TimelineZoom: 3.099999

[Metadata]
Title:Punk Rock Girl
TitleUnicode:Punk Rock Girl
Artist:Streetlight Manifesto
ArtistUnicode:Streetlight Manifesto
Creator:Milan-
Version:Extra
Source:
Tags:pho pishifat punk jazz ska
BeatmapID:1222034
BeatmapSetID:577394

[Difficulty]
HPDrainRate:6
CircleSize:3.8
OverallDifficulty:9
ApproachRate:9.6
SliderMultiplier:1.5
SliderTickRate:1

[Events]
//Background and Video events
0,0,"a.jpg",0,0
//Break Periods
//Storyboard Layer 0 (Background)
//Storyboard Layer 1 (Fail)
//Storyboard Layer 2 (Pass)
//Storyboard Layer 3 (Foreground)
//Storyboard Sound Samples

[TimingPoints]
691,200,4,2,1,50,1,0
7091,-125,4,2,1,50,0,0
8691,-100,4,2,1,50,0,0
17491,-111.111111111111,4,2,1,40,0,0
23491,-111.111111111111,4,2,1,45,0,1
23891,-83.3333333333333,4,2,1,50,0,0
25091,-83.3333333333333,4,2,1,50,0,1
25491,-83.3333333333333,4,2,1,50,0,0
27091,-125,4,2,1,50,0,0
28691,-100,4,2,1,45,0,0
31891,-111.111111111111,4,2,1,40,0,0
37891,-111.111111111111,4,2,1,45,0,1
38291,-83.3333333333333,4,2,1,50,0,0
39491,-83.3333333333333,4,2,1,50,0,1
39891,-83.3333333333333,4,2,1,50,0,0
41491,-125,4,2,1,50,0,0
43091,-100,4,2,1,45,0,0
46291,-100,4,2,1,40,0,0
60691,-166.666666666667,4,2,1,35,0,0
74291,-142.857142857143,4,2,1,40,0,0
75091,-125,4,2,1,45,0,0
75891,-111.111111111111,4,2,1,50,0,0
76691,-111.111111111111,4,2,1,40,0,0
82691,-111.111111111111,4,2,1,45,0,1
83091,-83.3333333333333,4,2,1,50,0,0
84291,-83.3333333333333,4,2,1,50,0,1
84691,-83.3333333333333,4,2,1,50,0,0
86291,-125,4,2,1,50,0,0
87891,-100,4,2,1,50,0,0
89491,-125,4,2,1,50,0,0
91091,-100,4,2,1,50,0,0
92691,-125,4,2,1,50,0,0
94291,-100,4,2,1,45,0,0
100041,-100,4,2,1,5,0,0
100091,-100,4,2,1,45,0,0
100241,-100,4,2,1,5,0,0
100291,-100,4,2,1,45,0,0

[Colours]
Combo1 : 194,145,255
Combo2 : 255,177,125
Combo3 : 140,255,252
Combo4 : 207,255,119

[HitObjects]
323,264,2091,5,8,0:0:0:0:
323,264,2191,1,8,0:3:0:0:
323,264,2291,6,0,L|330:189,1,75,4|0,0:0|0:0,0:0:0:0:
239,326,2491,2,0,P|191:337|106:289,1,150,10|0,0:1|0:0,0:0:0:0:
153,203,2791,1,0,0:0:0:0:
75,143,2891,2,0,P|65:92|91:44,1,75,10|0,0:1|0:0,0:0:0:0:
296,77,3091,6,0,P|234:118|163:102,1,150,2|8,0:1|0:0,0:0:0:0:
379,127,3391,2,0,P|450:111|511:151,1,150,2|0,0:1|0:0,0:0:0:0:
338,284,3691,2,0,L|327:210,1,75,10|0,0:1|0:0,0:0:0:0:
416,344,3891,1,0,0:0:0:0:
416,344,4091,5,10,0:1:0:0:
325,380,4191,1,2,0:1:0:0:
245,322,4291,2,0,P|212:304|174:301,1,75,2|0,0:1|0:0,0:0:0:0:
18,370,4491,2,0,P|56:367|89:350,1,75,10|0,0:1|0:0,0:0:0:0:
92,113,4691,6,0,P|63:181|86:250,1,150,2|8,0:1|0:0,0:0:0:0:
158,184,4991,1,0,0:0:0:0:
247,220,5091,2,0,P|254:184|245:148,1,75,2|0,0:1|0:0,0:0:0:0:
342,7,5291,2,0,P|318:35|307:71,1,75,8|0,0:0|0:0,0:0:0:0:
428,166,5491,6,0,L|354:157,1,75,2|0,0:1|0:0,0:0:0:0:
203,57,5691,2,0,B|146:75|146:75|56:61,1,150,10|0,0:1|0:0,0:0:0:0:
14,150,5991,1,0,0:0:0:0:
92,207,6091,2,0,P|109:239|110:277,1,75,10|0,0:1|0:0,0:0:0:0:
19,380,6291,6,0,L|180:362,1,150,2|8,0:1|0:0,0:0:0:0:
356,290,6591,2,0,L|207:274,1,150,2|0,0:1|0:0,0:0:0:0:
196,105,6891,2,0,P|183:143|182:179,1,75,10|0,0:1|0:0,0:0:0:0:
313,102,7091,5,8,0:3:0:0:
313,102,7191,1,4,0:3:0:0:
313,102,7291,2,0,L|303:25,1,60,0|0,0:0|0:3,0:0:0:0:
341,211,7491,1,8,0:3:0:0:
341,211,7591,1,4,0:3:0:0:
341,211,7691,2,0,L|261:204,1,60,8|0,0:0|0:0,0:0:0:0:
138,153,7891,5,8,0:3:0:0:
138,153,7991,1,4,0:3:0:0:
138,153,8091,2,0,L|218:146,1,60,8|0,0:0|0:0,0:0:0:0:
59,229,8291,1,8,0:3:0:0:
59,229,8391,1,4,0:3:0:0:
59,229,8491,2,0,L|-21:222,1,60,8|0,0:0|0:0,0:0:0:0:
138,366,8691,6,0,L|145:291,1,75,4|0,0:0|0:0,0:0:0:0:
138,153,8891,2,0,P|211:141|258:84,1,150,10|0,0:1|0:0,0:0:0:0:
333,23,9191,1,0,0:0:0:0:
390,101,9291,2,0,L|399:188,1,75,10|0,0:1|0:0,0:0:0:0:
333,22,9491,6,0,P|264:48|198:16,1,150,2|8,0:1|0:0,0:0:0:0:
13,106,9791,2,0,P|79:74|148:100,1,150,2|0,0:1|0:0,0:0:0:0:
96,250,10091,2,0,L|85:176,1,75,10|0,0:1|0:0,0:0:0:0:
244,144,10291,1,0,0:0:0:0:
244,144,10491,5,10,0:1:0:0:
205,233,10591,1,2,0:1:0:0:
286,285,10691,2,0,L|359:269,1,75,2|0,0:1|0:0,0:0:0:0:
247,374,10891,2,0,L|166:357,1,75,10|0,0:1|0:0,0:0:0:0:
64,204,11091,6,0,B|97:250|97:250|64:343,1,150,2|8,0:1|0:0,0:0:0:0:
162,190,11391,1,0,0:0:0:0:
240,247,11491,2,0,L|313:231,1,75,2|0,0:1|0:0,0:0:0:0:
162,190,11691,2,0,P|154:137|174:89,1,75,8|8,0:0|0:0,0:0:0:0:
310,59,11891,6,0,L|237:44,1,75,6|0,0:1|0:0,0:0:0:0:
375,147,12091,2,0,P|449:155|511:116,1,150,10|0,0:1|0:0,0:0:0:0:
278,152,12391,1,0,0:0:0:0:
294,232,12491,1,10,0:1:0:0:
307,313,12591,1,10,0:1:0:0:
378,354,12691,6,0,L|451:338,1,75,6|0,0:1|0:0,0:0:0:0:
223,283,12891,2,0,P|160:244|87:251,1,150,10|0,0:1|0:0,0:0:0:0:
19,100,13191,1,0,0:0:0:0:
93,135,13291,1,10,0:1:0:0:
159,85,13391,1,10,0:1:0:0:
233,120,13491,6,0,L|249:42,1,75,6|0,0:1|0:0,0:0:0:0:
412,0,13691,2,0,B|370:34|370:34|347:148,1,150,10|0,0:1|0:0,0:0:0:0:
503,262,13991,1,0,0:0:0:0:
429,297,14091,1,10,0:1:0:0:
363,247,14191,1,10,0:1:0:0:
289,282,14291,6,0,L|273:204,1,75,6|0,0:1|0:0,0:0:0:0:
110,162,14491,2,0,B|152:196|152:196|175:310,1,150,10|0,0:1|0:0,0:0:0:0:
16,204,14791,1,0,0:0:0:0:
13,121,14891,1,10,0:1:0:0:
77,69,14991,1,10,0:1:0:0:
159,69,15091,6,0,P|209:58|234:36,1,75,6|0,0:1|0:0,0:0:0:0:
428,135,15291,2,0,P|366:96|295:112,1,150,10|0,0:1|0:0,0:0:0:0:
110,162,15591,1,0,0:0:0:0:
191,177,15691,1,10,0:1:0:0:
252,231,15791,1,10,0:1:0:0:
271,311,15891,6,0,L|258:384,1,75,6|0,0:1|0:0,0:0:0:0:
362,285,16091,2,0,L|349:212,1,75,4|0,0:3|0:0,0:0:0:0:
410,34,16291,5,8,0:0:0:0:
335,107,16391,1,8,0:0:0:0:
247,48,16491,1,8,0:0:0:0:
172,121,16591,1,8,0:0:0:0:
84,63,16691,6,0,L|0:49,1,75,8|0,0:3|0:3,0:0:0:0:
151,240,16891,2,0,L|235:226,1,75,8|0,0:3|0:3,0:0:0:0:
74,79,17091,2,0,L|-10:65,1,75,8|4,0:3|0:3,0:0:0:0:
123,227,17291,2,0,L|207:213,1,75,8|4,0:3|0:3,0:0:0:0:
13,177,17491,6,0,P|1:208|0:242,1,67.4999979400635,4|0,0:0|0:0,0:0:0:0:
68,307,17691,2,0,P|80:338|81:372,1,67.4999979400635,8|0,0:0|0:0,0:0:0:0:
197,312,17891,2,0,P|197:278|210:247,1,67.4999979400635
283,186,18091,2,0,L|369:191,1,67.4999979400635,8|0,0:0|0:0,0:0:0:0:
438,290,18291,6,0,L|293:280,1,134.999995880127,2|8,0:0|0:0,0:0:0:0:
210,247,18591,1,0,0:0:0:0:
131,306,18691,2,0,P|113:258|124:214,1,67.4999979400635
183,100,18891,2,0,P|181:134|166:164,1,67.4999979400635,8|0,0:0|0:0,0:0:0:0:
18,266,19091,6,0,P|20:200|70:157,1,134.999995880127,2|8,0:0|0:0,0:0:0:0:
113,242,19391,1,0,0:0:0:0:
207,249,19491,2,0,L|284:234,1,67.4999979400635
221,352,19691,2,0,L|144:337,1,67.4999979400635,8|0,0:0|0:0,0:0:0:0:
355,307,19891,6,0,B|383:268|383:268|361:173,1,134.999995880127,2|8,0:0|0:0,0:0:0:0:
441,10,20191,1,0,0:0:0:0:
365,67,20291,1,2,0:0:0:0:
284,15,20391,1,2,0:0:0:0:
207,71,20491,2,0,L|224:151,1,67.4999979400635,10|0,0:0|0:0,0:0:0:0:
149,253,20691,6,0,P|208:222|273:236,1,134.999995880127,2|8,0:0|0:0,0:0:0:0:
356,192,20991,1,0,0:0:0:0:
433,246,21091,2,0,P|445:217|443:155,2,67.4999979400635,2|2|10,0:0|0:0|0:0,0:0:0:0:
349,289,21391,1,0,0:0:0:0:
273,236,21491,6,0,P|263:206|269:144,1,67.4999979400635,2|0,0:0|0:0,0:0:0:0:
170,147,21691,2,0,P|184:118|232:79,1,67.4999979400635,8|0,0:0|0:0,0:0:0:0:
64,0,21891,2,0,P|87:24|103:54,1,67.4999979400635,2|0,0:0|0:0,0:0:0:0:
10,77,22091,2,0,P|10:110|0:143,1,67.4999979400635,8|0,0:0|0:0,0:0:0:0:
24,272,22291,6,0,B|64:244|64:244|168:255,1,134.999995880127,2|8,0:0|0:0,0:0:0:0:
239,223,22591,1,0,0:0:0:0:
224,382,22691,2,0,L|219:315,1,67.4999979400635,2|0,0:0|0:0,0:0:0:0:
340,216,22891,2,0,L|345:148,1,67.4999979400635,8|8,0:0|0:0,0:0:0:0:
191,51,23091,5,10,0:0:0:0:
199,73,23191,1,8,0:0:0:0:
208,95,23291,1,8,0:0:0:0:
216,117,23391,1,8,0:0:0:0:
225,139,23491,5,14,0:1:0:0:
118,121,23591,1,8,0:0:0:0:
62,213,23691,1,14,0:1:0:0:
169,231,23791,1,8,0:0:0:0:
225,139,23891,6,0,B|284:119|284:119|341:135|341:135|409:115,1,179.999994506836,6|8,0:1|0:0,0:0:0:0:
496,161,24191,1,0,0:0:0:0:
475,267,24291,2,0,B|416:247|416:247|359:263|359:263|291:243,1,179.999994506836,2|8,0:0|0:0,0:0:0:0:
194,249,24591,1,8,0:0:0:0:
95,293,24691,6,0,L|90:399,1,89.9999972534181,10|8,0:0|0:0,0:0:0:0:
307,336,24891,2,0,L|302:246,1,89.9999972534181,8|8,0:0|0:0,0:0:0:0:
126,123,25091,5,14,0:1:0:0:
229,153,25191,1,8,0:0:0:0:
304,75,25291,1,14,0:1:0:0:
407,105,25391,1,8,0:0:0:0:
479,24,25491,6,0,B|448:78|448:78|488:221,1,179.999994506836,6|8,0:1|0:0,0:0:0:0:
476,299,25791,1,0,0:0:0:0:
368,297,25891,2,0,B|399:243|399:243|359:100,1,179.999994506836,2|8,0:0|0:0,0:0:0:0:
265,94,26191,1,0,0:0:0:0:
175,154,26291,6,0,P|128:155|88:124,1,89.9999972534181,2|0,0:0|0:0,0:0:0:0:
0,45,26491,2,0,P|36:21|81:23,1,89.9999972534181,8|0,0:0|0:0,0:0:0:0:
265,94,26691,2,0,L|276:208,1,89.9999972534181,2|0,0:0|0:0,0:0:0:0:
100,345,26891,2,0,L|108:255,1,89.9999972534181,8|8,0:0|0:0,0:0:0:0:
306,295,27091,5,6,0:1:0:0:
306,295,27191,1,0,0:0:0:0:
306,295,27291,2,0,L|221:288,1,60,8|8,0:0|0:0,0:0:0:0:
213,188,27491,1,14,0:1:0:0:
213,188,27591,1,8,0:0:0:0:
213,188,27691,2,0,L|298:181,1,60,8|8,0:0|0:0,0:0:0:0:
428,224,27891,5,6,0:1:0:0:
428,224,27991,1,8,0:0:0:0:
428,224,28091,2,0,L|343:217,1,60,8|4,0:3|0:3,0:0:0:0:
264,89,28291,2,0,L|349:82,1,60,8|4,0:3|0:3,0:0:0:0:
444,51,28491,2,0,L|435:132,1,60,8|4,0:3|0:3,0:0:0:0:
150,161,28691,6,0,L|168:12,1,150,6|8,0:0|0:0,0:0:0:0:
254,187,28991,1,0,0:0:0:0:
184,253,29091,2,0,P|120:261|88:240,1,75,2|0,0:0|0:0,0:0:0:0:
79,350,29291,2,0,P|28:310|20:272,1,75,8|8,0:0|0:0,0:0:0:0:
0,134,29491,5,10,0:0:0:0:
84,85,29591,1,8,0:0:0:0:
171,127,29691,2,0,L|263:114,1,75,8|4,0:3|0:3,0:0:0:0:
378,4,29891,2,0,P|349:28|331:61,1,75,8|4,0:3|0:3,0:0:0:0:
329,233,30091,2,0,L|324:159,1,75,8|4,0:3|0:3,0:0:0:0:
473,53,30291,6,0,L|466:211,1,150,6|8,0:0|0:0,0:0:0:0:
414,285,30591,1,0,0:0:0:0:
329,233,30691,2,0,P|293:222|255:224,1,75,2|0,0:0|0:0,0:0:0:0:
230,129,30891,2,0,P|197:146|172:174,1,75,8|8,0:0|0:0,0:0:0:0:
134,372,31091,5,10,0:0:0:0:
142,350,31191,1,8,0:0:0:0:
151,328,31291,1,10,0:0:0:0:
159,306,31391,1,8,0:0:0:0:
168,284,31491,5,10,0:0:0:0:
59,284,31591,1,8,0:0:0:0:
6,188,31691,1,10,0:0:0:0:
65,97,31791,1,8,0:0:0:0:
175,107,31891,6,0,P|240:110|290:67,1,134.999995880127,4|8,0:0|0:0,0:0:0:0:
375,23,32191,1,0,0:0:0:0:
449,81,32291,2,0,L|440:172,1,67.4999979400635
347,157,32491,2,0,L|356:248,1,67.4999979400635,8|0,0:0|0:0,0:0:0:0:
388,316,32691,6,0,P|338:273|273:276,1,134.999995880127,2|8,0:0|0:0,0:0:0:0:
181,249,32991,1,0,0:0:0:0:
139,334,33091,2,0,P|171:345|204:340,1,67.4999979400635
83,258,33291,2,0,P|52:272|33:299,1,67.4999979400635,8|0,0:0|0:0,0:0:0:0:
181,249,33491,6,0,L|173:107,1,134.999995880127,2|8,0:0|0:0,0:0:0:0:
112,41,33791,1,0,0:0:0:0:
41,104,33891,2,0,L|45:177,1,67.4999979400635
112,41,34091,2,0,P|151:22|201:20,1,67.4999979400635,8|0,0:0|0:0,0:0:0:0:
300,98,34291,6,0,B|253:124|253:124|172:113,1,134.999995880127,2|8,0:0|0:0,0:0:0:0:
134,200,34591,1,0,0:0:0:0:
220,237,34691,1,2,0:0:0:0:
176,320,34791,1,2,0:0:0:0:
262,357,34891,2,0,L|328:346,1,67.4999979400635,10|0,0:0|0:0,0:0:0:0:
433,238,35091,6,0,P|371:258|316:224,1,134.999995880127,2|8,0:0|0:0,0:0:0:0:
356,137,35391,1,0,0:0:0:0:
282,77,35491,2,0,P|279:43|266:12,2,67.4999979400635,2|2|10,0:0|0:0|0:0,0:0:0:0:
231,156,35791,1,0,0:0:0:0:
105,66,35891,6,0,P|139:68|169:84,1,67.4999979400635,2|0,0:0|0:0,0:0:0:0:
56,193,36091,2,0,P|80:170|113:161,1,67.4999979400635,8|0,0:0|0:0,0:0:0:0:
176,302,36291,2,0,L|171:235,1,67.4999979400635,2|0,0:0|0:0,0:0:0:0:
272,337,36491,2,0,L|277:269,1,67.4999979400635,8|0,0:0|0:0,0:0:0:0:
377,152,36691,6,0,P|353:175|321:185,1,67.4999979400635,2|0,0:0|0:0,0:0:0:0:
193,87,36891,2,0,P|225:97|250:120,1,67.4999979400635,8|0,0:0|0:0,0:0:0:0:
324,0,37091,1,2,0:0:0:0:
324,0,37191,1,0,0:0:0:0:
324,0,37291,2,0,L|340:89,1,67.4999979400635,8|8,0:0|0:0,0:0:0:0:
474,214,37491,5,10,0:0:0:0:
474,214,37591,1,8,0:0:0:0:
474,214,37691,2,0,L|490:125,1,67.4999979400635,8|8,0:0|0:0,0:0:0:0:
250,120,37891,6,0,L|266:209,1,67.4999979400635,14|8,0:1|0:0,0:0:0:0:
426,311,38091,1,14,0:1:0:0:
328,258,38191,1,8,0:0:0:0:
257,346,38291,6,0,B|230:350|210:364|210:364|182:341|182:341|146:362|83:351,1,179.999994506836,6|8,0:1|0:0,0:0:0:0:
26,265,38591,1,0,0:0:0:0:
138,132,38691,2,0,P|140:176|123:217,1,89.9999972534181,2|0,0:0|0:0,0:0:0:0:
0,45,38891,2,0,L|88:35,1,89.9999972534181,8|0,0:0|0:0,0:0:0:0:
284,47,39091,6,0,L|195:37,1,89.9999972534181,2|0,0:0|0:0,0:0:0:0:
34,167,39291,1,8,0:0:0:0:
138,132,39391,1,8,0:0:0:0:
235,179,39491,6,0,P|246:234|237:281,1,89.9999972534181,14|8,0:1|0:0,0:0:0:0:
103,384,39691,2,0,P|99:339|110:296,1,89.9999972534181,14|8,0:1|0:0,0:0:0:0:
372,357,39891,6,0,B|324:386|324:386|181:353,1,179.999994506836,6|8,0:1|0:0,0:0:0:0:
110,295,40191,1,0,0:0:0:0:
35,216,40291,2,0,B|83:187|83:187|226:220,1,179.999994506836,2|8,0:0|0:0,0:0:0:0:
309,240,40591,1,8,0:0:0:0:
406,192,40691,6,0,L|391:102,1,89.9999972534181,10|8,0:0|0:0,0:0:0:0:
212,18,40891,2,0,L|226:106,1,89.9999972534181,8|4,0:3|0:3,0:0:0:0:
387,185,41091,6,0,L|372:95,1,89.9999972534181,8|4,0:3|0:3,0:0:0:0:
233,27,41291,2,0,L|247:115,1,89.9999972534181,8|4,0:3|0:3,0:0:0:0:
275,297,41491,6,0,P|223:269|165:280,1,120,6|8,0:1|0:0,0:0:0:0:
14,206,41791,1,8,0:0:0:0:
14,206,41891,2,0,P|71:217|123:189,1,120,14|8,0:1|0:0,0:0:0:0:
284,323,42191,5,8,0:0:0:0:
284,323,42291,2,0,P|232:295|174:306,1,120,6|8,0:1|0:0,0:0:0:0:
55,119,42591,1,8,0:0:0:0:
55,119,42691,2,0,L|66:33,1,60,8|4,0:3|0:3,0:0:0:0:
249,101,42891,2,0,L|241:160,1,60,8|4,0:3|0:3,0:0:0:0:
135,198,43091,6,0,L|158:49,1,150,6|8,0:0|0:0,0:0:0:0:
214,253,43391,1,0,0:0:0:0:
307,224,43491,2,0,P|344:227|375:247,1,75,2|0,0:0|0:0,0:0:0:0:
274,325,43691,2,0,P|242:345|205:347,1,75,8|8,0:0|0:0,0:0:0:0:
6,340,43891,5,10,0:0:0:0:
81,277,43991,1,8,0:0:0:0:
31,192,44091,1,8,0:0:0:0:
106,129,44191,1,8,0:0:0:0:
25,74,44291,2,0,L|23:-2,1,75,10|8,0:0|0:0,0:0:0:0:
200,84,44491,2,0,L|198:158,1,75,8|8,0:0|0:0,0:0:0:0:
81,277,44691,6,0,P|160:243|219:269,1,150,6|8,0:0|0:0,0:0:0:0:
313,255,44991,1,0,0:0:0:0:
376,329,45091,2,0,P|404:289|405:231,1,75,2|0,0:0|0:0,0:0:0:0:
506,271,45291,2,0,P|497:222|457:181,1,75,8|8,0:0|0:0,0:0:0:0:
469,76,45491,5,10,0:0:0:0:
446,86,45591,1,8,0:0:0:0:
418,85,45691,1,8,0:3:0:0:
395,95,45791,1,4,0:3:0:0:
367,91,45891,5,8,0:3:0:0:
315,186,45991,1,4,0:3:0:0:
211,220,46091,1,8,0:3:0:0:
112,173,46191,1,4,0:3:0:0:
87,67,46291,6,0,L|114:-11,1,75,6|0,0:1|0:0,0:0:0:0:
197,103,46491,1,10,0:0:0:0:
197,103,46591,1,2,0:0:0:0:
197,103,46691,2,0,L|221:32,1,75,2|0,0:1|0:0,0:0:0:0:
336,83,46891,1,10,0:0:0:0:
336,83,46991,1,2,0:0:0:0:
336,83,47091,6,0,L|311:153,1,75,2|0,0:1|0:0,0:0:0:0:
197,244,47291,2,0,P|234:251|270:242,1,75,10|0,0:0|0:0,0:0:0:0:
368,239,47491,2,0,L|377:319,1,75,2|0,0:1|0:0,0:0:0:0:
463,253,47691,2,0,L|472:328,1,75,10|0,0:0|0:0,0:0:0:0:
278,316,47891,6,0,L|269:241,1,75
311,153,48091,2,0,P|256:197|167:169,1,150,10|0,0:1|0:0,0:0:0:0:
109,118,48391,1,0,0:0:0:0:
28,173,48491,2,0,L|34:248,1,75,10|0,0:1|0:0,0:0:0:0:
125,341,48691,6,0,L|131:266,1,75,2|0,0:1|0:0,0:0:0:0:
229,272,48891,1,10,0:0:0:0:
182,183,48991,2,0,P|165:111|203:49,1,150,2|0,0:1|0:0,0:0:0:0:
337,118,49291,2,0,L|263:127,1,75,10|0,0:1|0:0,0:0:0:0:
396,211,49491,6,0,L|470:202,1,75,2|0,0:1|0:0,0:0:0:0:
380,314,49691,1,8,0:0:0:0:
380,314,49791,1,2,0:0:0:0:
380,314,49891,2,0,L|454:305,1,75,2|0,0:1|0:0,0:0:0:0:
470,202,50091,1,10,0:0:0:0:
470,202,50191,1,2,0:0:0:0:
470,202,50291,6,0,L|395:210,1,75,2|0,0:1|0:0,0:0:0:0:
296,100,50491,2,0,P|294:137|304:174,1,75,10|0,0:0|0:0,0:0:0:0:
258,260,50691,2,0,L|183:251,1,75,2|0,0:1|0:0,0:0:0:0:
194,154,50891,2,0,L|119:162,1,75,10|0,0:0|0:0,0:0:0:0:
10,252,51091,6,0,P|7:215|23:182,1,75,2|0,0:1|0:0,0:0:0:0:
0,53,51291,2,0,P|68:76|133:42,1,150,10|0,0:1|0:0,0:0:0:0:
228,19,51591,1,0,0:0:0:0:
275,116,51691,1,10,0:0:0:0:
275,116,51791,1,8,0:0:0:0:
275,116,51891,6,0,L|199:111,1,75,14|8,0:1|0:0,0:0:0:0:
379,132,52091,1,8,0:0:0:0:
317,207,52191,1,8,0:0:0:0:
349,299,52291,6,0,L|425:294,1,75,14|8,0:1|0:0,0:0:0:0:
255,282,52491,1,8,0:0:0:0:
317,207,52591,1,8,0:0:0:0:
275,116,52691,6,0,B|225:113|225:113|182:157|106:133,1,150,6|8,0:1|0:0,0:0:0:0:
157,45,52991,1,0,0:0:0:0:
63,73,53091,2,0,P|36:123|37:166,1,75
54,292,53291,2,0,P|75:261|82:225,1,75,10|0,0:1|0:0,0:0:0:0:
157,45,53491,6,0,L|320:31,1,150,2|8,0:1|0:0,0:0:0:0:
200,142,53791,1,8,0:0:0:0:
200,142,53891,2,0,L|287:134,1,75,14|8,0:1|0:0,0:0:0:0:
450,116,54091,2,0,L|375:122,1,75,10|8,0:1|0:0,0:0:0:0:
223,234,54291,6,0,B|296:260|291:199|369:233,2,150,6|8|0,0:1|0:0|0:0,0:0:0:0:
126,213,54791,1,0,0:0:0:0:
43,265,54891,2,0,P|30:203|46:166,1,75,10|8,0:1|0:0,0:0:0:0:
46,37,55091,5,14,0:1:0:0:
121,98,55191,1,8,0:0:0:0:
201,42,55291,1,8,0:3:0:0:
276,103,55391,1,4,0:3:0:0:
349,39,55491,2,0,L|426:35,1,75,8|4,0:3|0:3,0:0:0:0:
508,136,55691,2,0,L|434:133,1,75,8|4,0:3|0:3,0:0:0:0:
276,103,55891,5,12,0:1:0:0:
351,164,55991,1,8,0:0:0:0:
360,261,56091,1,10,0:1:0:0:
321,350,56191,1,8,0:0:0:0:
228,380,56291,2,0,L|128:365,1,75,12|8,0:0|0:0,0:0:0:0:
33,252,56491,1,10,0:1:0:0:
33,252,56591,1,8,0:0:0:0:
33,252,56691,6,0,L|107:263,1,75,14|8,0:1|0:0,0:0:0:0:
274,195,56891,1,8,0:0:0:0:
274,195,56991,1,8,0:0:0:0:
274,195,57091,2,0,L|174:180,1,75,8|4,0:3|0:3,0:0:0:0:
25,77,57291,1,8,0:3:0:0:
108,26,57391,1,4,0:3:0:0:
184,86,57491,6,0,P|244:84|309:-3,1,150,6|8,0:1|0:0,0:0:0:0:
398,47,57791,1,0,0:0:0:0:
341,126,57891,2,0,P|413:133|461:189,1,150,2|8,0:1|0:0,0:0:0:0:
406,271,58191,1,0,0:0:0:0:
310,292,58291,6,0,L|314:217,1,75,2|0,0:1|0:0,0:0:0:0:
226,91,58491,2,0,L|231:166,1,75,8|0,0:0|0:0,0:0:0:0:
150,306,58691,2,0,L|154:231,1,75
66,105,58891,2,0,L|70:179,1,75,8|8,0:0|0:0,0:0:0:0:
68,358,59091,5,10,0:1:0:0:
150,306,59191,1,8,0:0:0:0:
234,353,59291,1,10,0:1:0:0:
316,301,59391,1,8,0:0:0:0:
401,348,59491,1,8,0:0:0:0:
483,296,59591,1,8,0:0:0:0:
474,198,59691,2,0,L|393:190,1,75,8|4,0:3|0:3,0:0:0:0:
339,76,59891,2,0,L|264:83,1,75,8|4,0:3|0:3,0:0:0:0:
216,203,60091,2,0,L|135:195,1,75,8|4,0:3|0:3,0:0:0:0:
3,115,60291,5,8,0:0:0:0:
2,114,60691,6,0,P|76:160|79:247,1,179.999994506836,4|10,0:0|0:0,0:0:0:0:
88,254,61391,1,8,0:0:0:0:
88,254,61491,2,0,L|190:239,1,89.9999972534181,2|0,0:0|0:0,0:0:0:0:
265,223,61791,1,0,0:0:0:0:
265,223,61891,2,0,P|284:262|284:279,1,44.999998626709,10|0,0:0|0:0,0:0:0:0:
355,318,62091,2,0,P|374:279|374:262,1,44.999998626709
458,169,62291,6,0,P|418:189|330:142,1,134.999995880127,6|0,0:0|0:0,0:0:0:0:
249,148,62691,2,0,L|257:48,1,89.9999972534181,10|0,0:0|0:0,0:0:0:0:
171,25,62991,1,8,0:0:0:0:
171,25,63091,2,0,L|163:114,1,89.9999972534181,2|0,0:0|0:0,0:0:0:0:
124,196,63391,1,0,0:0:0:0:
124,196,63491,2,0,L|74:185,1,44.999998626709,8|0,0:0|0:0,0:0:0:0:
188,265,63691,2,0,L|238:254,1,44.999998626709
93,282,63891,6,0,P|53:293|27:378,1,134.999995880127,6|0,0:0|0:0,0:0:0:0:
188,265,64291,2,0,P|228:254|254:169,1,134.999995880127,10|8,0:0|0:0,0:0:0:0:
308,98,64691,2,0,L|311:-6,1,89.9999972534181,2|0,0:0|0:0,0:0:0:0:
395,36,64991,1,0,0:0:0:0:
395,36,65091,2,0,L|392:100,1,44.999998626709,10|0,0:0|0:0,0:0:0:0:
479,52,65291,2,0,L|476:116,1,44.999998626709
503,218,65491,6,0,P|452:181|383:197,1,134.999995880127,6|0,0:0|0:0,0:0:0:0:
294,191,65891,2,0,L|302:287,1,89.9999972534181,10|0,0:0|0:0,0:0:0:0:
233,339,66191,1,8,0:0:0:0:
233,339,66291,2,0,P|187:354|141:341,1,89.9999972534181,2|0,0:0|0:0,0:0:0:0:
74,291,66591,1,0,0:0:0:0:
74,291,66691,2,0,L|66:231,1,44.999998626709,10|0,0:0|0:0,0:0:0:0:
144,198,66891,2,0,L|152:138,1,44.999998626709
65,40,67091,6,0,P|149:63|194:26,1,134.999995880127,6|0,0:0|0:0,0:0:0:0:
246,104,67491,2,0,P|286:84|331:90,1,89.9999972534181,10|0,0:0|0:0,0:0:0:0:
413,127,67791,1,8,0:0:0:0:
413,127,67891,2,0,L|429:222,1,89.9999972534181,2|0,0:0|0:0,0:0:0:0:
340,238,68191,1,0,0:0:0:0:
340,238,68291,2,0,P|321:277|321:294,1,44.999998626709,10|0,0:0|0:0,0:0:0:0:
249,334,68491,2,0,P|230:295|230:278,1,44.999998626709
274,163,68691,6,0,P|214:135|154:162,1,134.999995880127,6|0,0:0|0:0,0:0:0:0:
72,124,69091,2,0,L|64:213,1,89.9999972534181,10|0,0:0|0:0,0:0:0:0:
148,254,69391,1,8,0:0:0:0:
148,254,69491,2,0,L|140:343,1,89.9999972534181,2|0,0:0|0:0,0:0:0:0:
228,359,69791,1,0,0:0:0:0:
228,359,69891,2,0,L|278:348,1,44.999998626709,10|0,0:0|0:0,0:0:0:0:
363,282,70091,2,0,L|313:271,1,44.999998626709
224,192,70291,6,0,L|320:171,1,89.9999972534181,6|0,0:0|0:0,0:0:0:0:
405,198,70591,1,0,0:0:0:0:
405,198,70691,2,0,P|440:178|461:115,1,89.9999972534181,10|0,0:0|0:0,0:0:0:0:
448,44,70991,1,8,0:0:0:0:
448,44,71091,2,0,L|386:51,1,44.999998626709,2|0,0:0|0:0,0:0:0:0:
318,80,71291,2,0,L|273:74,1,44.999998626709
181,9,71491,2,0,L|192:68,1,44.999998626709,10|0,0:0|0:0,0:0:0:0:
213,139,71691,2,0,L|202:198,1,44.999998626709
111,285,71891,6,0,P|119:223|101:193,1,89.9999972534181,6|0,0:0|0:0,0:0:0:0:
118,110,72191,1,0,0:0:0:0:
118,110,72291,2,0,L|8:122,1,89.9999972534181,10|0,0:0|0:0,0:0:0:0:
109,15,72591,1,8,0:0:0:0:
109,15,72691,2,0,L|219:27,1,89.9999972534181,2|0,0:0|0:0,0:0:0:0:
278,79,72991,1,0,0:0:0:0:
278,79,73091,2,0,L|270:139,1,44.999998626709,10|0,0:0|0:0,0:0:0:0:
366,147,73291,2,0,L|371:102,1,44.999998626709
299,213,73491,6,0,P|357:243|435:213,1,134.999995880127,6|0,0:0|0:0,0:0:0:0:
507,337,73891,2,0,P|443:319|384:349,1,134.999995880127,10|8,0:0|0:0,0:0:0:0:
250,384,74291,6,0,B|236:349|236:349|242:273,1,104.999996795654,2|0,0:0|0:0,0:0:0:0:
168,205,74591,1,0,0:0:0:0:
168,205,74691,2,0,B|182:170|182:170|176:94,1,104.999996795654,10|0,0:0|0:0,0:0:0:0:
302,68,74991,1,0,0:0:0:0:
302,68,75091,6,0,L|289:0,1,60,2|0,0:0|0:0,0:0:0:0:
411,121,75291,2,0,L|399:179,1,60,10|8,0:0|0:0,0:0:0:0:
228,260,75491,1,10,0:0:0:0:
301,207,75591,1,8,0:0:0:0:
372,262,75691,2,0,L|360:320,1,60,10|8,0:0|0:0,0:0:0:0:
228,260,75891,6,0,P|195:236|99:242,1,134.999995880127,10|10,0:0|0:0,0:0:0:0:
18,196,76191,1,8,0:0:0:0:
91,136,76291,1,10,0:0:0:0:
42,55,76391,1,8,0:0:0:0:
136,28,76491,1,8,0:3:0:0:
136,28,76591,1,12,0:3:0:0:
136,28,76691,6,0,P|184:22|219:29,1,67.4999979400635,6|0,0:0|0:0,0:0:0:0:
176,115,76891,2,0,P|220:133|247:157,1,67.4999979400635,8|0,0:0|0:0,0:0:0:0:
333,221,77091,2,0,L|330:154,1,67.4999979400635
238,239,77291,2,0,L|234:306,1,67.4999979400635,8|0,0:0|0:0,0:0:0:0:
156,360,77491,6,0,P|122:358|90:346,1,67.4999979400635,2|0,0:0|0:0,0:0:0:0:
92,251,77691,1,8,0:0:0:0:
11,300,77791,2,0,B|-7:258|-7:258|12:163,1,134.999995880127
71,98,78091,2,0,L|141:91,1,67.4999979400635,8|0,0:0|0:0,0:0:0:0:
255,177,78291,6,0,L|188:171,1,67.4999979400635,2|0,0:0|0:0,0:0:0:0:
192,6,78491,2,0,L|262:-1,1,67.4999979400635,8|0,0:0|0:0,0:0:0:0:
275,159,78691,6,0,L|207:152,1,67.4999979400635
207,24,78891,2,0,L|277:17,1,67.4999979400635,8|0,0:0|0:0,0:0:0:0:
378,207,79091,6,0,B|401:155|401:155|377:80,1,134.999995880127,2|8,0:0|0:0,0:0:0:0:
471,92,79391,1,0,0:0:0:0:
301,144,79491,1,2,0:0:0:0:
301,144,79591,1,2,0:0:0:0:
301,144,79691,2,0,L|233:137,1,67.4999979400635,10|0,0:0|0:0,0:0:0:0:
74,183,79891,6,0,P|139:185|186:231,1,134.999995880127,2|8,0:0|0:0,0:0:0:0:
276,262,80191,1,0,0:0:0:0:
204,323,80291,2,0,L|123:309,2,67.4999979400635,2|2|10,0:0|0:0|0:0,0:0:0:0:
276,262,80591,1,0,0:0:0:0:
362,382,80691,6,0,P|362:349|351:318,1,67.4999979400635,2|0,0:0|0:0,0:0:0:0:
276,262,80891,2,0,P|275:228|287:197,1,67.4999979400635,8|0,0:0|0:0,0:0:0:0:
427,132,81091,2,0,L|360:136,1,67.4999979400635,2|0,0:0|0:0,0:0:0:0:
286,76,81291,2,0,L|218:72,1,67.4999979400635,8|0,0:0|0:0,0:0:0:0:
98,9,81491,6,0,L|108:85,1,67.4999979400635,2|0,0:0|0:0,0:0:0:0:
157,227,81691,2,0,L|165:160,1,67.4999979400635,8|0,0:0|0:0,0:0:0:0:
82,24,81891,6,0,L|92:100,1,67.4999979400635,2|0,0:0|0:0,0:0:0:0:
137,243,82091,2,0,L|145:176,1,67.4999979400635,8|8,0:0|0:0,0:0:0:0:
258,206,82291,5,10,0:0:0:0:
281,201,82391,1,8,0:0:0:0:
304,196,82491,1,8,0:0:0:0:
327,192,82591,1,8,0:0:0:0:
350,187,82691,5,14,0:1:0:0:
431,258,82791,1,8,0:0:0:0:
395,361,82891,1,14,0:1:0:0:
314,290,82991,1,8,0:0:0:0:
350,187,83091,6,0,B|443:225|430:155|526:197,1,179.999994506836,6|8,0:1|0:0,0:0:0:0:
398,109,83391,1,0,0:0:0:0:
446,27,83491,2,0,B|353:-11|366:59|270:17,1,179.999994506836,2|8,0:0|0:0,0:0:0:0:
176,70,83791,1,8,0:0:0:0:
72,40,83891,6,0,L|84:144,1,89.9999972534181,10|8,0:0|0:0,0:0:0:0:
31,277,84091,1,8,0:3:0:0:
119,215,84191,1,4,0:3:0:0:
206,278,84291,6,0,P|254:286|310:265,1,89.9999972534181,14|8,0:1|0:0,0:0:0:0:
451,196,84491,2,0,P|407:185|364:194,1,89.9999972534181,14|8,0:1|0:0,0:0:0:0:
253,15,84691,6,0,B|218:70|218:70|247:181,1,179.999994506836,6|8,0:1|0:0,0:0:0:0:
206,278,84991,1,0,0:0:0:0:
131,356,85091,2,0,B|166:301|166:301|137:190,1,179.999994506836,2|8,0:0|0:0,0:0:0:0:
41,139,85391,1,8,0:0:0:0:
132,81,85491,6,0,L|232:65,1,89.9999972534181,10|8,0:0|0:0,0:0:0:0:
442,0,85691,1,8,0:0:0:0:
353,62,85791,1,8,0:0:0:0:
440,124,85891,2,0,L|340:108,1,89.9999972534181,8|8,0:0|0:0,0:0:0:0:
184,167,86091,1,8,0:0:0:0:
273,229,86191,1,8,0:0:0:0:
186,291,86291,5,14,0:1:0:0:
186,291,86391,1,8,0:0:0:0:
186,291,86491,2,0,L|263:280,1,60,8|8,0:0|0:0,0:0:0:0:
396,244,86691,1,14,0:1:0:0:
396,244,86791,1,8,0:0:0:0:
396,244,86891,2,0,L|319:233,1,60,8|8,0:0|0:0,0:0:0:0:
239,180,87091,5,14,0:1:0:0:
239,180,87191,1,8,0:0:0:0:
239,180,87291,2,0,L|162:191,1,60,8|4,0:3|0:3,0:0:0:0:
331,66,87491,2,0,L|336:126,1,60,8|4,0:3|0:3,0:0:0:0:
166,92,87691,2,0,L|161:32,1,60,8|4,0:3|0:3,0:0:0:0:
2,90,87891,6,0,L|10:257,1,150,6|8,0:0|0:0,0:0:0:0:
106,224,88191,1,0,0:0:0:0:
82,318,88291,2,0,P|134:321|171:296,1,75,2|0,0:0|0:0,0:0:0:0:
225,378,88491,2,0,P|263:343|272:299,1,75,8|8,0:0|0:0,0:0:0:0:
432,201,88691,5,10,0:0:0:0:
344,245,88791,1,8,0:0:0:0:
246,236,88891,1,8,0:0:0:0:
177,166,88991,1,8,0:0:0:0:
176,68,89091,2,0,L|270:47,1,75,10|8,0:0|0:0,0:0:0:0:
357,158,89291,2,0,L|284:142,1,75,8|8,0:0|0:0,0:0:0:0:
85,89,89491,5,14,0:1:0:0:
85,89,89591,1,8,0:0:0:0:
85,89,89691,2,0,L|101:168,1,60,8|8,0:0|0:0,0:0:0:0:
194,202,89891,1,14,0:1:0:0:
194,202,89991,1,8,0:0:0:0:
194,202,90091,2,0,L|178:281,1,60,8|8,0:0|0:0,0:0:0:0:
106,374,90291,5,14,0:1:0:0:
106,374,90391,1,8,0:0:0:0:
106,374,90491,2,0,L|90:295,1,60,8|4,0:3|0:3,0:0:0:0:
1,221,90691,2,0,P|30:217|60:224,1,60,8|8,0:0|0:0,0:0:0:0:
119,106,90891,2,0,P|148:110|177:103,1,60,8|8,0:0|0:0,0:0:0:0:
286,280,91091,6,0,P|263:214|314:151,1,150,6|8,0:0|0:0,0:0:0:0:
402,177,91391,1,0,0:0:0:0:
490,136,91491,2,0,L|476:50,1,75,2|0,0:0|0:0,0:0:0:0:
381,74,91691,2,0,L|395:-12,1,75,8|8,0:0|0:0,0:0:0:0:
306,153,91891,6,0,P|234:178|153:121,1,150,2|8,0:0|0:0,0:0:0:0:
102,77,92191,1,8,0:0:0:0:
17,126,92291,2,0,P|5:91|8:54,1,75,10|8,0:0|0:0,0:0:0:0:
87,196,92491,2,0,L|73:296,1,75,8|8,0:0|0:0,0:0:0:0:
7,375,92691,5,14,0:1:0:0:
7,375,92791,1,8,0:0:0:0:
7,375,92891,2,0,L|84:364,1,60,8|8,0:0|0:0,0:0:0:0:
176,309,93091,1,14,0:1:0:0:
176,309,93191,1,8,0:0:0:0:
176,309,93291,2,0,L|253:320,1,60,8|8,0:0|0:0,0:0:0:0:
94,204,93491,5,14,0:1:0:0:
94,204,93591,1,8,0:0:0:0:
94,204,93691,2,0,L|171:193,1,60,8|4,0:3|0:3,0:0:0:0:
255,86,93891,2,0,P|258:115|256:145,1,60,8|4,0:3|0:3,0:0:0:0:
332,291,94091,2,0,P|329:261|333:231,1,60,8|4,0:3|0:3,0:0:0:0:
511,140,94291,6,0,B|468:166|468:166|353:131,1,150,6|8,0:0|0:0,0:0:0:0:
343,44,94591,1,0,0:0:0:0:
255,86,94691,2,0,L|176:73,1,75,2|0,0:0|0:0,0:0:0:0:
120,151,94891,2,0,L|41:164,1,75,8|8,0:0|0:0,0:0:0:0:
0,317,95091,6,0,P|43:259|116:259,1,150,6|8,0:0|0:0,0:0:0:0:
201,212,95391,1,0,0:0:0:0:
279,270,95491,2,0,L|270:350,1,75,2|0,0:0|0:0,0:0:0:0:
369,229,95691,2,0,L|360:154,1,75,8|8,0:0|0:0,0:0:0:0:
427,6,95891,6,0,P|383:63|310:63,1,150,6|8,0:0|0:0,0:0:0:0:
223,17,96191,1,0,0:0:0:0:
140,68,96291,2,0,L|151:169,1,75,2|0,0:0|0:0,0:0:0:0:
289,212,96491,1,8,0:0:0:0:
193,230,96591,1,8,0:0:0:0:
257,303,96691,6,0,P|299:309|382:237,1,150,6|8,0:0|0:0,0:0:0:0:
289,212,96991,1,0,0:0:0:0:
470,302,97091,1,2,0:0:0:0:
470,302,97191,1,0,0:0:0:0:
470,302,97291,2,0,P|480:234|466:198,1,75,8|8,0:0|0:0,0:0:0:0:
317,123,97491,6,0,B|373:146|373:146|457:116,1,150,6|8,0:0|0:0,0:0:0:0:
291,27,97791,1,0,0:0:0:0:
224,98,97891,2,0,L|232:178,1,75,2|0,0:0|0:0,0:0:0:0:
126,74,98091,2,0,L|133:0,1,75,8|8,0:0|0:0,0:0:0:0:
130,188,98291,5,6,0:0:0:0:
130,188,98391,1,0,0:0:0:0:
130,188,98491,2,0,P|80:180|45:154,1,75,8|8,0:0|0:0,0:0:0:0:
196,280,98691,2,0,P|229:263|266:259,1,75,2|0,0:0|0:0,0:0:0:0:
79,293,98891,2,0,L|87:373,1,75,8|8,0:0|0:0,0:0:0:0:
231,172,99091,6,0,L|224:98,1,75,6|0,0:0|0:0,0:0:0:0:
95,281,99291,2,0,L|103:361,1,75,8|8,0:0|0:0,0:0:0:0:
212,186,99491,2,0,L|204:111,1,75,2|0,0:0|0:0,0:0:0:0:
196,350,99691,1,8,0:0:0:0:
286,314,99791,1,8,0:0:0:0:
370,363,99891,6,0,P|421:372|495:324,1,112.5,6|0,0:0|0:0,0:0:0:0:
475,348,100091,6,0,P|424:357|350:309,1,112.5,6|0,0:0|0:0,0:0:0:0:
388,321,100291,5,6,0:0:0:0:
