osu file format v14

[General]
AudioFilename: audio.mp3
AudioLeadIn: 0
PreviewTime: 20690
Countdown: 0
SampleSet: Soft
StackLeniency: 0.4
Mode: 0
LetterboxInBreaks: 0
WidescreenStoryboard: 1

[Editor]
Bookmarks: 2240,17440,23840,31840,38240,46240,60691,76691,83091,100291,111840,118290,135440
DistanceSpacing: 1.3
BeatDivisor: 4
GridSize: 32
TimelineZoom: 4.299998

[Metadata]
Title:Punk Rock Girl
TitleUnicode:Punk Rock Girl
Artist:Streetlight Manifesto
ArtistUnicode:Streetlight Manifesto
Creator:Milan-
Version:Insane
Source:
Tags:pho pishifat punk jazz ska
BeatmapID:1269449
BeatmapSetID:577394

[Difficulty]
HPDrainRate:5.5
CircleSize:4
OverallDifficulty:7.5
ApproachRate:9
SliderMultiplier:1.3
SliderTickRate:1

[Events]
//Background and Video events
0,0,"a.jpg",0,0
//Break Periods
//Storyboard Layer 0 (Background)
//Storyboard Layer 1 (Fail)
//Storyboard Layer 2 (Pass)
//Storyboard Layer 3 (Foreground)
//Storyboard Sound Samples

[TimingPoints]
691,200,4,2,1,50,1,0
7091,-133.333333333333,4,2,1,50,0,0
8691,-100,4,2,1,50,0,0
17491,-111.111111111111,4,2,1,40,0,0
23491,-90.9090909090909,4,2,1,45,0,1
23891,-83.3333333333333,4,2,1,50,0,0
23941,-100,4,2,1,50,0,0
25091,-90.9090909090909,4,2,1,50,0,1
25491,-76.9230769230769,4,2,1,50,0,0
25591,-100,4,2,1,50,0,0
27091,-133.333333333333,4,2,1,50,0,0
28691,-100,4,2,1,45,0,0
31891,-111.111111111111,4,2,1,40,0,0
37891,-90.9090909090908,4,2,1,45,0,1
38291,-83.3333333333333,4,2,1,50,0,0
38341,-100,4,2,1,50,0,0
39491,-90.9090909090909,4,2,1,50,0,1
39891,-76.9230769230769,4,2,1,50,0,0
39991,-100,4,2,1,50,0,0
41491,-133.333333333333,4,2,1,50,0,0
43091,-100,4,2,1,45,0,0
46291,-100,4,2,1,40,0,0
60691,-166.666666666667,4,2,1,35,0,0
74291,-166.666666666667,4,2,1,40,0,0
75091,-125,4,2,1,45,0,0
75891,-125,4,2,1,50,0,0
76691,-111.111111111111,4,2,1,40,0,0
82691,-90.9090909090909,4,2,1,45,0,1
83091,-83.3333333333333,4,2,1,50,0,0
83141,-100,4,2,1,50,0,0
84291,-90.9090909090909,4,2,1,50,0,1
84691,-76.9230769230769,4,2,1,50,0,0
84741,-100,4,2,1,50,0,0
86291,-133.333333333333,4,2,1,50,0,0
87891,-100,4,2,1,50,0,0
89491,-133.333333333333,4,2,1,50,0,0
91091,-100,4,2,1,50,0,0
92691,-133.333333333333,4,2,1,50,0,0
94291,-100,4,2,1,45,0,0

[Colours]
Combo1 : 194,145,255
Combo2 : 255,177,125
Combo3 : 140,255,252
Combo4 : 207,255,119

[HitObjects]
27,138,2091,5,8,0:0:0:0:
27,138,2191,1,8,0:3:0:0:
27,138,2291,6,0,L|34:73,1,65,4|0,0:0|0:0,0:0:0:0:
93,189,2491,2,0,P|155:200|205:161,1,130,10|0,0:1|0:0,0:0:0:0:
270,107,2791,1,0,0:0:0:0:
338,157,2891,2,0,L|332:231,1,65,10|0,0:1|0:0,0:0:0:0:
435,338,3091,6,0,B|429:302|410:284|410:284|429:262|436:204,1,130,2|8,0:1|0:0,0:0:0:0:
343,353,3391,2,0,P|278:369|212:326,1,130,2|0,0:1|0:0,0:0:0:0:
184,267,3691,2,0,L|199:203,1,65,10|0,0:1|0:0,0:0:0:0:
137,337,3891,1,0,0:0:0:0:
137,337,4091,6,0,L|65:322,2,65,10|2|2,0:1|0:1|0:1,0:0:0:0:
98,221,4391,1,0,0:0:0:0:
98,221,4491,2,0,L|34:234,1,65,10|0,0:1|0:0,0:0:0:0:
146,138,4691,6,0,P|207:160|269:143,1,130,2|8,0:1|0:0,0:0:0:0:
328,82,4991,1,0,0:0:0:0:
405,116,5091,2,0,L|400:292,1,130,2|8,0:1|0:0,0:0:0:0:
401,245,5491,6,0,P|432:235|464:234,1,65,2|0,0:1|0:0,0:0:0:0:
323,290,5691,2,0,P|259:295|204:261,1,130,10|0,0:1|0:0,0:0:0:0:
145,200,5991,1,0,0:0:0:0:
201,136,6091,2,0,L|264:121,1,65,10|0,0:1|0:0,0:0:0:0:
129,6,6291,6,0,B|91:61|91:61|117:119,1,130,2|8,0:1|0:0,0:0:0:0:
132,312,6591,2,0,B|170:257|170:257|144:199,1,130,2|0,0:1|0:0,0:0:0:0:
0,163,6891,2,0,L|62:178,1,65,10|0,0:1|0:0,0:0:0:0:
201,136,7091,6,0,L|253:123,1,48.750001859665,8|4,0:3|0:3,0:0:0:0:
181,123,7291,2,0,L|233:110,1,48.750001859665,8|0,0:0|0:0,0:0:0:0:
378,82,7491,1,8,0:3:0:0:
378,82,7591,1,4,0:3:0:0:
378,82,7691,2,0,L|425:93,1,48.750001859665,8|0,0:0|0:0,0:0:0:0:
287,203,7891,6,0,L|339:190,1,48.750001859665,8|4,0:3|0:3,0:0:0:0:
406,204,8091,2,0,L|354:191,1,48.750001859665,8|0,0:0|0:0,0:0:0:0:
283,311,8291,2,0,L|335:298,1,48.750001859665,8|4,0:3|0:3,0:0:0:0:
402,312,8491,2,0,L|350:299,1,48.750001859665,8|0,0:0|0:0,0:0:0:0:
205,252,8691,6,0,L|143:267,1,65,4|0,0:0|0:0,0:0:0:0:
85,331,8891,2,0,P|104:284|45:214,1,130,10|0,0:1|0:0,0:0:0:0:
9,156,9191,1,0,0:0:0:0:
66,93,9291,2,0,L|134:100,1,65,10|0,0:1|0:0,0:0:0:0:
273,91,9491,6,0,B|211:109|211:109|180:186,1,130,2|8,0:1|0:0,0:0:0:0:
299,289,9791,2,0,B|361:271|361:271|392:194,1,130,2|0,0:1|0:0,0:0:0:0:
309,170,10091,2,0,L|245:228,1,65,10|0,0:1|0:0,0:0:0:0:
198,270,10291,1,0,0:0:0:0:
198,270,10491,6,0,L|126:255,2,65,10|2|2,0:1|0:1|0:1,0:0:0:0:
138,354,10791,1,0,0:0:0:0:
138,354,10891,2,0,L|74:367,1,65,10|0,0:1|0:0,0:0:0:0:
10,291,11091,6,0,P|44:254|39:174,1,130,2|8,0:1|0:0,0:0:0:0:
73,99,11391,1,0,0:0:0:0:
73,99,11491,2,0,L|204:76,1,130,2|8,0:1|0:0,0:0:0:0:
275,36,11791,1,8,0:0:0:0:
351,72,11891,6,0,L|358:147,1,65,6|0,0:1|0:0,0:0:0:0:
449,170,12091,2,0,L|435:39,1,130,10|0,0:1|0:0,0:0:0:0:
370,229,12391,1,0,0:0:0:0:
370,229,12491,2,0,P|334:237|280:223,1,65,10|10,0:1|0:1,0:0:0:0:
220,151,12691,6,0,L|213:226,1,65,6|0,0:1|0:0,0:0:0:0:
122,249,12891,2,0,L|135:118,1,130,10|0,0:1|0:0,0:0:0:0:
196,308,13191,2,0,P|232:316|286:302,2,65,0|10|10,0:0|0:1|0:1,0:0:0:0:
47,346,13491,6,0,P|83:338|137:352,1,65,6|0,0:1|0:0,0:0:0:0:
26,257,13691,2,0,P|14:200|39:129,1,130,10|0,0:1|0:0,0:0:0:0:
105,85,13991,1,0,0:0:0:0:
105,85,14091,2,0,L|171:78,1,65,10|10,0:1|0:1,0:0:0:0:
281,7,14291,6,0,P|317:15|371:1,1,65,6|0,0:1|0:0,0:0:0:0:
260,96,14491,2,0,P|248:153|273:224,1,130,10|0,0:1|0:0,0:0:0:0:
342,265,14791,2,0,L|408:272,2,65,0|10|10,0:0|0:1|0:1,0:0:0:0:
394,179,15091,6,0,L|468:167,1,65,6|0,0:1|0:0,0:0:0:0:
481,81,15291,2,0,L|343:100,1,130,10|0,0:1|0:0,0:0:0:0:
272,69,15591,1,0,0:0:0:0:
272,69,15691,2,0,P|262:42|266:-1,1,65,10|10,0:1|0:1,0:0:0:0:
212,130,15891,6,0,L|138:118,1,65,6|0,0:1|0:0,0:0:0:0:
257,204,16091,2,0,L|331:192,1,65,4|0,0:3|0:0,0:0:0:0:
196,269,16291,1,8,0:0:0:0:
187,285,16391,1,8,0:0:0:0:
184,303,16491,1,8,0:0:0:0:
190,321,16591,1,8,0:0:0:0:
204,332,16691,6,0,L|268:323,2,65,8|0|8,0:3|0:3|0:3,0:0:0:0:
95,295,16991,1,0,0:3:0:0:
95,295,17091,2,0,L|31:286,2,65,8|4|8,0:3|0:3|0:3,0:0:0:0:
189,186,17391,1,4,0:3:0:0:
189,186,17491,6,0,B|131:204|131:204|66:192,1,116.999996429443,4|8,0:0|0:0,0:0:0:0:
14,137,17791,1,0,0:0:0:0:
59,68,17891,2,0,L|52:7,2,58.4999982147217,0|0|8,0:0|0:0|0:0,0:0:0:0:
144,104,18191,1,0,0:0:0:0:
144,104,18291,6,0,L|264:70,1,116.999996429443,2|8,0:0|0:0,0:0:0:0:
328,31,18591,1,0,0:0:0:0:
398,73,18691,2,0,P|411:98|414:127,1,58.4999982147217,0|0,0:0|0:0,0:0:0:0:
320,208,18891,2,0,P|323:179|337:154,1,58.4999982147217,8|0,0:0|0:0,0:0:0:0:
385,267,19091,6,0,P|334:295|278:285,1,116.999996429443,2|8,0:0|0:0,0:0:0:0:
214,232,19391,1,0,0:0:0:0:
137,260,19491,2,0,L|63:251,1,58.4999982147217,0|0,0:0|0:0,0:0:0:0:
136,340,19691,2,0,L|194:332,1,58.4999982147217,8|0,0:0|0:0,0:0:0:0:
291,198,19891,6,0,P|239:199|194:151,2,116.999996429443,2|8|2,0:0|0:0|0:0,0:0:0:0:
384,159,20391,1,2,0:0:0:0:
384,159,20491,2,0,L|376:227,1,58.4999982147217,10|0,0:0|0:0,0:0:0:0:
416,320,20691,6,0,P|377:278|321:278,1,116.999996429443,2|8,0:0|0:0,0:0:0:0:
256,328,20991,1,0,0:0:0:0:
178,302,21091,2,0,L|173:239,1,58.4999982147217,2|2,0:0|0:0,0:0:0:0:
253,153,21291,2,0,L|249:212,1,58.4999982147217,10|0,0:0|0:0,0:0:0:0:
105,166,21491,6,0,L|170:156,1,58.4999982147217,2|0,0:0|0:0,0:0:0:0:
203,77,21691,2,0,L|138:67,1,58.4999982147217,8|0,0:0|0:0,0:0:0:0:
33,0,21891,2,0,B|60:35|60:35|46:120,1,116.999996429443,2|8,0:0|0:0,0:0:0:0:
11,222,22191,1,0,0:0:0:0:
11,222,22291,6,0,P|39:205|71:202,1,58.4999982147217,2|0,0:0|0:0,0:0:0:0:
206,170,22491,2,0,P|237:177|262:198,1,58.4999982147217,8|0,0:0|0:0,0:0:0:0:
123,259,22691,6,0,P|154:249|186:255,1,58.4999982147217,2|0,0:0|0:0,0:0:0:0:
343,231,22891,2,0,P|371:246|390:272,1,58.4999982147217,8|8,0:0|0:0,0:0:0:0:
277,340,23091,5,10,0:0:0:0:
271,305,23191,1,8,0:0:0:0:
266,270,23291,1,8,0:0:0:0:
258,235,23391,1,8,0:0:0:0:
253,200,23491,6,0,L|260:119,1,71.5000021820069,14|8,0:1|0:0,0:0:0:0:
394,74,23691,2,0,L|387:145,1,71.5000021820069,14|8,0:1|0:0,0:0:0:0:
143,54,23891,6,0,B|164:54|182:45|182:45|189:53|189:53|235:8|310:38,2,155.999995239258,6|8|2,0:1|0:0|0:0,0:0:0:0:
61,33,24391,1,0,0:0:0:0:
31,112,24491,2,0,L|43:185,1,65,8|8,0:0|0:0,0:0:0:0:
114,276,24691,6,0,L|133:147,1,130,10|8,0:0|0:0,0:0:0:0:
282,213,24991,1,8,0:0:0:0:
282,213,25091,6,0,P|244:228|198:224,1,71.5000021820069,14|8,0:1|0:0,0:0:0:0:
220,75,25291,2,0,P|255:75|288:89,1,71.5000021820069,14|8,0:1|0:0,0:0:0:0:
133,147,25491,6,0,B|119:127|121:109|121:109|104:87|104:87|131:47|107:-14,2,168.999992263794,6|8|2,0:1|0:0|0:0,0:0:0:0:
80,213,25991,1,0,0:0:0:0:
0,241,26091,2,0,P|-3:209|1:178,1,65,8|0,0:0|0:0,0:0:0:0:
64,298,26291,6,0,L|149:285,1,65,2|0,0:0|0:0,0:0:0:0:
263,232,26491,2,0,L|198:222,1,65,8|0,0:0|0:0,0:0:0:0:
58,313,26691,6,0,L|143:300,1,65,2|0,0:0|0:0,0:0:0:0:
277,220,26891,2,0,L|212:210,1,65,8|8,0:0|0:0,0:0:0:0:
219,372,27091,6,0,L|225:315,1,48.750001859665,6|0,0:1|0:0,0:0:0:0:
241,358,27291,2,0,L|236:310,1,48.750001859665,8|8,0:0|0:0,0:0:0:0:
355,285,27491,2,0,L|361:342,1,48.750001859665,14|8,0:1|0:0,0:0:0:0:
377,298,27691,2,0,L|371:346,1,48.750001859665,8|8,0:0|0:0,0:0:0:0:
215,203,27891,6,0,L|272:209,1,48.750001859665,6|8,0:1|0:0,0:0:0:0:
189,222,28091,2,0,L|237:216,1,48.750001859665,8|4,0:3|0:3,0:0:0:0:
425,137,28291,2,0,L|368:143,1,48.750001859665,8|4,0:3|0:3,0:0:0:0:
451,156,28491,2,0,L|402:150,1,48.750001859665,8|4,0:3|0:3,0:0:0:0:
297,0,28691,6,0,P|261:52|267:115,1,130,6|8,0:0|0:0,0:0:0:0:
183,106,28991,1,0,0:0:0:0:
119,163,29091,2,0,P|58:179|3:148,1,130,2|8,0:0|0:0,0:0:0:0:
203,196,29391,1,8,0:0:0:0:
203,196,29491,6,0,P|210:241|205:266,1,65,10|8,0:0|0:0,0:0:0:0:
381,337,29691,2,0,P|354:373|332:387,1,65,8|4,0:3|0:3,0:0:0:0:
300,243,29891,6,0,P|295:288|283:311,1,65,8|4,0:3|0:3,0:0:0:0:
146,337,30091,2,0,P|117:301|109:277,1,65,8|4,0:3|0:3,0:0:0:0:
175,162,30291,6,0,B|211:145|211:145|257:150|257:150|309:129,2,130,6|8|2,0:0|0:0|0:0,0:0:0:0:
86,135,30791,1,0,0:0:0:0:
86,135,30891,2,0,P|73:94|74:60,1,65,8|8,0:0|0:0,0:0:0:0:
133,0,31091,5,10,0:0:0:0:
151,8,31191,1,8,0:0:0:0:
168,18,31291,1,10,0:0:0:0:
180,33,31391,1,8,0:0:0:0:
189,51,31491,5,10,0:0:0:0:
223,31,31591,1,8,0:0:0:0:
268,29,31691,1,10,0:0:0:0:
310,59,31791,1,8,0:0:0:0:
322,105,31891,6,0,B|368:111|368:111|457:76,1,116.999996429443,4|8,0:0|0:0,0:0:0:0:
490,136,32191,1,0,0:0:0:0:
467,214,32291,2,0,L|474:275,2,58.4999982147217,0|0|8,0:0|0:0|0:0,0:0:0:0:
385,202,32591,1,0,0:0:0:0:
385,202,32691,6,0,L|265:236,1,116.999996429443,2|8,0:0|0:0,0:0:0:0:
189,229,32991,1,0,0:0:0:0:
149,300,33091,2,0,P|151:328|164:354,1,58.4999982147217,0|0,0:0|0:0,0:0:0:0:
189,229,33291,2,0,P|202:203|204:174,1,58.4999982147217,8|0,0:0|0:0,0:0:0:0:
168,100,33491,6,0,P|219:128|275:118,1,116.999996429443,2|8,0:0|0:0,0:0:0:0:
334,61,33791,1,0,0:0:0:0:
399,110,33891,2,0,L|388:172,1,58.4999982147217,0|0,0:0|0:0,0:0:0:0:
333,274,34091,2,0,L|323:217,1,58.4999982147217,8|0,0:0|0:0,0:0:0:0:
412,308,34291,6,0,P|440:313|469:313,1,58.4999982147217,2|0,0:0|0:0,0:0:0:0:
333,274,34491,2,0,P|303:273|275:279,1,58.4999982147217,8|0,0:0|0:0,0:0:0:0:
185,359,34691,1,2,0:0:0:0:
185,359,34791,1,2,0:0:0:0:
185,359,34891,2,0,L|189:288,1,58.4999982147217,10|0,0:0|0:0,0:0:0:0:
96,221,35091,6,0,P|146:225|191:179,1,116.999996429443,2|8,0:0|0:0,0:0:0:0:
229,108,35391,1,0,0:0:0:0:
304,139,35491,2,0,L|309:202,1,58.4999982147217,2|2,0:0|0:0,0:0:0:0:
229,108,35691,2,0,L|233:49,1,58.4999982147217,10|0,0:0|0:0,0:0:0:0:
380,32,35891,6,0,L|315:42,1,58.4999982147217,2|0,0:0|0:0,0:0:0:0:
391,124,36091,2,0,L|456:134,1,58.4999982147217,8|0,0:0|0:0,0:0:0:0:
398,217,36291,2,0,L|436:270,1,58.4999982147217,2|0,0:0|0:0,0:0:0:0:
343,290,36491,2,0,L|332:355,1,58.4999982147217,8|0,0:0|0:0,0:0:0:0:
192,313,36691,6,0,P|217:289|257:277,1,58.4999982147217,2|0,0:0|0:0,0:0:0:0:
308,197,36891,2,0,P|283:173|243:161,1,58.4999982147217,8|0,0:0|0:0,0:0:0:0:
162,292,37091,6,0,P|193:275|234:274,1,58.4999982147217,2|0,0:0|0:0,0:0:0:0:
316,172,37291,2,0,P|285:155|243:154,1,58.4999982147217,8|8,0:0|0:0,0:0:0:0:
163,43,37491,5,10,0:0:0:0:
161,77,37591,1,8,0:0:0:0:
161,111,37691,1,8,0:0:0:0:
160,145,37791,1,8,0:0:0:0:
159,180,37891,6,0,B|139:153|139:153|128:116,1,71.5000021820069,14|8,0:1|0:0,0:0:0:0:
259,0,38091,2,0,B|279:27|279:27|289:63,1,71.5000021820069,14|8,0:1|0:0,0:0:0:0:
293,200,38291,6,0,B|316:187|338:192|338:192|345:185|345:185|395:219|460:184,2,155.999995239258,6|8|2,0:1|0:0|0:0,0:0:0:0:
243,271,38791,1,0,0:0:0:0:
307,327,38891,2,0,L|387:314,1,65,8|0,0:0|0:0,0:0:0:0:
243,271,39091,6,0,L|106:255,1,130,2|8,0:0|0:0,0:0:0:0:
0,192,39391,1,8,0:0:0:0:
0,192,39491,6,0,P|38:177|84:181,1,71.5000021820069,14|8,0:1|0:0,0:0:0:0:
202,127,39691,2,0,P|167:127|134:113,1,71.5000021820069,14|8,0:1|0:0,0:0:0:0:
289,92,39891,6,0,B|309:150|279:190|279:190|288:205|288:205|278:224|292:254,2,168.999992263794,6|8|2,0:1|0:0|0:0,0:0:0:0:
353,36,40391,1,0,0:0:0:0:
272,9,40491,2,0,L|189:-1,1,65,8|8,0:0|0:0,0:0:0:0:
353,36,40691,6,0,L|436:26,1,65,10|8,0:0|0:0,0:0:0:0:
383,128,40891,2,0,L|466:138,1,65,8|4,0:3|0:3,0:0:0:0:
320,197,41091,6,0,L|237:187,1,65,8|4,0:3|0:3,0:0:0:0:
290,289,41291,2,0,L|207:299,1,65,8|4,0:3|0:3,0:0:0:0:
123,174,41491,6,0,P|122:199|129:231,1,48.750001859665,6|0,0:1|0:0,0:0:0:0:
140,236,41691,2,0,P|145:213|145:188,1,48.750001859665,8|8,0:0|0:0,0:0:0:0:
166,26,41891,2,0,P|165:51|172:83,1,48.750001859665,14|0,0:1|0:0,0:0:0:0:
183,88,42091,2,0,P|188:65|188:40,1,48.750001859665,8|8,0:0|0:0,0:0:0:0:
48,124,42291,6,0,L|-9:118,1,48.750001859665,6|0,0:1|0:0,0:0:0:0:
74,105,42491,2,0,L|26:111,1,48.750001859665,8|8,0:0|0:0,0:0:0:0:
170,206,42691,2,0,L|227:200,1,48.750001859665,8|4,0:3|0:3,0:0:0:0:
144,187,42891,2,0,L|193:193,1,48.750001859665,8|4,0:3|0:3,0:0:0:0:
65,251,43091,6,0,P|26:301|30:365,1,130,6|8,0:0|0:0,0:0:0:0:
106,326,43391,1,0,0:0:0:0:
181,363,43491,2,0,P|244:354|286:306,1,130,2|8,0:0|0:0,0:0:0:0:
277,171,43791,1,8,0:0:0:0:
277,171,43891,6,0,P|303:207|325:221,1,65,10|8,0:0|0:0,0:0:0:0:
361,70,44091,2,0,P|354:101|358:134,1,65,8|8,0:0|0:0,0:0:0:0:
262,76,44291,6,0,P|235:39|213:25,1,65,10|8,0:0|0:0,0:0:0:0:
177,176,44491,2,0,P|184:144|180:112,1,65,8|8,0:0|0:0,0:0:0:0:
6,43,44691,6,0,B|49:48|49:48|92:31|92:31|131:38,2,130,6|8|2,0:0|0:0|0:0,0:0:0:0:
0,150,45191,1,0,0:0:0:0:
0,150,45291,2,0,L|80:140,1,65,8|8,0:0|0:0,0:0:0:0:
180,231,45491,6,0,L|100:221,1,65,10|8,0:0|0:0,0:0:0:0:
30,332,45691,1,8,0:3:0:0:
66,318,45791,1,4,0:3:0:0:
103,327,45891,1,8,0:3:0:0:
131,354,45991,1,4,0:3:0:0:
169,356,46091,1,8,0:3:0:0:
204,340,46191,1,4,0:3:0:0:
227,308,46291,6,0,P|246:334|341:340,1,130,6|10,0:1|0:0,0:0:0:0:
463,218,46591,1,2,0:0:0:0:
463,218,46691,2,0,P|444:244|349:250,1,130,2|10,0:1|0:0,0:0:0:0:
288,120,46991,1,2,0:0:0:0:
288,120,47091,6,0,P|304:164|300:198,1,65,2|0,0:1|0:0,0:0:0:0:
164,138,47291,2,0,P|194:149|219:171,1,65,10|0,0:0|0:0,0:0:0:0:
235,310,47491,2,0,P|249:280|251:248,1,65,2|0,0:1|0:0,0:0:0:0:
64,312,47691,2,0,P|127:308|167:259,1,130,10|0,0:0|0:0,0:0:0:0:
0,256,48091,6,0,P|-23:197|4:140,1,130,10|0,0:1|0:0,0:0:0:0:
114,30,48391,1,0,0:0:0:0:
114,30,48491,2,0,P|84:65|77:101,1,65,10|0,0:1|0:0,0:0:0:0:
197,145,48691,6,0,P|174:122|162:93,1,65,2|0,0:1|0:0,0:0:0:0:
344,12,48891,1,10,0:0:0:0:
344,12,48991,2,0,P|281:24|245:75,1,130,2|0,0:1|0:0,0:0:0:0:
347,161,49291,2,0,P|315:162|285:152,1,65,10|0,0:1|0:0,0:0:0:0:
155,268,49491,6,0,P|201:233|273:246,1,130,2|8,0:1|0:0,0:0:0:0:
440,332,49791,1,2,0:0:0:0:
440,332,49891,2,0,P|389:296|327:308,1,130,2|10,0:1|0:0,0:0:0:0:
230,384,50191,1,2,0:0:0:0:
230,384,50291,6,0,P|246:340|242:306,1,65,2|0,0:1|0:0,0:0:0:0:
236,188,50491,2,0,P|257:212|268:242,1,65,10|0,0:0|0:0,0:0:0:0:
112,316,50691,2,0,P|154:296|175:269,1,65,2|0,0:1|0:0,0:0:0:0:
82,181,50891,2,0,P|114:183|144:197,1,65,10|0,0:0|0:0,0:0:0:0:
28,297,51091,6,0,P|17:266|17:234,1,65,2|0,0:1|0:0,0:0:0:0:
0,151,51291,1,10,0:1:0:0:
0,151,51391,2,0,P|42:84|103:70,1,130,0|0,0:0|0:0,0:0:0:0:
160,25,51691,2,0,P|192:23|223:32,1,65,10|8,0:0|0:0,0:0:0:0:
294,156,51891,5,14,0:1:0:0:
294,156,51991,1,8,0:0:0:0:
294,156,52091,1,8,0:0:0:0:
294,156,52191,1,8,0:0:0:0:
260,175,52291,5,14,0:1:0:0:
245,138,52391,1,8,0:0:0:0:
272,110,52491,1,8,0:0:0:0:
309,120,52591,1,8,0:0:0:0:
292,154,52691,6,0,P|244:113|181:114,1,130,6|8,0:1|0:0,0:0:0:0:
33,231,52991,2,0,P|82:190|146:192,1,130,0|0,0:0|0:0,0:0:0:0:
222,231,53291,2,0,P|228:259|223:295,1,65,10|0,0:1|0:0,0:0:0:0:
313,378,53491,6,0,P|311:313|334:253,1,130,2|8,0:1|0:0,0:0:0:0:
452,174,53791,1,8,0:0:0:0:
452,174,53891,2,0,L|363:178,1,65,14|8,0:1|0:0,0:0:0:0:
248,115,54091,2,0,L|312:117,1,65,10|8,0:1|0:0,0:0:0:0:
493,59,54291,6,0,P|437:30|374:38,1,130,6|8,0:1|0:0,0:0:0:0:
251,0,54591,2,0,P|194:29|131:21,1,130,0|0,0:0|0:0,0:0:0:0:
46,27,54891,2,0,P|60:66|62:116,1,65,10|8,0:1|0:0,0:0:0:0:
0,182,55091,6,0,L|64:173,2,65,14|8|8,0:1|0:0|0:3,0:0:0:0:
137,130,55391,2,0,L|201:139,2,65,4|8|4,0:3|0:3|0:3,0:0:0:0:
266,192,55691,2,0,L|330:182,1,65,8|4,0:3|0:3,0:0:0:0:
235,270,55891,6,0,P|234:305|246:336,1,65,12|8,0:1|0:0,0:0:0:0:
387,300,56091,1,10,0:1:0:0:
387,300,56191,1,8,0:0:0:0:
387,300,56291,2,0,L|322:290,1,65,12|8,0:0|0:0,0:0:0:0:
424,209,56491,1,10,0:1:0:0:
424,209,56591,1,8,0:0:0:0:
424,209,56691,6,0,L|488:199,1,65,14|8,0:1|0:0,0:0:0:0:
377,126,56891,1,8,0:0:0:0:
377,126,56991,1,8,0:0:0:0:
377,126,57091,2,0,L|312:116,1,65,8|4,0:3|0:3,0:0:0:0:
424,42,57291,1,8,0:3:0:0:
424,42,57391,1,4,0:3:0:0:
424,42,57491,6,0,L|275:22,1,130,6|8,0:1|0:0,0:0:0:0:
225,72,57791,1,0,0:0:0:0:
225,72,57891,2,0,L|76:92,1,130,2|8,0:1|0:0,0:0:0:0:
47,158,58191,1,0,0:0:0:0:
47,158,58291,6,0,P|75:198|76:237,1,65,2|0,0:1|0:0,0:0:0:0:
144,263,58491,2,0,P|160:235|162:203,1,65,8|0,0:0|0:0,0:0:0:0:
214,313,58691,2,0,P|174:341|135:342,1,65,0|0,0:0|0:0,0:0:0:0:
254,231,58891,2,0,P|284:240|309:261,1,65,8|8,0:0|0:0,0:0:0:0:
445,340,59091,5,10,0:1:0:0:
445,340,59191,1,8,0:0:0:0:
445,340,59291,1,10,0:1:0:0:
445,340,59391,1,8,0:0:0:0:
445,340,59491,1,8,0:0:0:0:
445,340,59591,1,8,0:0:0:0:
412,361,59691,5,8,0:3:0:0:
373,365,59791,1,4,0:3:0:0:
334,358,59891,1,8,0:3:0:0:
301,336,59991,1,4,0:3:0:0:
262,327,60091,1,8,0:3:0:0:
224,337,60191,1,4,0:3:0:0:
202,369,60291,5,8,0:0:0:0:
201,369,60691,6,0,P|196:324|132:290,1,116.999996429443,4|0,0:0|0:0,0:0:0:0:
56,283,61091,2,0,P|107:258|119:203,1,116.999996429443,10|8,0:0|0:0,0:0:0:0:
189,160,61491,2,0,L|175:73,1,77.999997619629,2|0,0:0|0:0,0:0:0:0:
278,165,61791,1,0,0:0:0:0:
278,165,61891,2,0,L|265:242,1,77.999997619629,10|0,0:0|0:0,0:0:0:0:
511,73,62291,6,0,P|455:63|396:92,1,116.999996429443,6|0,0:0|0:0,0:0:0:0:
338,33,62691,2,0,P|281:43|222:14,1,116.999996429443,10|8,0:0|0:0,0:0:0:0:
155,59,63091,2,0,L|67:66,1,77.999997619629,2|0,0:0|0:0,0:0:0:0:
110,159,63391,1,0,0:0:0:0:
110,159,63491,2,0,L|22:152,1,77.999997619629,8|0,0:0|0:0,0:0:0:0:
325,144,63891,6,0,P|241:184|230:217,1,116.999996429443,6|0,0:0|0:0,0:0:0:0:
176,260,64291,2,0,P|224:304|221:359,1,116.999996429443,10|8,0:0|0:0,0:0:0:0:
301,379,64691,2,0,L|381:365,1,77.999997619629,2|0,0:0|0:0,0:0:0:0:
408,288,64991,1,0,0:0:0:0:
408,288,65091,2,0,L|488:298,1,77.999997619629,10|0,0:0|0:0,0:0:0:0:
372,51,65491,6,0,P|328:87|325:144,1,116.999996429443,6|0,0:0|0:0,0:0:0:0:
341,225,65891,2,0,P|305:180|248:177,1,116.999996429443,10|8,0:0|0:0,0:0:0:0:
179,132,66291,2,0,L|97:145,1,77.999997619629,2|0,0:0|0:0,0:0:0:0:
28,107,66591,1,0,0:0:0:0:
28,107,66691,2,0,L|16:186,1,77.999997619629,10|0,0:0|0:0,0:0:0:0:
280,3,67091,6,0,P|315:47|372:50,1,116.999996429443,6|0,0:0|0:0,0:0:0:0:
359,131,67491,2,0,P|394:86|451:83,1,116.999996429443,10|8,0:0|0:0,0:0:0:0:
496,151,67891,2,0,L|481:238,1,77.999997619629,2|0,0:0|0:0,0:0:0:0:
400,232,68191,1,0,0:0:0:0:
400,232,68291,2,0,L|415:319,1,77.999997619629,10|0,0:0|0:0,0:0:0:0:
86,184,68691,6,0,P|145:131|186:133,1,116.999996429443,6|0,0:0|0:0,0:0:0:0:
255,103,69091,2,0,P|196:50|155:52,1,116.999996429443,10|8,0:0|0:0,0:0:0:0:
178,131,69491,2,0,L|192:208,1,77.999997619629,2|0,0:0|0:0,0:0:0:0:
270,264,69791,1,0,0:0:0:0:
270,264,69891,2,0,L|284:187,1,77.999997619629,10|0,0:0|0:0,0:0:0:0:
0,375,70291,6,0,P|54:381|100:328,1,116.999996429443,6|0,0:0|0:0,0:0:0:0:
173,369,70691,2,0,P|179:315|130:263,1,116.999996429443,10|8,0:0|0:0,0:0:0:0:
59,262,71091,2,0,L|60:177,1,77.999997619629,2|0,0:0|0:0,0:0:0:0:
135,151,71391,1,0,0:0:0:0:
135,151,71491,2,0,L|134:66,1,77.999997619629,10|0,0:0|0:0,0:0:0:0:
206,33,71791,1,0,0:0:0:0:
206,33,71891,6,0,P|256:60|318:37,1,116.999996429443,6|0,0:0|0:0,0:0:0:0:
390,19,72291,2,0,L|394:144,1,116.999996429443,10|8,0:0|0:0,0:0:0:0:
460,183,72691,2,0,L|442:264,1,77.999997619629,2|0,0:0|0:0,0:0:0:0:
362,276,72991,1,0,0:0:0:0:
362,276,73091,2,0,L|377:357,1,77.999997619629,10|0,0:0|0:0,0:0:0:0:
274,261,73391,1,0,0:0:0:0:
274,261,73491,6,0,P|198:289|165:268,1,116.999996429443,6|0,0:0|0:0,0:0:0:0:
116,212,73891,2,0,P|86:271|86:293,1,77.999997619629,10|0,0:0|0:0,0:0:0:0:
205,192,74191,1,8,0:0:0:0:
205,192,74291,6,0,P|196:154|174:122,1,77.999997619629,2|0,0:0|0:0,0:0:0:0:
63,56,74591,1,0,0:0:0:0:
63,56,74691,2,0,L|116:47,1,38.9999988098145,10|0,0:0|0:0,0:0:0:0:
200,34,74891,2,0,L|253:25,1,38.9999988098145,0|0,0:0|0:0,0:0:0:0:
386,44,75091,6,0,L|334:56,1,52,2|0,0:0|0:0,0:0:0:0:
227,134,75291,1,10,0:0:0:0:
227,134,75391,2,0,L|279:146,1,52,8|10,0:0|0:0,0:0:0:0:
403,208,75591,1,8,0:0:0:0:
403,208,75691,2,0,L|351:220,1,52,10|8,0:0|0:0,0:0:0:0:
211,223,75891,6,0,L|225:286,1,52,10|0,0:0|0:0,0:0:0:0:
378,361,76091,2,0,L|389:310,1,52,10|8,0:0|0:0,0:0:0:0:
296,314,76291,1,10,0:0:0:0:
278,339,76391,1,8,0:0:0:0:
252,356,76491,1,8,0:3:0:0:
221,359,76591,1,12,0:3:0:0:
189,356,76691,6,0,B|148:343|148:343|62:368,1,116.999996429443,6|8,0:0|0:0,0:0:0:0:
13,322,76991,1,0,0:0:0:0:
49,248,77091,2,0,L|42:189,2,58.4999982147217,0|0|8,0:0|0:0|0:0,0:0:0:0:
134,264,77391,1,0,0:0:0:0:
134,264,77491,6,0,L|254:230,1,116.999996429443,2|8,0:0|0:0,0:0:0:0:
318,191,77791,1,0,0:0:0:0:
396,214,77891,2,0,P|428:260|428:280,1,58.4999982147217,0|0,0:0|0:0,0:0:0:0:
337,337,78091,2,0,P|349:310|348:282,1,58.4999982147217,8|0,0:0|0:0,0:0:0:0:
265,376,78291,6,0,P|223:382|158:340,1,116.999996429443,2|8,0:0|0:0,0:0:0:0:
147,264,78591,1,0,0:0:0:0:
85,318,78691,2,0,L|74:380,1,58.4999982147217,0|0,0:0|0:0,0:0:0:0:
147,264,78891,2,0,L|137:207,1,58.4999982147217,8|0,0:0|0:0,0:0:0:0:
26,138,79091,6,0,P|54:143|84:143,1,58.4999982147217,2|0,0:0|0:0,0:0:0:0:
222,124,79291,2,0,P|193:123|165:129,1,58.4999982147217,8|0,0:0|0:0,0:0:0:0:
109,68,79491,1,2,0:0:0:0:
109,68,79591,1,2,0:0:0:0:
109,68,79691,2,0,L|113:-3,1,58.4999982147217,10|0,0:0|0:0,0:0:0:0:
299,19,79891,6,0,P|242:9|197:44,1,116.999996429443,2|8,0:0|0:0,0:0:0:0:
222,124,80191,1,0,0:0:0:0:
291,167,80291,2,0,P|300:141|300:104,1,58.4999982147217,2|2,0:0|0:0,0:0:0:0:
312,247,80491,2,0,P|336:234|362:208,1,58.4999982147217,10|0,0:0|0:0,0:0:0:0:
448,124,80691,6,0,L|378:135,1,58.4999982147217,2|0,0:0|0:0,0:0:0:0:
455,217,80891,2,0,L|525:228,1,58.4999982147217,8|0,0:0|0:0,0:0:0:0:
441,308,81091,2,0,L|371:319,1,58.4999982147217,2|0,0:0|0:0,0:0:0:0:
254,237,81291,2,0,L|324:248,1,58.4999982147217,8|0,0:0|0:0,0:0:0:0:
247,384,81491,6,0,P|279:351|302:339,1,58.4999982147217,2|0,0:0|0:0,0:0:0:0:
153,234,81691,2,0,P|165:281|176:301,1,58.4999982147217,8|0,0:0|0:0,0:0:0:0:
298,323,81891,6,0,P|270:333|246:349,1,58.4999982147217,2|0,0:0|0:0,0:0:0:0:
142,305,82091,2,0,P|138:276|140:247,1,58.4999982147217,8|8,0:0|0:0,0:0:0:0:
233,150,82291,5,10,0:0:0:0:
199,148,82391,1,8,0:0:0:0:
165,148,82491,1,8,0:0:0:0:
131,147,82591,1,8,0:0:0:0:
96,146,82691,6,0,B|85:114|85:114|86:48,1,71.5000021820069,14|8,0:1|0:0,0:0:0:0:
251,0,82891,2,0,B|251:37|251:37|240:69,1,71.5000021820069,14|8,0:1|0:0,0:0:0:0:
140,229,83091,6,0,B|173:235|197:227|197:227|230:248|230:248|253:236|307:245,2,155.999995239258,6|8|2,0:1|0:0|0:0,0:0:0:0:
78,287,83591,1,0,0:0:0:0:
7,240,83691,2,0,L|17:169,1,65,8|8,0:0|0:0,0:0:0:0:
126,93,83891,6,0,P|56:101|10:51,1,130,10|8,0:0|0:3,0:0:0:0:
88,18,84191,1,4,0:3:0:0:
88,18,84291,6,0,P|126:3|172:7,1,71.5000021820069,14|8,0:1|0:0,0:0:0:0:
308,83,84491,2,0,P|273:83|240:69,1,71.5000021820069,14|8,0:1|0:0,0:0:0:0:
407,51,84691,6,0,B|416:88|422:100|422:100|390:146|390:146|385:191|428:218,2,168.999992263794,6|8|2,0:1|0:0|0:0,0:0:0:0:
339,0,85191,1,0,0:0:0:0:
308,83,85291,2,0,P|273:83|243:71,1,65,8|8,0:0|0:0,0:0:0:0:
143,8,85491,6,0,L|151:75,1,65,10|8,0:0|0:0,0:0:0:0:
242,171,85691,2,0,L|234:238,1,65,8|8,0:0|0:0,0:0:0:0:
84,171,85891,6,0,L|156:160,1,65,8|8,0:0|0:0,0:0:0:0:
203,310,86091,2,0,L|275:321,1,65,8|8,0:0|0:0,0:0:0:0:
84,279,86291,6,0,P|83:304|90:336,1,48.750001859665,14|8,0:1|0:0,0:0:0:0:
105,324,86491,2,0,P|105:348|100:372,1,48.750001859665,8|8,0:0|0:0,0:0:0:0:
250,142,86691,2,0,P|251:167|244:199,1,48.750001859665,14|8,0:1|0:0,0:0:0:0:
229,187,86891,2,0,P|228:211|233:235,1,48.750001859665,8|8,0:0|0:0,0:0:0:0:
103,80,87091,6,0,L|46:74,1,48.750001859665,14|8,0:1|0:0,0:0:0:0:
129,61,87291,2,0,L|81:67,1,48.750001859665,8|4,0:3|0:3,0:0:0:0:
299,20,87491,2,0,L|356:14,1,48.750001859665,8|4,0:3|0:3,0:0:0:0:
273,1,87691,2,0,L|321:7,1,48.750001859665,8|4,0:3|0:3,0:0:0:0:
483,165,87891,6,0,P|436:121|372:122,1,130,6|8,0:0|0:0,0:0:0:0:
407,199,88191,1,0,0:0:0:0:
439,276,88291,2,0,P|375:276|328:233,1,130,2|8,0:0|0:0,0:0:0:0:
271,164,88591,1,8,0:0:0:0:
271,164,88691,6,0,P|245:200|223:214,1,65,10|8,0:0|0:0,0:0:0:0:
135,312,88891,2,0,P|91:319|65:313,1,65,8|8,0:0|0:0,0:0:0:0:
271,349,89091,6,0,P|245:313|223:299,1,65,10|8,0:0|0:0,0:0:0:0:
135,201,89291,2,0,P|91:193|65:199,1,65,8|8,0:0|0:0,0:0:0:0:
186,112,89491,6,0,L|192:55,1,48.750001859665,14|8,0:1|0:0,0:0:0:0:
208,98,89691,2,0,L|203:50,1,48.750001859665,8|8,0:0|0:0,0:0:0:0:
50,0,89891,2,0,L|56:57,1,48.750001859665,14|8,0:1|0:0,0:0:0:0:
72,13,90091,2,0,L|66:61,1,48.750001859665,8|8,0:0|0:0,0:0:0:0:
95,190,90291,6,0,L|152:196,1,48.750001859665,14|8,0:1|0:0,0:0:0:0:
82,204,90491,2,0,L|34:210,1,48.750001859665,8|4,0:3|0:3,0:0:0:0:
223,270,90691,2,0,L|280:276,1,48.750001859665,8|8,0:0|0:0,0:0:0:0:
209,281,90891,2,0,L|161:287,1,48.750001859665,8|8,0:0|0:0,0:0:0:0:
299,71,91091,6,0,P|250:116|256:201,1,130,6|8,0:0|0:0,0:0:0:0:
327,155,91391,1,0,0:0:0:0:
291,60,91491,2,0,L|161:58,1,130,2|8,0:0|0:0,0:0:0:0:
38,40,91791,1,8,0:0:0:0:
38,40,91891,6,0,P|72:83|78:111,1,65,2|0,0:0|0:0,0:0:0:0:
106,256,92091,2,0,P|140:213|146:185,1,65,8|8,0:0|0:0,0:0:0:0:
0,166,92291,6,0,P|54:172|78:187,1,65,10|8,0:0|0:0,0:0:0:0:
232,223,92491,2,0,P|225:168|210:144,1,65,8|8,0:0|0:0,0:0:0:0:
177,318,92691,6,0,P|179:341|185:370,1,48.750001859665,14|8,0:1|0:0,0:0:0:0:
198,350,92891,2,0,P|201:323|201:291,1,48.750001859665,8|8,0:0|0:0,0:0:0:0:
359,244,93091,2,0,P|357:267|351:296,1,48.750001859665,14|8,0:1|0:0,0:0:0:0:
338,276,93291,2,0,P|334:249|335:217,1,48.750001859665,8|8,0:0|0:0,0:0:0:0:
222,70,93491,6,0,P|267:87|280:95,1,48.750001859665,14|8,0:1|0:0,0:0:0:0:
201,51,93691,2,0,P|228:43|253:41,1,48.750001859665,8|4,0:3|0:3,0:0:0:0:
423,123,93891,2,0,P|378:140|365:148,1,48.750001859665,8|4,0:3|0:3,0:0:0:0:
444,104,94091,2,0,P|417:96|392:94,1,48.750001859665,8|4,0:3|0:3,0:0:0:0:
221,160,94291,6,0,P|169:157|112:98,1,130,6|8,0:0|0:0,0:0:0:0:
33,77,94591,1,0,0:0:0:0:
33,77,94691,2,0,P|30:140|69:190,1,130,2|8,0:0|0:0,0:0:0:0:
173,262,94991,1,8,0:0:0:0:
173,262,95091,6,0,L|44:280,1,130,6|8,0:0|0:0,0:0:0:0:
47,365,95391,1,0,0:0:0:0:
47,365,95491,2,0,L|175:346,1,130,2|8,0:0|0:0,0:0:0:0:
286,243,95791,1,8,0:0:0:0:
286,243,95891,6,0,P|297:283|258:367,1,130,6|8,0:0|0:0,0:0:0:0:
212,193,96191,1,0,0:0:0:0:
212,193,96291,2,0,P|201:153|240:69,1,130,2|8,0:0|0:0,0:0:0:0:
427,155,96591,1,8,0:0:0:0:
427,155,96691,6,0,L|288:144,1,130,6|8,0:0|0:0,0:0:0:0:
329,57,96991,1,0,0:0:0:0:
329,57,97091,2,0,P|367:24|376:11,1,65,2|0,0:0|0:0,0:0:0:0:
233,74,97291,2,0,P|207:53|188:27,1,65,8|8,0:0|0:0,0:0:0:0:
297,144,97491,6,0,P|308:184|269:268,1,130,6|8,0:0|0:0,0:0:0:0:
201,305,97791,1,0,0:0:0:0:
201,305,97891,2,0,L|126:296,1,65,2|0,0:0|0:0,0:0:0:0:
20,230,98091,2,0,L|84:222,1,65,8|8,0:0|0:0,0:0:0:0:
211,147,98291,6,0,L|69:130,1,130,6|8,0:0|0:0,0:0:0:0:
41,56,98591,1,8,0:0:0:0:
41,56,98691,6,0,P|28:0|31:-20,1,65,2|0,0:0|0:0,0:0:0:0:
170,63,98891,2,0,P|183:7|180:-13,1,65,8|8,0:0|0:0,0:0:0:0:
314,122,99091,6,0,P|301:66|304:46,1,65,6|0,0:0|0:0,0:0:0:0:
443,129,99291,2,0,P|456:73|453:53,1,65,8|8,0:0|0:0,0:0:0:0:
302,140,99491,6,0,P|289:84|292:64,1,65,2|0,0:0|0:0,0:0:0:0:
152,77,99691,2,0,P|163:47|164:15,1,65,8|8,0:0|0:0,0:0:0:0:
226,185,99891,6,0,P|246:209|274:227,1,65,6|0,0:0|0:0,0:0:0:0:
95,194,100091,2,0,P|63:199|34:214,1,65,6|0,0:0|0:0,0:0:0:0:
152,77,100291,5,6,0:0:0:0:
