osu file format v14

[General]
AudioFilename: audio.mp3
AudioLeadIn: 0
PreviewTime: 20690
Countdown: 0
SampleSet: Soft
StackLeniency: 0.7
Mode: 0
LetterboxInBreaks: 0
WidescreenStoryboard: 1

[Editor]
Bookmarks: 2240,17440,23840,31840,38240,46240,60691,76691,83091,100291,111840,118290,135440
DistanceSpacing: 1.2
BeatDivisor: 2
GridSize: 32
TimelineZoom: 1.699999

[Metadata]
Title:Punk Rock Girl
TitleUnicode:Punk Rock Girl
Artist:Streetlight Manifesto
ArtistUnicode:Streetlight Manifesto
Creator:Milan-
Version:Advanced
Source:
Tags:pho pishifat punk jazz ska
BeatmapID:1366920
BeatmapSetID:577394

[Difficulty]
HPDrainRate:4
CircleSize:3.5
OverallDifficulty:4
ApproachRate:6
SliderMultiplier:0.8
SliderTickRate:1

[Events]
//Background and Video events
0,0,"a.jpg",0,0
//Break Periods
//Storyboard Layer 0 (Background)
//Storyboard Layer 1 (Fail)
//Storyboard Layer 2 (Pass)
//Storyboard Layer 3 (Foreground)
//Storyboard Sound Samples

[TimingPoints]
691,200,4,2,1,50,1,0
17491,-100,4,2,1,40,0,0
23491,-100,4,2,1,45,0,1
23891,-100,4,2,1,50,0,0
25091,-100,4,2,1,50,0,1
25491,-100,4,2,1,50,0,0
28691,-100,4,2,1,45,0,0
31891,-100,4,2,1,40,0,0
37891,-100,4,2,1,45,0,1
38291,-100,4,2,1,50,0,0
39491,-100,4,2,1,50,0,1
39891,-100,4,2,1,50,0,0
43091,-100,4,2,1,45,0,0
46291,-100,4,2,1,40,0,0
60691,-100,4,2,1,35,0,0
74291,-100,4,2,1,40,0,0
75091,-100,4,2,1,45,0,0
75891,-100,4,2,1,50,0,0
76691,-100,4,2,1,40,0,0
82691,-100,4,2,1,45,0,1
83091,-100,4,2,1,50,0,0
84291,-100,4,2,1,50,0,1
84691,-100,4,2,1,50,0,0
94291,-100,4,2,1,45,0,0

[Colours]
Combo1 : 194,145,255
Combo2 : 255,177,125
Combo3 : 140,255,252
Combo4 : 207,255,119

[HitObjects]
412,175,2091,6,0,L|428:231,2,40,8|8|4,0:0|0:3|0:0,0:0:0:0:
469,97,2491,2,0,P|389:138|317:114,1,160,10|10,0:1|0:1,0:0:0:0:
254,186,3091,2,0,P|236:150|230:110,1,80,2|8,0:1|0:0,0:0:0:0:
243,64,3391,2,0,L|99:81,1,120,2|10,0:1|0:1,0:0:0:0:
47,136,3891,5,0,0:0:0:0:
127,188,4091,2,0,P|173:256|152:344,1,160,10|10,0:1|0:1,0:0:0:0:
243,380,4691,2,0,L|339:368,1,80,2|8,0:1|0:0,0:0:0:0:
275,286,5091,2,0,L|354:276,1,80,2|8,0:1|0:0,0:0:0:0:
323,185,5491,5,2,0:1:0:0:
418,198,5691,2,0,P|462:166|455:40,1,160,10|10,0:1|0:1,0:0:0:0:
389,18,6291,2,0,L|309:27,1,80,2|8,0:1|0:0,0:0:0:0:
262,17,6591,2,0,P|195:27|145:92,1,120,2|10,0:1|0:1,0:0:0:0:
161,157,7091,5,8,0:3:0:0:
83,214,7291,2,0,P|46:221|-15:214,2,80,8|8|8,0:0|0:3|0:0,0:0:0:0:
119,302,7891,2,0,P|148:275|171:242,1,80,8|8,0:3|0:0,0:0:0:0:
260,207,8291,2,0,P|267:244|260:305,1,80,8|8,0:3|0:0,0:0:0:0:
321,363,8691,5,4,0:0:0:0:
373,282,8891,2,0,P|411:240|516:238,1,160,10|10,0:1|0:1,0:0:0:0:
492,140,9491,2,0,L|478:40,1,80,2|8,0:1|0:0,0:0:0:0:
458,18,9791,2,0,P|406:38|324:-1,1,120,2|10,0:1|0:1,0:0:0:0:
275,87,10291,5,0,0:0:0:0:
193,36,10491,2,0,P|149:17|30:61,1,160,10|10,0:1|0:1,0:0:0:0:
102,122,11091,2,0,L|112:234,1,80,2|8,0:1|0:0,0:0:0:0:
13,194,11491,2,0,L|23:306,1,80,2|8,0:1|0:0,0:0:0:0:
33,368,11891,5,6,0:1:0:0:
127,382,12091,2,0,P|181:372|215:339,1,80,10|0,0:1|0:0,0:0:0:0:
255,278,12491,2,0,L|249:216,2,40,10|10|6,0:1|0:1|0:1,0:0:0:0:
325,343,12891,2,0,P|358:363|398:367,1,80,10|0,0:1|0:0,0:0:0:0:
452,287,13291,6,0,L|514:280,2,40,10|10|6,0:1|0:1|0:1,0:0:0:0:
382,220,13691,2,0,P|365:152|376:123,1,80,10|0,0:1|0:0,0:0:0:0:
422,66,14091,2,0,L|472:62,2,40,10|10|6,0:1|0:1|0:1,0:0:0:0:
334,26,14491,2,0,L|232:40,1,80,10|0,0:1|0:0,0:0:0:0:
161,57,14891,6,0,L|140:12,2,40,10|10|6,0:1|0:1|0:1,0:0:0:0:
224,128,15291,2,0,L|206:223,1,80,10|0,0:1|0:0,0:0:0:0:
117,235,15691,1,10,0:1:0:0:
23,213,15891,6,0,L|44:315,1,80,6|4,0:1|0:3,0:0:0:0:
100,365,16291,2,0,L|138:352,3,40,8|8|8|8,0:0|0:0|0:0|0:0,0:0:0:0:
171,317,16691,2,0,L|224:332,3,40,8|0|8|0,0:3|0:3|0:3|0:3,0:0:0:0:
251,304,17091,2,0,L|288:326,3,40,8|4|8|4,0:3|0:3|0:3|0:3,0:0:0:0:
303,357,17491,6,0,P|342:358|377:340,1,80,4|8,0:0|0:0,0:0:0:0:
422,255,17891,2,0,L|407:160,1,80,0|8,0:0|0:0,0:0:0:0:
365,157,18191,2,0,P|311:153|275:101,1,120,0|8,0:0|0:0,0:0:0:0:
206,34,18691,2,0,L|126:40,1,80,0|8,0:0|0:0,0:0:0:0:
94,130,19091,6,0,L|173:123,1,80,2|8,0:0|0:0,0:0:0:0:
219,208,19491,2,0,L|139:214,1,80,0|8,0:0|0:0,0:0:0:0:
53,257,19891,2,0,P|21:299|19:344,1,80,2|8,0:0|0:0,0:0:0:0:
111,345,20291,2,0,L|121:400,2,40,2|2|10,0:0|0:0|0:0,0:0:0:0:
197,302,20691,6,0,L|302:306,1,80,2|8,0:0|0:0,0:0:0:0:
319,327,20991,2,0,P|368:342|442:293,1,120,0|10,0:0|0:0,0:0:0:0:
467,226,21491,2,0,L|476:124,1,80,2|8,0:0|0:0,0:0:0:0:
377,160,21891,2,0,L|369:80,1,80,2|8,0:0|0:0,0:0:0:0:
277,105,22291,6,0,L|286:3,1,80,2|8,0:0|0:0,0:0:0:0:
196,64,22691,2,0,P|156:69|118:59,1,80,2|8,0:0|0:0,0:0:0:0:
27,33,23091,2,0,L|41:127,1,80,10|8,0:0|0:0,0:0:0:0:
95,189,23491,6,0,L|80:239,1,40,14|8,0:1|0:0,0:0:0:0:
50,262,23691,2,0,L|64:309,1,40,14|8,0:1|0:0,0:0:0:0:
92,337,23891,6,0,P|139:343|184:318,1,80,6|8,0:1|0:0,0:0:0:0:
243,270,24291,2,0,P|290:264|335:289,1,80,2|8,0:0|0:0,0:0:0:0:
365,288,24591,1,8,0:0:0:0:
365,288,24691,2,0,L|373:384,1,80,10|8,0:0|0:0,0:0:0:0:
463,339,25091,6,0,L|475:294,1,40,14|8,0:1|0:0,0:0:0:0:
503,263,25291,2,0,L|484:212,1,40,14|8,0:1|0:0,0:0:0:0:
454,191,25491,6,0,L|467:90,1,80,6|8,0:1|0:0,0:0:0:0:
381,63,25891,2,0,L|370:142,1,80,2|8,0:0|0:0,0:0:0:0:
300,207,26291,2,0,P|249:230|200:213,1,80,2|8,0:0|0:0,0:0:0:0:
158,159,26691,2,0,P|107:136|58:153,1,80,2|8,0:0|0:0,0:0:0:0:
16,206,27091,6,0,L|-4:250,3,40,6|0|8|8,0:1|0:0|0:0|0:0,0:0:0:0:
46,253,27491,2,0,L|33:302,3,40,14|8|8|8,0:1|0:0|0:0|0:0,0:0:0:0:
79,312,27891,2,0,P|130:335|193:294,1,120,6|4,0:1|0:3,0:0:0:0:
232,309,28291,2,0,P|283:286|361:316,1,120,8|4,0:3|0:3,0:0:0:0:
380,330,28691,6,0,L|472:329,1,80,6|8,0:0|0:0,0:0:0:0:
492,238,29091,2,0,L|412:237,1,80,2|8,0:0|0:0,0:0:0:0:
339,173,29491,2,0,L|317:103,3,40,10|8|8|4,0:0|0:0|0:3|0:3,0:0:0:0:
283,114,29891,2,0,L|286:45,3,40,8|4|8|4,0:3|0:3|0:3|0:3,0:0:0:0:
306,31,30291,5,6,0:0:0:0:
213,3,30491,2,0,P|150:0|58:47,1,160,8|8,0:0|0:0,0:0:0:0:
17,125,31091,2,0,L|28:193,3,40,10|8|10|8,0:0|0:0|0:0|0:0,0:0:0:0:
71,169,31491,2,0,L|83:236,3,40,10|8|10|8,0:0|0:0|0:0|0:0,0:0:0:0:
126,205,31891,6,0,P|161:228|210:226,1,80,4|8,0:0|0:0,0:0:0:0:
293,234,32291,2,0,L|278:329,1,80,0|8,0:0|0:0,0:0:0:0:
324,332,32591,2,0,P|378:328|414:276,1,120,0|8,0:0|0:0,0:0:0:0:
473,201,33091,2,0,L|456:94,1,80,0|8,0:0|0:0,0:0:0:0:
410,42,33491,6,0,P|376:38|331:49,1,80,2|8,0:0|0:0,0:0:0:0:
288,134,33891,2,0,P|250:146|208:140,1,80,0|8,0:0|0:0,0:0:0:0:
121,104,34291,2,0,P|89:146|87:191,1,80,2|8,0:0|0:0,0:0:0:0:
114,263,34691,2,0,L|124:318,2,40,2|2|10,0:0|0:0|0:0,0:0:0:0:
209,249,35091,6,0,L|231:337,1,80,2|8,0:0|0:0,0:0:0:0:
265,358,35391,2,0,P|314:373|388:324,1,120,0|10,0:0|0:0,0:0:0:0:
334,257,35891,2,0,L|343:155,1,80,2|8,0:0|0:0,0:0:0:0:
436,180,36291,2,0,L|428:100,1,80,2|8,0:0|0:0,0:0:0:0:
334,79,36691,6,0,L|343:-23,1,80,2|8,0:0|0:0,0:0:0:0:
298,21,36991,1,0,0:0:0:0:
298,21,37091,2,0,P|258:27|220:17,1,80,2|8,0:0|0:0,0:0:0:0:
125,3,37491,2,0,L|115:98,1,80,10|8,0:0|0:0,0:0:0:0:
184,150,37891,6,0,L|169:200,1,40,14|8,0:1|0:0,0:0:0:0:
124,192,38091,2,0,L|138:239,1,40,14|8,0:1|0:0,0:0:0:0:
96,259,38291,6,0,P|58:271|19:264,1,80,6|8,0:1|0:0,0:0:0:0:
23,360,38691,2,0,P|70:354|115:379,1,80,2|8,0:0|0:0,0:0:0:0:
142,343,38991,1,0,0:0:0:0:
142,343,39091,2,0,L|240:340,1,80,2|8,0:0|0:0,0:0:0:0:
316,355,39491,6,0,L|343:315,1,40,14|8,0:1|0:0,0:0:0:0:
384,307,39691,2,0,L|380:253,1,40,14|8,0:1|0:0,0:0:0:0:
417,236,39891,6,0,P|410:196|382:148,1,80,6|8,0:1|0:0,0:0:0:0:
458,91,40291,2,0,P|413:67|348:70,1,80,2|8,0:0|0:0,0:0:0:0:
306,118,40691,2,0,P|255:141|206:124,1,80,10|8,0:0|0:3,0:0:0:0:
158,75,41091,2,0,P|107:52|58:69,1,80,8|8,0:3|0:3,0:0:0:0:
41,140,41491,6,0,L|21:184,3,40,6|0|8|8,0:1|0:0|0:0|0:0,0:0:0:0:
58,209,41891,2,0,L|45:258,3,40,14|0|8|8,0:1|0:0|0:0|0:0,0:0:0:0:
83,279,42291,2,0,P|127:247|197:261,1,120,6|8,0:1|0:0,0:0:0:0:
216,295,42691,2,0,P|260:325|345:302,1,120,8|4,0:3|0:3,0:0:0:0:
364,291,43091,6,0,L|398:392,1,80,6|8,0:0|0:0,0:0:0:0:
485,358,43491,2,0,L|459:282,1,80,2|8,0:0|0:0,0:0:0:0:
406,202,43891,2,0,L|405:138,3,40,10|8|8|8,0:0|0:0|0:0|0:0,0:0:0:0:
358,150,44291,2,0,L|376:91,3,40,10|8|8|8,0:0|0:0|0:0|0:0,0:0:0:0:
348,68,44691,5,6,0:0:0:0:
269,122,44891,2,0,P|188:150|119:90,1,160,8|8,0:0|0:0,0:0:0:0:
88,26,45491,2,0,L|20:37,3,40,10|8|8|4,0:0|0:0|0:3|0:3,0:0:0:0:
39,80,45891,2,0,L|-29:91,3,40,8|4|8|4,0:3|0:3|0:3|0:3,0:0:0:0:
19,130,46291,6,0,P|-1:170|0:221,1,80,6|10,0:1|0:0,0:0:0:0:
91,191,46691,2,0,P|111:231|110:282,1,80,2|10,0:1|0:0,0:0:0:0:
56,343,47091,2,0,P|101:364|149:355,1,80,2|10,0:1|0:0,0:0:0:0:
175,343,47391,2,0,L|322:339,1,120,0|10,0:0|0:0,0:0:0:0:
386,368,47891,5,0,0:0:0:0:
474,331,48091,2,0,P|489:292|422:184,1,160,10|10,0:1|0:1,0:0:0:0:
346,175,48691,2,0,L|251:188,1,80,2|10,0:1|0:0,0:0:0:0:
219,173,48991,2,0,P|200:122|239:40,1,120,2|10,0:1|0:1,0:0:0:0:
127,26,49491,6,0,L|26:33,1,80,2|8,0:1|0:0,0:0:0:0:
17,122,49891,2,0,L|96:116,1,80,2|10,0:1|0:0,0:0:0:0:
136,203,50291,2,0,L|35:210,1,80,2|10,0:1|0:0,0:0:0:0:
28,247,50591,2,0,P|-5:313|3:367,1,120,0|10,0:0|0:0,0:0:0:0:
89,323,51091,5,2,0:1:0:0:
175,363,51291,2,0,P|252:372|316:327,1,160,10|10,0:1|0:0,0:0:0:0:
389,265,51891,2,0,L|432:281,3,40,14|8|8|8,0:1|0:0|0:0|0:0,0:0:0:0:
437,231,52291,2,0,L|479:205,3,40,14|8|8|8,0:1|0:0|0:0|0:0,0:0:0:0:
478,162,52691,6,0,P|478:102|379:34,1,160,6|0,0:1|0:0,0:0:0:0:
326,87,53291,1,10,0:1:0:0:
233,61,53491,2,0,L|247:156,1,80,2|8,0:1|0:0,0:0:0:0:
198,153,53791,2,0,L|183:279,1,120,8|10,0:0|0:1,0:0:0:0:
136,355,54291,6,0,P|97:358|13:269,1,160,6|0,0:1|0:0,0:0:0:0:
83,213,54891,1,10,0:1:0:0:
32,131,55091,2,0,L|42:81,3,40,14|8|8|4,0:1|0:0|0:3|0:3,0:0:0:0:
83,71,55491,2,0,L|72:9,3,40,8|4|8|4,0:3|0:3|0:3|0:3,0:0:0:0:
120,13,55891,6,0,L|203:27,1,80,12|10,0:1|0:1,0:0:0:0:
222,119,56291,2,0,L|305:105,1,80,12|10,0:0|0:1,0:0:0:0:
386,62,56691,2,0,P|452:96|446:204,1,160,14|8,0:1|0:3,0:0:0:0:
379,221,57291,1,8,0:3:0:0:
305,283,57491,6,0,L|315:370,1,80,6|8,0:1|0:0,0:0:0:0:
220,343,57891,2,0,L|210:263,1,80,2|8,0:1|0:0,0:0:0:0:
124,305,58291,2,0,L|114:225,1,80,2|8,0:1|0:0,0:0:0:0:
140,184,58591,2,0,P|163:151|156:67,1,120,0|8,0:0|0:0,0:0:0:0:
72,34,59091,6,0,L|11:29,5,40,10|8|10|8|8|8,0:1|0:0|0:1|0:0|0:0|0:0,0:0:0:0:
39,78,59691,2,0,L|-22:83,5,40,8|4|8|4|8|4,0:3|0:3|0:3|0:3|0:3|0:3,0:0:0:0:
1,129,60291,2,0,P|31:172|21:303,1,160,8|4,0:0|0:0,0:0:0:0:
202,369,61091,6,0,P|235:316|243:246,1,120,10|8,0:0|0:0,0:0:0:0:
211,224,61491,2,0,L|371:196,1,160,2|10,0:0|0:0,0:0:0:0:
427,119,62091,1,0,0:0:0:0:
427,119,62291,6,0,L|267:91,1,160,6|10,0:0|0:0,0:0:0:0:
89,24,63091,2,0,P|22:63|8:140,1,160,2|8,0:0|0:0,0:0:0:0:
97,179,63691,1,0,0:0:0:0:
97,179,63891,6,0,P|151:234|144:312,1,160,6|10,0:0|0:0,0:0:0:0:
335,335,64691,2,0,L|503:313,1,160,2|10,0:0|0:0,0:0:0:0:
494,218,65291,1,0,0:0:0:0:
494,218,65491,6,0,L|335:238,1,160,6|10,0:0|0:0,0:0:0:0:
179,126,66291,2,0,P|255:142|320:99,1,160,2|10,0:0|0:0,0:0:0:0:
332,4,66891,1,0,0:0:0:0:
332,4,67091,6,0,P|379:25|407:135,1,160,6|10,0:0|0:0,0:0:0:0:
296,270,67891,2,0,P|222:241|142:288,1,160,2|10,0:0|0:0,0:0:0:0:
103,356,68491,1,0,0:0:0:0:
103,356,68691,6,0,P|61:313|81:213,1,160,6|10,0:0|0:0,0:0:0:0:
234,113,69491,2,0,L|60:91,1,160,2|10,0:0|0:0,0:0:0:0:
118,7,70091,1,0,0:0:0:0:
118,7,70291,6,0,L|276:27,1,160,6|10,0:0|0:0,0:0:0:0:
432,136,71091,2,0,P|356:122|294:170,1,160,2|10,0:0|0:0,0:0:0:0:
379,216,71691,1,0,0:0:0:0:
379,216,71891,6,0,P|317:263|240:249,1,160,6|10,0:0|0:0,0:0:0:0:
153,208,72491,1,0,0:0:0:0:
153,208,72691,2,0,P|144:239|156:307,1,80,2|0,0:0|0:0,0:0:0:0:
108,373,73091,2,0,P|77:348|56:313,1,80,10|0,0:0|0:0,0:0:0:0:
19,225,73491,6,0,L|60:37,1,160,6|10,0:0|0:0,0:0:0:0:
131,12,74091,1,0,0:0:0:0:
131,12,74291,2,0,L|165:168,1,160,2|10,0:0|0:0,0:0:0:0:
240,227,74891,1,0,0:0:0:0:
240,227,75091,6,0,L|281:39,1,160,2|10,0:0|0:0,0:0:0:0:
354,17,75691,1,10,0:0:0:0:
449,29,75891,1,10,0:0:0:0:
482,118,76091,2,0,L|473:171,5,40,10|8|10|8|8|12,0:0|0:0|0:0|0:0|0:3|0:3,0:0:0:0:
479,205,76691,6,0,P|447:221|399:217,1,80,6|8,0:0|0:0,0:0:0:0:
311,194,77091,2,0,L|329:291,1,80,0|8,0:0|0:0,0:0:0:0:
316,320,77391,2,0,P|259:331|213:295,1,120,0|8,0:0|0:0,0:0:0:0:
130,246,77891,2,0,L|117:325,1,80,0|8,0:0|0:0,0:0:0:0:
21,324,78291,6,0,L|33:244,1,80,2|8,0:0|0:0,0:0:0:0:
17,150,78691,2,0,P|35:96|87:70,1,80,0|8,0:0|0:0,0:0:0:0:
146,67,79091,2,0,P|191:58|241:72,1,80,2|8,0:0|0:0,0:0:0:0:
317,83,79491,2,0,L|376:57,2,40,2|2|10,0:0|0:0|0:0,0:0:0:0:
252,153,79891,6,0,L|266:243,1,80,2|8,0:0|0:0,0:0:0:0:
229,265,80191,2,0,P|191:322|196:373,1,120,0|10,0:0|0:0,0:0:0:0:
286,342,80691,2,0,L|382:329,1,80,2|8,0:0|0:0,0:0:0:0:
368,235,81091,2,0,L|464:222,1,80,2|8,0:0|0:0,0:0:0:0:
431,129,81491,6,0,L|527:116,1,80,2|8,0:0|0:0,0:0:0:0:
471,30,81891,2,0,P|433:15|394:18,1,80,2|8,0:0|0:0,0:0:0:0:
333,93,82291,2,0,P|281:91|252:65,1,80,10|8,0:0|0:0,0:0:0:0:
176,27,82691,6,0,L|161:77,1,40,14|8,0:1|0:0,0:0:0:0:
133,102,82891,2,0,L|147:149,1,40,14|8,0:1|0:0,0:0:0:0:
134,187,83091,6,0,P|96:199|57:192,1,80,6|8,0:1|0:0,0:0:0:0:
2,270,83491,2,0,P|11:320|43:359,1,80,2|8,0:0|0:0,0:0:0:0:
74,351,83791,1,8,0:0:0:0:
74,351,83891,2,0,L|172:348,1,80,10|8,0:0|0:3,0:0:0:0:
249,354,84291,6,0,L|276:314,1,40,14|8,0:1|0:0,0:0:0:0:
319,318,84491,2,0,L|315:264,1,40,14|8,0:1|0:0,0:0:0:0:
361,263,84691,6,0,P|354:223|326:175,1,80,6|8,0:1|0:0,0:0:0:0:
250,145,85091,2,0,P|260:102|292:50,1,80,2|8,0:0|0:0,0:0:0:0:
365,107,85491,2,0,P|404:110|439:93,1,80,10|8,0:0|0:0,0:0:0:0:
429,0,85891,2,0,P|389:-3|354:13,1,80,8|8,0:0|0:0,0:0:0:0:
276,70,86291,6,0,L|238:61,3,40,14|8|8|8,0:1|0:0|0:0|0:0,0:0:0:0:
198,88,86691,2,0,L|145:98,3,40,14|8|8|8,0:1|0:0|0:0|0:0,0:0:0:0:
114,74,87091,2,0,P|53:74|9:126,1,120,14|4,0:1|0:3,0:0:0:0:
31,158,87491,2,0,P|4:207|38:274,1,120,8|4,0:3|0:3,0:0:0:0:
61,295,87891,6,0,L|157:280,1,80,6|8,0:0|0:0,0:0:0:0:
157,187,88291,2,0,L|253:172,1,80,2|8,0:0|0:0,0:0:0:0:
330,192,88691,2,0,P|378:229|385:265,1,80,10|8,0:0|0:0,0:0:0:0:
479,240,89091,2,0,P|453:317|433:334,1,80,10|8,0:0|0:0,0:0:0:0:
366,351,89491,6,0,L|328:342,3,40,14|8|8|8,0:1|0:0|0:0|0:0,0:0:0:0:
282,323,89891,2,0,L|229:333,3,40,14|8|8|8,0:1|0:0|0:0|0:0,0:0:0:0:
203,359,90291,2,0,P|142:359|98:307,1,120,14|4,0:1|0:3,0:0:0:0:
54,313,90691,2,0,P|33:258|60:207,1,120,8|8,0:0|0:0,0:0:0:0:
79,163,91091,6,0,L|175:148,1,80,6|8,0:0|0:0,0:0:0:0:
214,229,91491,2,0,L|310:214,1,80,2|8,0:0|0:0,0:0:0:0:
380,176,91891,2,0,P|398:132|393:85,1,80,2|8,0:0|0:0,0:0:0:0:
303,80,92291,2,0,P|285:36|290:-11,1,80,10|8,0:0|0:0,0:0:0:0:
190,14,92691,6,0,L|152:5,3,40,14|8|8|8,0:1|0:0|0:0|0:0,0:0:0:0:
121,42,93091,2,0,L|68:52,3,40,14|8|8|8,0:1|0:0|0:0|0:0,0:0:0:0:
55,90,93491,2,0,P|9:155|20:206,1,120,14|4,0:1|0:3,0:0:0:0:
60,199,93891,2,0,P|114:267|106:316,1,120,8|4,0:3|0:3,0:0:0:0:
100,342,94291,6,0,L|201:350,1,80,6|8,0:0|0:0,0:0:0:0:
203,254,94691,2,0,L|282:247,1,80,2|8,0:0|0:0,0:0:0:0:
371,284,95091,2,0,P|411:346|414:372,1,80,6|8,0:0|0:0,0:0:0:0:
497,306,95491,2,0,P|482:268|455:239,1,80,2|8,0:0|0:0,0:0:0:0:
425,202,95791,1,8,0:0:0:0:
425,202,95891,6,0,L|434:112,1,80,6|8,0:0|0:0,0:0:0:0:
338,139,96291,2,0,L|347:49,1,80,2|8,0:0|0:0,0:0:0:0:
257,20,96691,2,0,P|207:44|160:34,1,80,6|8,0:0|0:0,0:0:0:0:
100,89,97091,2,0,P|50:65|3:75,1,80,2|8,0:0|0:0,0:0:0:0:
12,112,97391,1,8,0:0:0:0:
12,112,97491,6,0,L|26:192,1,80,6|8,0:0|0:0,0:0:0:0:
121,179,97891,2,0,L|107:259,1,80,2|8,0:0|0:0,0:0:0:0:
195,295,98291,2,0,P|239:304|278:287,1,80,6|8,0:0|0:0,0:0:0:0:
345,231,98691,2,0,P|386:223|432:239,1,80,2|8,0:0|0:0,0:0:0:0:
496,172,99091,6,0,L|485:66,1,80,6|8,0:0|0:0,0:0:0:0:
464,49,99391,2,0,P|413:79|335:54,1,120,8|8,0:0|0:0,0:0:0:0:
268,27,99891,1,6,0:0:0:0:
211,104,100091,1,6,0:0:0:0:
115,107,100291,1,6,0:0:0:0:
