osu file format v14

[General]
AudioFilename: julio.mp3
AudioLeadIn: 0
PreviewTime: 18529
Countdown: 0
SampleSet: Soft
StackLeniency: 0.7
Mode: 0
LetterboxInBreaks: 0
WidescreenStoryboard: 1

[Editor]
DistanceSpacing: 1.15
BeatDivisor: 4
GridSize: 32
TimelineZoom: 1

[Metadata]
Title:Me and Julio Down by the Schoolyard
TitleUnicode:Me and Julio Down by the Schoolyard
Artist:Streetlight Manifesto
ArtistUnicode:Streetlight Manifesto
Creator:pishifat
Version:Hard
Source:
Tags:99 songs of revolution jazz ska punk paul simon
BeatmapID:1022194
BeatmapSetID:472635

[Difficulty]
HPDrainRate:5
CircleSize:4
OverallDifficulty:6.5
ApproachRate:7.5
SliderMultiplier:0.999999999999999
SliderTickRate:1

[Events]
//Background and Video events
0,0,"ok.jpg",0,0
//Break Periods
//Storyboard Layer 0 (Background)
//Storyboard Layer 1 (Fail)
//Storyboard Layer 2 (Pass)
//Storyboard Layer 3 (Foreground)
//Storyboard Sound Samples

[TimingPoints]
183,461.538461538462,4,2,1,80,1,0
3875,-66.6666666666667,4,2,1,80,0,0
7567,-66.6666666666667,4,2,1,80,0,0
8029,-66.6666666666667,4,2,1,80,0,0
8490,-66.6666666666667,4,2,1,80,0,0
8952,-66.6666666666667,4,2,1,80,0,0
9413,-66.6666666666667,4,2,1,80,0,0
9875,-66.6666666666667,4,2,1,80,0,0
10567,-66.6666666666667,4,2,1,70,0,0
10798,-66.6666666666667,4,2,1,80,0,0
11259,-66.6666666666667,4,2,1,80,0,0
11836,-66.6666666666667,4,2,1,80,0,0
12183,-66.6666666666667,4,2,1,80,0,0
12644,-66.6666666666667,4,2,1,80,0,0
14029,-66.6666666666667,4,2,1,80,0,0
14490,-66.6666666666667,4,2,1,80,0,0
14952,-66.6666666666667,4,2,1,80,0,0
16336,-66.6666666666667,4,2,1,80,0,0
16798,-66.6666666666667,4,2,1,80,0,0
17144,-66.6666666666667,4,2,1,65,0,0
17259,-66.6666666666667,4,2,1,80,0,0
17491,-66.6666666666667,4,2,1,80,0,0
17837,-66.6666666666667,4,2,1,80,0,0
18183,-66.6666666666667,4,2,1,80,0,0
18644,-66.6666666666667,4,2,2,70,0,0
26952,461.538461538462,4,2,1,80,1,0
26952,-66.6666666666667,4,2,1,80,0,0
32490,-66.6666666666667,4,2,1,80,0,0
33875,-66.6666666666667,4,3,1,50,0,0
34336,-66.6666666666667,4,2,2,70,0,0
42644,461.538461538462,4,2,2,70,1,0
42644,-66.6666666666667,4,2,2,70,0,0
48182,-66.6666666666667,4,2,2,70,0,0
48759,-66.6666666666667,4,2,2,70,0,0
50028,-66.6666666666667,4,2,1,80,0,1
53490,-66.6666666666667,4,2,1,80,0,0
53720,-66.6666666666667,4,2,1,80,0,1
55336,-66.6666666666667,4,2,1,80,0,0
56028,-100,4,2,1,60,0,0
56951,-66.6666666666667,4,2,1,60,0,0
57413,-66.6666666666667,4,2,1,80,0,1
59028,-66.6666666666667,4,2,1,80,0,0
59720,-100,4,2,1,60,0,0
60644,-66.6666666666667,4,2,1,60,0,0
60874,-66.6666666666667,4,2,1,60,0,0
61105,-66.6666666666667,4,2,1,80,0,0
62951,-66.6666666666667,4,2,2,80,0,0
64336,-66.6666666666667,4,2,2,80,0,0
64797,-66.6666666666667,4,2,2,80,0,0
66297,-66.6666666666667,4,2,2,80,0,0
66644,-66.6666666666667,4,2,2,80,0,0
68490,-66.6666666666667,4,2,2,80,0,0
69413,-66.6666666666667,4,2,2,80,0,0
70336,-66.6666666666667,4,2,2,80,0,0
74028,-66.6666666666667,4,2,1,80,0,0
76336,-100,4,2,1,60,0,0
77259,-66.6666666666667,4,2,1,60,0,0
77720,-66.6666666666667,4,2,1,80,0,0
80028,-100,4,2,1,60,0,0
80951,-66.6666666666667,4,2,1,60,0,0
81413,-66.6666666666667,4,2,1,80,0,0
81874,-66.6666666666667,4,2,1,50,0,0
82336,-66.6666666666667,4,2,1,65,0,0
82797,-66.6666666666667,4,2,1,80,0,0
85105,-66.6666666666667,4,2,2,70,0,0
93413,461.538461538462,4,2,2,70,1,0
93413,-66.6666666666667,4,2,2,70,0,0
100797,-66.6666666666667,4,2,1,80,0,1
104259,-66.6666666666667,4,2,1,80,0,0
104489,-66.6666666666667,4,2,1,80,0,1
106105,-100,4,2,1,80,0,0
106797,-100,4,2,1,60,0,0
107720,-66.6666666666667,4,2,1,60,0,0
108182,-66.6666666666667,4,2,1,80,0,1
109797,-66.6666666666667,4,2,1,80,0,0

[Colours]
Combo1 : 187,199,213
Combo2 : 211,205,201
Combo3 : 171,204,224
Combo4 : 199,193,175

[HitObjects]
256,192,3875,12,0,7106,0:0:0:0:
159,134,7567,6,0,P|146:169|152:235,1,75.000002861023,4|4,0:0|0:3,0:0:0:0:
193,286,8029,2,0,P|263:259|330:273,1,112.500004291535,0|0,1:0|1:0,0:0:0:0:
312,268,8490,2,0,L|416:277,1,75.000002861023,4|4,0:3|0:3,0:0:0:0:
413,182,8952,2,0,L|302:173,1,75.000002861023,0|0,1:0|0:0,0:0:0:0:
324,170,9298,1,0,1:0:0:0:
309,164,9413,6,0,P|287:91|289:58,1,75.000002861023,4|4,0:3|0:3,0:0:0:0:
341,19,9875,2,0,P|244:55|177:22,1,150.000005722046,0|4,1:0|0:3,0:0:0:0:
114,8,10567,1,0,1:0:0:0:
104,19,10683,1,0,1:0:0:0:
95,31,10798,2,0,L|101:95,3,37.5000014305115,0|0|0|0,1:0|1:0|1:0|1:0,0:0:0:0:
100,85,11259,6,0,L|108:172,1,75.000002861023,4|4,0:0|0:3,0:0:0:0:
42,217,11721,2,0,B|17:255|17:255|30:352,1,112.500004291534,0|0,1:0|1:0,0:0:0:0:
30,335,12183,2,0,P|86:357|115:352,1,75.000002861023,4|4,0:3|0:3,0:0:0:0:
166,289,12644,2,0,P|223:273|255:278,1,75.000002861023,0|0,1:0|0:0,0:0:0:0:
252,279,12990,1,0,1:0:0:0:
266,284,13106,6,0,L|358:292,1,75.000002861023,4|4,0:3|0:3,0:0:0:0:
422,235,13567,2,0,P|430:165|397:106,1,112.500004291534,0|0,1:0|1:0,0:0:0:0:
403,117,14029,1,4,0:3:0:0:
326,158,14259,1,4,0:3:0:0:
243,126,14490,2,0,L|237:32,1,75.000002861023,0|0,1:0|0:0,0:0:0:0:
237,36,14836,1,0,1:0:0:0:
236,20,14952,6,0,P|164:22|114:58,1,112.500004291534,2|2,0:0|0:0,0:0:0:0:
123,54,15413,1,2,1:2:0:0:
79,128,15644,1,2,0:0:0:0:
80,142,15759,2,0,L|95:264,1,112.500004291534,2|2,1:2|0:0,0:0:0:0:
143,326,16336,1,0,1:0:0:0:
227,297,16567,1,4,0:3:0:0:
281,366,16798,6,0,P|343:371|391:344,1,112.500004291534,4|0,0:3|1:0,0:0:0:0:
395,336,17259,1,0,1:0:0:0:
348,261,17490,1,2,0:0:0:0:
344,246,17606,1,2,0:0:0:0:
339,231,17721,2,0,P|349:183|368:152,1,75.000002861023,0|2,0:0|0:0,0:0:0:0:
433,106,18183,1,0,1:0:0:0:
351,71,18413,1,0,1:0:0:0:
335,69,18529,1,0,1:0:0:0:
320,68,18644,6,0,L|224:81,1,75.000002861023,4|0,0:0|0:0,0:0:0:0:
170,130,19106,2,0,L|74:119,1,75.000002861023,0|0,1:0|0:0,0:0:0:0:
80,120,19452,2,0,P|123:175|131:250,1,112.500004291534,0|0,1:0|0:0,0:0:0:0:
101,298,20029,1,0,1:0:0:0:
154,368,20259,1,0,0:0:0:0:
242,356,20490,6,0,P|256:279|254:262,1,75.000002861023,2|0,0:0|0:0,0:0:0:0:
262,188,20952,2,0,B|306:211|306:211|403:200,1,112.500004291534,0|0,1:0|1:0,0:0:0:0:
383,202,21413,1,2,0:0:0:0:
458,252,21644,1,0,0:0:0:0:
506,180,21875,2,0,P|493:124|477:97,1,75.000002861023,0|0,1:0|0:0,0:0:0:0:
475,97,22221,1,0,0:0:0:0:
463,87,22336,6,0,L|363:78,1,75.000002861023,2|0,0:0|0:0,0:0:0:0:
301,104,22798,2,0,P|283:143|293:229,1,112.500004291534,0|0,1:0|1:0,0:0:0:0:
294,223,23259,2,0,L|190:237,1,75.000002861023,2|0,0:0|0:0,0:0:0:0:
133,258,23721,1,0,1:0:0:0:
198,318,23952,1,0,0:0:0:0:
111,344,24183,6,0,P|45:334|20:318,1,75.000002861023,2|0,0:0|0:0,0:0:0:0:
1,255,24644,2,0,L|8:149,1,75.000002861023,0|0,1:0|0:0,0:0:0:0:
9,165,24990,2,0,B|40:131|40:131|35:46,1,112.500004291534,0|0,1:0|0:0,0:0:0:0:
126,78,25567,2,0,L|129:115,6,25.0000009536743,0|0|0|0|0|0|0,1:0|1:0|1:0|1:0|1:0|1:0|1:0,0:0:0:0:
126,78,26952,6,0,L|134:174,1,75.000002861023,4|0,0:0|0:0,0:0:0:0:
183,228,27413,2,0,P|252:215|298:179,1,112.500004291534,0|0,1:0|1:0,0:0:0:0:
293,178,27875,2,0,L|283:266,1,75.000002861023,2|0,0:0|0:0,0:0:0:0:
283,267,28221,1,0,0:0:0:0:
282,281,28336,1,0,1:0:0:0:
344,344,28567,1,0,0:0:0:0:
423,315,28798,6,0,P|433:252|426:218,1,75.000002861023,4|0,0:0|0:0,0:0:0:0:
379,168,29259,2,0,P|387:105|425:56,1,112.500004291534,0|0,1:0|1:0,0:0:0:0:
428,60,29721,2,0,L|336:50,1,75.000002861023,2|0,0:0|0:0,0:0:0:0:
338,49,30067,1,0,0:0:0:0:
323,47,30182,1,0,1:0:0:0:
248,1,30413,1,0,0:0:0:0:
164,36,30644,6,0,P|146:89|147:121,1,75.000002861023,4|0,0:0|0:0,0:0:0:0:
217,166,31105,2,0,B|250:202|250:202|242:296,1,112.500004291534,0|0,1:0|1:0,0:0:0:0:
242,280,31567,2,0,P|188:303|146:299,1,75.000002861023,2|0,0:0|0:0,0:0:0:0:
157,303,31913,1,0,0:0:0:0:
142,299,32028,2,0,P|94:254|83:218,1,75.000002861023,0|0,1:0|0:0,0:0:0:0:
72,153,32490,6,0,L|-10:148,2,75.000002861023,4|0|0,0:0|0:0|1:0,0:0:0:0:
150,108,33182,1,0,1:0:0:0:
165,107,33298,1,0,1:0:0:0:
179,106,33413,2,0,L|235:103,2,37.5000014305115,0|0|2,1:0|1:0|0:0,0:0:0:0:
157,18,33875,6,0,L|221:14,3,37.5000014305115,0|0|0|0,0:0|0:0|0:0|0:0,0:0:0:0:
209,14,34336,6,0,P|247:21|290:47,1,75.000002861023,4|0,0:0|0:0,0:0:0:0:
337,103,34798,2,0,P|407:92|456:58,1,112.500004291534,0|0,1:0|1:0,0:0:0:0:
452,60,35259,2,0,L|461:148,1,75.000002861023,2|0,0:0|0:0,0:0:0:0:
473,222,35721,1,0,1:0:0:0:
403,270,35952,1,0,0:0:0:0:
322,230,36182,6,0,P|268:240|228:264,1,75.000002861023,2|0,0:0|0:0,0:0:0:0:
163,294,36644,2,0,L|157:201,1,75.000002861023,0|0,1:0|0:0,0:0:0:0:
157,204,36990,1,0,1:0:0:0:
156,189,37105,2,0,L|152:91,1,75.000002861023,2|0,0:0|0:0,0:0:0:0:
190,33,37567,1,0,1:0:0:0:
266,77,37798,1,0,0:0:0:0:
280,80,37913,1,0,0:0:0:0:
294,83,38028,6,0,P|359:71|386:54,1,75.000002861023,2|0,0:0|0:0,0:0:0:0:
455,15,38490,2,0,L|448:151,1,112.500004291534,0|0,1:0|1:0,0:0:0:0:
448,142,38952,1,2,0:0:0:0:
496,215,39182,1,0,0:0:0:0:
427,267,39413,2,0,P|370:248|325:251,1,75.000002861023,0|0,1:0|0:0,0:0:0:0:
284,287,39875,6,0,L|185:296,1,75.000002861023,2|0,0:0|0:0,0:0:0:0:
127,253,40336,2,0,P|124:214|142:155,1,75.000002861023,0|0,1:0|0:0,0:0:0:0:
139,166,40682,2,0,B|101:143|101:143|4:154,1,112.500004291534,0|0,1:0|0:0,0:0:0:0:
14,241,41259,2,0,L|55:238,6,25.0000009536743,8|8|8|4|4|4|0,0:3|0:3|0:3|0:3|0:3|0:3|1:0,0:0:0:0:
38,239,42644,6,0,P|62:298|64:330,1,75.000002861023,4|0,0:0|0:0,0:0:0:0:
129,373,43105,2,0,L|212:367,1,75.000002861023,0|0,1:0|0:0,0:0:0:0:
216,359,43451,2,0,B|254:334|254:334|350:348,1,112.500004291534,0|0,1:0|0:0,0:0:0:0:
409,358,44028,2,0,P|425:298|420:270,1,75.000002861023,0|0,1:0|0:0,0:0:0:0:
366,218,44490,6,0,P|350:158|355:130,1,75.000002861023,2|0,0:0|0:0,0:0:0:0:
401,72,44951,1,0,1:0:0:0:
330,22,45182,1,0,0:0:0:0:
318,31,45297,2,0,L|172:45,1,112.500004291534,0|0,1:0|0:0,0:0:0:0:
123,99,45874,2,0,P|175:124|195:152,1,75.000002861023,0|0,1:0|0:0,0:0:0:0:
191,150,46220,1,0,0:0:0:0:
195,164,46336,6,0,L|189:254,1,75.000002861023,2|0,0:0|0:0,0:0:0:0:
280,280,46797,2,0,L|285:181,1,75.000002861023,0|0,1:0|0:0,0:0:0:0:
286,190,47144,2,0,P|371:203|402:237,1,112.500004291534,0|0,1:0|0:0,0:0:0:0:
432,300,47720,2,0,P|419:352|394:380,1,75.000002861023,0|0,1:0|0:0,0:0:0:0:
318,382,48182,6,0,L|214:373,1,75.000002861023,2|2,0:0|0:0,0:0:0:0:
150,366,48644,1,0,1:0:0:0:
136,372,48759,2,0,P|126:332|129:285,1,75.000002861023,0|0,1:0|0:0,0:0:0:0:
130,283,49105,2,0,L|187:276,3,37.5000014305115,0|0|8|8,1:0|1:0|0:3|0:3,0:0:0:0:
180,271,49567,2,0,L|217:275,3,37.5000014305115,4|4|0|0,0:3|0:3|1:0|1:0,0:0:0:0:
232,276,50028,5,4,0:0:0:0:
312,244,50259,1,0,0:0:0:0:
394,212,50490,2,0,L|403:81,1,112.500004291534,0|0,1:0|1:0,0:0:0:0:
403,85,50951,2,0,P|341:58|304:62,1,75.000002861023,2|0,0:0|0:0,0:0:0:0:
268,109,51413,1,0,1:0:0:0:
225,33,51644,1,0,0:0:0:0:
161,87,51874,6,0,L|170:178,1,75.000002861023,4|0,0:0|0:0,0:0:0:0:
137,239,52336,2,0,P|187:207|252:213,1,112.500004291534,0|0,1:0|1:0,0:0:0:0:
250,216,52797,2,0,L|241:302,1,75.000002861023,2|0,0:0|0:0,0:0:0:0:
283,367,53259,2,0,P|344:382|370:377,1,75.000002861023,0|0,1:0|0:0,0:0:0:0:
417,318,53720,6,0,L|404:239,1,75.000002861023,4|2,0:0|0:0,0:0:0:0:
401,229,54067,1,2,0:0:0:0:
398,214,54182,2,0,P|414:152|467:114,1,112.500004291534,4|2,0:0|0:0,0:0:0:0:
462,115,54644,2,0,L|374:106,1,75.000002861023,4|0,0:0|0:0,0:0:0:0:
374,99,54990,1,2,0:0:0:0:
361,90,55105,1,4,0:3:0:0:
434,29,55336,1,2,0:3:0:0:
422,197,56028,6,0,B|350:191|350:191|342:284,1,150,0|4,1:0|0:3,0:0:0:0:
332,357,56951,2,0,L|279:363,3,37.5000014305115,0|0|0|0,1:0|1:0|1:0|1:0,0:0:0:0:
279,364,57413,6,0,P|211:353|191:340,1,75.000002861023,4|2,0:0|0:0,0:0:0:0:
195,340,57759,1,2,0:0:0:0:
186,327,57874,2,0,L|192:202,1,112.500004291534,4|2,0:0|0:0,0:0:0:0:
189,199,58336,2,0,P|130:171|90:176,1,75.000002861023,4|0,0:0|0:0,0:0:0:0:
107,175,58682,1,2,0:0:0:0:
94,183,58797,1,4,0:3:0:0:
51,260,59028,1,2,0:3:0:0:
258,282,59720,6,0,B|183:273|183:273|190:197,1,150,0|4,1:0|0:3,0:0:0:0:
193,110,60644,2,0,L|243:105,2,37.5000014305115,0|0|0,1:0|1:0|1:0,1:0:0:0:
123,53,61105,6,0,L|79:48,12,25.0000009536743,8|8|8|8|8|8|4|4|4|4|4|4|0,0:3|0:3|0:3|0:3|0:3|0:3|0:3|0:3|0:3|0:3|0:3|0:3|1:0,0:0:0:0:
123,53,62951,6,0,L|246:37,1,112.500004291534,4|0,0:0|0:0,0:0:0:0:
249,36,63413,1,0,1:0:0:0:
263,34,63528,1,2,0:0:0:0:
333,89,63759,2,0,L|457:99,1,112.500004291534,0|0,1:0|0:0,0:0:0:0:
492,178,64336,1,0,1:0:0:0:
478,184,64451,2,0,P|460:215|463:277,1,75.000002861023,2|2,0:0|0:0,0:0:0:0:
460,267,64797,6,0,P|345:286|324:275,1,112.500004291534,4|2,0:3|0:0,0:0:0:0:
341,282,65259,1,0,1:0:0:0:
270,228,65490,1,0,0:0:0:0:
255,225,65605,2,0,L|168:237,1,75.000002861023,0|0,1:0|0:0,0:0:0:0:
100,270,66067,1,2,0:0:0:0:
85,266,66182,1,0,1:0:0:0:
70,262,66297,2,0,P|53:193|56:161,1,75.000002861023,2|2,0:0|0:0,0:0:0:0:
56,174,66644,6,0,P|125:128|174:131,1,112.500004291534,4|2,0:3|0:0,0:0:0:0:
166,131,67105,1,0,1:0:0:0:
223,61,67336,1,2,0:0:0:0:
235,68,67451,2,0,L|354:54,1,112.500004291534,0|0,1:0|0:0,0:0:0:0:
437,40,68028,1,0,1:0:0:0:
405,124,68259,1,2,0:0:0:0:
403,138,68374,1,2,0:0:0:0:
400,152,68490,6,0,P|419:215|450:255,1,112.500004291534,4|2,0:3|0:0,0:0:0:0:
456,262,68951,1,0,1:0:0:0:
403,334,69182,1,2,0:0:0:0:
388,333,69297,2,0,L|272:320,1,112.500004291534,0|2,1:0|0:0,0:0:0:0:
261,318,69759,1,2,0:0:0:0:
246,316,69874,2,0,P|219:324|194:344,3,37.5000014305115,0|0|8|8,1:0|1:0|0:3|0:3,0:0:0:0:
201,340,70336,6,0,P|141:363|121:363,1,75.000002861023,4|0,0:0|0:0,0:0:0:0:
49,316,70797,2,0,P|39:253|53:219,1,75.000002861023,0|0,1:0|0:0,0:0:0:0:
51,231,71144,1,0,1:0:0:0:
61,220,71259,2,0,L|156:226,1,75.000002861023,0|0,0:0|0:0,0:0:0:0:
216,181,71720,2,0,L|290:176,1,75.000002861023,0|2,1:0|0:0,0:0:0:0:
305,174,72067,1,0,0:0:0:0:
319,172,72182,6,0,P|363:232|366:248,1,75.000002861023,4|0,0:3|0:0,0:0:0:0:
415,316,72644,2,0,P|431:282|458:257,1,75.000002861023,0|0,1:0|0:0,0:0:0:0:
473,255,72990,1,0,1:0:0:0:
487,253,73105,2,0,L|495:146,1,75.000002861023,0|0,0:0|0:0,0:0:0:0:
497,87,73567,1,0,1:0:0:0:
419,128,73797,1,0,1:0:0:0:
404,124,73913,1,0,1:0:0:0:
389,121,74028,6,0,P|371:80|370:26,1,75.000002861023,4|0,0:0|0:0,0:0:0:0:
371,35,74374,1,2,0:0:0:0:
377,21,74490,2,0,L|238:12,1,112.500004291534,4|2,0:0|0:0,0:0:0:0:
249,12,74951,2,0,L|152:31,1,75.000002861023,4|0,0:0|0:0,0:0:0:0:
160,30,75297,1,2,0:0:0:0:
145,34,75413,1,4,0:3:0:0:
227,106,75644,1,2,0:3:0:0:
14,126,76336,6,0,B|89:118|89:118|98:200,1,150,0|4,1:0|0:3,0:0:0:0:
113,282,77259,2,0,L|106:335,3,37.5000014305115,0|0|2|2,1:0|1:0|1:2|1:2,0:0:0:0:
105,333,77720,6,0,P|174:353|207:348,1,75.000002861023,4|0,0:0|0:0,0:0:0:0:
190,349,78067,1,2,0:0:0:0:
204,345,78182,2,0,P|288:325|337:333,1,112.500004291534,4|2,0:0|0:0,0:0:0:0:
326,334,78644,2,0,L|335:242,1,75.000002861023,4|0,0:0|0:0,0:0:0:0:
336,244,78990,1,2,0:0:0:0:
338,229,79105,1,4,0:3:0:0:
247,239,79336,1,2,0:3:0:0:
380,68,80028,6,0,B|374:143|374:143|281:136,1,150,0|4,1:0|0:3,0:0:0:0:
207,127,80951,2,0,L|158:135,3,37.5000014305115,0|0|0|0,1:0|1:0|1:0|1:0,0:0:0:0:
155,136,81413,6,0,P|115:133|66:113,1,75.000002861023,4|0,0:0|0:0,0:0:0:0:
16,205,81874,2,0,P|56:208|105:228,1,75.000002861023,0|0,1:0|1:0,0:0:0:0:
154,281,82336,1,0,1:0:0:0:
238,245,82567,1,0,1:0:0:0:
293,317,82797,1,0,1:0:0:0:
373,282,83028,1,0,1:0:0:0:
436,345,83259,6,0,L|441:380,12,25.0000009536743,0|0|0|0|0|0|4|4|4|4|4|4|0,1:0|1:0|1:0|1:0|1:0|1:0|0:3|0:3|0:3|0:3|0:3|0:3|1:0,0:0:0:0:
303,370,85105,6,0,P|265:363|222:337,1,75.000002861023,4|0,0:0|0:0,0:0:0:0:
175,281,85567,2,0,P|105:292|56:326,1,112.500004291534,0|0,1:0|1:0,0:0:0:0:
60,324,86028,2,0,L|51:236,1,75.000002861023,2|0,0:0|0:0,0:0:0:0:
39,162,86490,1,0,1:0:0:0:
111,114,86721,1,0,0:0:0:0:
190,154,86951,6,0,P|244:144|284:120,1,75.000002861023,2|0,0:0|0:0,0:0:0:0:
349,90,87413,2,0,L|355:183,1,75.000002861023,0|0,1:0|0:0,0:0:0:0:
355,180,87759,1,0,1:0:0:0:
356,195,87874,2,0,L|360:293,1,75.000002861023,2|0,0:0|0:0,0:0:0:0:
322,351,88336,1,0,1:0:0:0:
246,307,88567,1,0,0:0:0:0:
232,304,88682,1,0,0:0:0:0:
218,301,88797,6,0,P|153:313|126:330,1,75.000002861023,2|0,0:0|0:0,0:0:0:0:
62,339,89259,2,0,L|69:203,1,112.500004291534,0|0,1:0|1:0,0:0:0:0:
69,212,89721,1,2,0:0:0:0:
39,131,89951,1,0,0:0:0:0:
124,148,90182,2,0,P|167:146|206:120,1,75.000002861023,0|0,1:0|0:0,0:0:0:0:
254,68,90644,6,0,L|354:59,1,75.000002861023,2|0,0:0|0:0,0:0:0:0:
385,131,91105,2,0,P|388:170|370:229,1,75.000002861023,0|0,1:0|0:0,0:0:0:0:
373,218,91451,2,0,B|411:241|411:241|508:230,1,112.500004291534,0|0,1:0|0:0,0:0:0:0:
498,143,92028,2,0,L|457:146,6,25.0000009536743,8|8|8|4|4|4|0,0:3|0:3|0:3|0:3|0:3|0:3|1:0,0:0:0:0:
474,145,93413,6,0,P|450:86|448:54,1,75.000002861023,4|0,0:0|0:0,0:0:0:0:
383,11,93874,2,0,L|300:17,1,75.000002861023,0|0,1:0|0:0,0:0:0:0:
296,25,94220,2,0,B|258:50|258:50|162:36,1,112.500004291534,0|0,1:0|0:0,0:0:0:0:
103,26,94797,2,0,P|87:86|92:114,1,75.000002861023,0|0,1:0|0:0,0:0:0:0:
146,166,95259,6,0,P|162:226|157:254,1,75.000002861023,2|0,0:0|0:0,0:0:0:0:
111,312,95720,1,0,1:0:0:0:
182,362,95951,1,0,0:0:0:0:
194,353,96066,2,0,L|340:339,1,112.500004291534,0|0,1:0|0:0,0:0:0:0:
389,285,96643,2,0,P|337:260|317:232,1,75.000002861023,0|0,1:0|0:0,0:0:0:0:
321,234,96989,1,0,0:0:0:0:
317,220,97105,6,0,L|323:130,1,75.000002861023,4|0,0:0|0:0,0:0:0:0:
232,104,97566,2,0,L|227:203,1,75.000002861023,0|0,1:0|0:0,0:0:0:0:
226,194,97913,2,0,P|141:181|110:147,1,112.500004291534,0|0,1:0|0:0,0:0:0:0:
80,84,98489,2,0,P|93:32|118:4,1,75.000002861023,0|0,1:0|0:0,0:0:0:0:
194,2,98951,6,0,L|298:11,1,75.000002861023,2|0,0:0|0:0,0:0:0:0:
358,18,99413,2,0,P|385:84|381:115,1,75.000002861023,0|0,1:0|0:0,0:0:0:0:
380,100,99759,2,0,B|354:139|354:139|363:225,1,112.500004291534,0|2,1:0|0:0,0:0:0:0:
377,288,100336,2,0,L|432:293,3,37.5000014305115,0|0|8|8,1:0|1:0|0:3|0:3,0:0:0:0:
429,293,100797,5,4,0:0:0:0:
386,375,101028,2,0,L|232:358,1,150.000005722046,2|0,0:0|0:0,0:0:0:0:
222,361,101605,1,0,1:0:0:0:
207,364,101720,1,2,0:0:0:0:
135,314,101951,1,0,0:0:0:0:
218,274,102182,2,0,P|231:218|224:187,1,75.000002861023,0|0,1:0|0:0,0:0:0:0:
185,125,102643,5,4,0:3:0:0:
244,64,102874,2,0,P|309:58|381:111,1,150.000005722046,2|0,0:0|0:0,0:0:0:0:
380,118,103451,1,0,1:0:0:0:
383,132,103566,2,0,L|394:227,1,75.000002861023,2|0,0:0|0:0,0:0:0:0:
302,252,104028,2,0,L|294:175,1,75.000002861023,0|0,1:0|0:0,0:0:0:0:
221,122,104489,6,0,P|183:127|146:150,1,75.000002861023,4|2,0:0|0:0,0:0:0:0:
145,158,104836,1,2,0:0:0:0:
136,170,104951,2,0,P|74:151|38:97,1,112.500004291534,4|8,0:0|0:3,0:0:0:0:
40,101,105413,2,0,P|45:62|75:11,1,75.000002861023,4|0,0:0|0:0,0:0:0:0:
71,19,105759,1,2,0:0:0:0:
83,11,105874,1,4,0:3:0:0:
159,63,106105,1,2,0:3:0:0:
356,11,106797,6,0,B|283:18|283:18|291:102,1,150,0|4,1:0|0:3,0:0:0:0:
302,186,107720,2,0,L|366:191,3,37.5000014305115,0|0|0|0,1:0|1:0|1:0|1:0,0:0:0:0:
354,190,108182,6,0,P|384:259|385:286,1,75.000002861023,4|2,0:0|0:0,0:0:0:0:
382,272,108528,1,2,0:0:0:0:
381,286,108643,2,0,L|239:298,1,112.500004291534,4|2,0:0|0:0,0:0:0:0:
255,288,109105,2,0,P|183:265|154:269,1,75.000002861023,4|0,0:0|0:0,0:0:0:0:
171,271,109451,1,2,0:0:0:0:
157,277,109566,1,4,0:3:0:0:
190,362,109797,1,4,0:0:0:0:
