osu file format v14

[General]
AudioFilename: soft-song.mp3
AudioLeadIn: 0
PreviewTime: 13737
Countdown: 0
SampleSet: Soft
StackLeniency: 0.7
Mode: 0
LetterboxInBreaks: 0
WidescreenStoryboard: 1

[Editor]
Bookmarks: 71536,137376
DistanceSpacing: 0.9
BeatDivisor: 4
GridSize: 32
TimelineZoom: 3.599998

[Metadata]
Title:Everything Went Numb
TitleUnicode:Everything Went Numb
Artist:Streetlight Manifesto
ArtistUnicode:Streetlight Manifesto
Creator:pishifat
Version:Normal
Source:
Tags:milan- jazz ska punk everything_goes_numb catch_22
BeatmapID:903256
BeatmapSetID:414289

[Difficulty]
HPDrainRate:3
CircleSize:3
OverallDifficulty:3.5
ApproachRate:4.5
SliderMultiplier:0.6
SliderTickRate:1

[Events]
//Background and Video events
0,0,"soft-background.png",0,0
//Break Periods
2,29103,42332
2,93603,99823
2,108210,110505
//Storyboard Layer 0 (Background)
//Storyboard Layer 1 (Fail)
//Storyboard Layer 2 (Pass)
//Storyboard Layer 3 (Foreground)
//Storyboard Sound Samples

[TimingPoints]
460,222.222222222222,4,2,1,55,1,0
7571,-100,4,2,1,55,0,0
13182,-100,4,2,1,30,0,0
13348,-100,4,2,1,55,0,0
13793,-100,4,2,1,75,0,0
14682,-100,4,2,1,60,0,0
17348,-100,4,2,1,80,0,0
18459,-100,4,2,1,60,0,0
20904,-100,4,2,1,80,0,0
22015,-100,4,2,1,60,0,0
24459,-100,4,2,1,80,0,0
25571,-100,4,2,1,60,0,0
27126,-100,4,2,1,80,0,0
28459,-100,4,2,1,80,0,0
28682,-100,4,2,1,60,0,0
28904,230.769230769231,4,2,1,60,1,0
29365,-100,4,2,1,40,0,0
41596,-100,4,2,1,50,0,0
42750,210.526315789474,4,2,1,50,1,0
42750,-100,4,2,1,50,0,0
42960,-100,4,2,1,54,0,0
43171,-100,4,2,1,60,0,0
43381,-100,4,2,1,65,0,0
43592,222.222222222222,4,2,1,70,1,1
43592,-100,4,2,1,70,0,1
46703,-100,4,2,1,70,0,1
47036,-100,4,2,1,50,0,1
47147,-100,4,2,1,70,0,0
49814,-100,4,2,1,70,0,0
50258,-100,4,2,1,70,0,0
50703,-100,4,2,1,70,0,1
51147,-100,4,2,1,70,0,0
51591,-100,4,2,1,70,0,1
52036,-100,4,2,1,70,0,0
52480,-100,4,2,1,70,0,0
52925,-100,4,2,1,70,0,0
53480,-100,4,2,1,70,0,0
54258,-100,4,2,1,70,0,1
57147,-100,4,2,1,70,0,1
57814,-100,4,2,1,65,0,0
64591,-100,4,2,1,65,0,0
64925,-100,4,2,1,70,0,0
70703,-100,4,2,1,61,0,0
72036,-100,4,2,1,60,0,0
74703,-100,4,2,1,80,0,0
75814,-100,4,2,1,60,0,0
78258,-100,4,2,1,80,0,0
79147,-100,4,2,1,60,0,0
79369,-100,4,2,1,60,0,0
81814,-100,4,2,1,80,0,0
82703,-100,4,2,1,60,0,0
85147,-100,4,2,1,60,0,0
85369,230.769230769231,4,2,1,80,1,0
85369,-100,4,2,1,80,0,0
86292,222.222222222222,4,2,1,52,1,0
86292,-100,4,2,1,52,0,0
89236,-100,4,2,1,30,0,0
89403,-100,4,2,1,52,0,0
90792,-100,4,2,1,30,0,0
91180,-100,4,2,1,52,0,0
92736,-100,4,2,1,52,0,0
92958,-100,4,2,1,52,0,0
93180,-100,4,2,1,52,0,0
93403,240,4,2,1,52,1,0
101083,226.415094339623,4,2,1,50,1,0
101083,-100,4,2,1,50,0,0
101988,222.222222222222,4,2,1,50,1,0
101988,-100,4,2,1,50,0,0
106432,-100,4,2,1,50,0,0
109099,-100,4,2,1,61,0,0
109987,-100,4,2,1,61,0,0
110876,-100,4,2,1,61,0,0
111765,-100,4,2,1,10,0,0
112210,-100,4,2,1,15,0,0
112654,-100,4,2,1,20,0,0
113099,-100,4,2,1,25,0,0
113543,-100,4,2,1,30,0,0
113987,-100,4,2,1,35,0,0
114432,-100,4,2,1,40,0,0
114876,-100,4,2,1,45,0,0
115321,-100,4,2,1,70,0,1
118654,-100,4,2,1,40,0,1
118876,-100,4,2,1,70,0,0
121543,-100,4,2,1,70,0,0
121987,-100,4,2,1,70,0,0
122432,-100,4,2,1,70,0,1
122876,-100,4,2,1,70,0,0
123321,-100,4,2,1,70,0,1
123765,-100,4,2,1,70,0,0
124210,-100,4,2,1,70,0,0
125099,-100,4,2,1,70,0,0
125987,-100,4,2,1,70,0,1
129099,-100,4,2,1,70,0,1
129543,-100,4,2,1,70,0,0
135932,-100,4,2,1,30,0,0
135987,-100,4,2,1,65,0,0
142432,-100,4,2,1,65,0,0
143765,-100,4,2,1,55,0,0
149376,-100,4,2,1,30,0,0
149543,-100,4,2,1,55,0,0

[Colours]
Combo1 : 255,153,51
Combo2 : 160,222,204
Combo3 : 254,210,146
Combo4 : 0,174,174

[HitObjects]
15,316,7571,6,0,B|22:227|22:227|39:192|78:157,1,180,12|8,0:0|0:3,0:0:0:0:
124,186,8459,2,0,L|132:259,2,60,4|0|0,0:0|0:0|0:0,0:0:0:0:
183,96,9348,6,0,B|284:76|251:146|362:115,1,180,4|8,0:0|0:3,0:0:0:0:
393,78,10237,2,0,L|399:11,2,60,4|0|0,0:0|0:0|0:0,0:0:0:0:
472,151,11126,6,0,P|524:240|513:315,1,180,4|8,0:0|0:3,0:0:0:0:
469,342,12015,2,0,L|399:351,2,60,4|0|0,0:0|0:0|0:0,0:0:0:0:
417,246,12904,6,0,B|356:238|356:238|299:262,1,120,4|8,0:0|0:0,0:0:0:0:
255,358,13793,1,2,0:3:0:0:
40,336,14682,6,0,L|28:204,1,120,4|2,0:0|0:0,0:0:0:0:
58,112,15571,2,0,B|110:105|110:105|131:114|131:114|185:106,1,120,2|2,0:0|0:0,0:0:0:0:
263,47,16459,2,0,P|314:46|374:93,1,120,2|2,0:0|0:0,0:0:0:0:
398,188,17348,2,0,L|463:195,2,60,4|8|2,0:0|0:0|0:0,0:0:0:0:
345,202,18015,1,8,0:0:0:0:
345,202,18237,6,0,B|308:250|308:250|312:313,1,120,0|2,0:0|0:0,0:0:0:0:
212,352,19126,2,0,L|202:227,1,120,2|2,0:0|0:0,0:0:0:0:
164,131,20015,2,0,P|120:136|50:104,1,120,2|2,0:0|0:0,0:0:0:0:
128,29,20904,2,0,L|199:22,1,60,12|8,0:0|0:0,0:0:0:0:
238,42,21348,2,0,L|304:37,1,60,8|8,0:0|0:0,0:0:0:0:
350,48,21793,6,0,B|389:96|389:96|393:162,1,120,4|2,0:0|0:0,0:0:0:0:
361,257,22682,2,0,P|294:232|239:241,1,120,2|2,0:0|0:0,0:0:0:0:
162,304,23571,2,0,P|92:298|46:264,1,120,2|2,0:0|0:0,0:0:0:0:
61,163,24459,2,0,L|151:169,2,90,4|8|8,0:0|0:0|0:0,0:0:0:0:
27,120,25348,6,0,B|34:60|34:60|81:15,1,120,4|2,0:0|0:0,0:0:0:0:
176,60,26237,2,0,L|297:67,1,120,2|2,0:0|0:0,0:0:0:0:
403,56,27126,2,0,P|433:42|471:35,2,60,12|8|8,0:0|0:0|0:0,0:0:0:0:
388,108,27793,1,8,0:0:0:0:
388,108,28015,2,0,L|399:237,2,120,4|8|4,0:0|0:0|0:0,0:0:0:0:
39,165,43592,6,0,L|108:156,1,60,4|8,0:0|0:0,0:0:0:0:
151,150,44036,1,4,0:0:0:0:
245,201,44480,2,0,L|304:208,1,60,2|8,0:0|0:0,0:0:0:0:
357,215,44924,1,4,0:0:0:0:
458,177,45369,2,0,P|463:118|424:58,1,120,2|2,0:0|0:0,0:0:0:0:
326,54,46258,1,8,0:0:0:0:
272,59,46480,1,8,0:0:0:0:
218,65,46703,1,12,0:0:0:0:
128,124,47147,6,0,B|124:175|124:175|136:196|136:196|132:246,1,120,2|2,0:0|0:0,0:0:0:0:
130,294,47814,1,8,0:0:0:0:
130,294,48036,2,0,P|190:262|248:271,1,120,2|2,0:0|0:0,0:0:0:0:
331,324,48925,2,0,B|389:333|389:333|454:304,1,120,2|2,0:0|0:0,0:0:0:0:
490,279,49591,1,8,0:0:0:0:
502,226,49814,1,4,0:0:0:0:
285,226,50703,6,0,L|215:233,1,60,4|2,0:0|0:0,0:0:0:0:
111,117,51591,2,0,L|170:122,1,60,4|2,0:0|0:0,0:0:0:0:
325,76,52480,5,4,0:0:0:0:
352,298,53369,1,2,0:0:0:0:
250,341,53814,1,8,0:3:0:0:
148,377,54258,6,0,P|115:325|120:260,1,120,4|8,0:0|0:0,0:0:0:0:
221,241,55147,2,0,P|252:186|247:120,1,120,2|8,0:0|0:0,0:0:0:0:
164,64,56036,2,0,L|97:71,2,60,2|0|8,0:0|0:0|0:0,0:0:0:0:
263,22,56925,1,8,0:0:0:0:
365,54,57369,2,0,P|376:84|381:122,1,60,8|8,0:0|0:0,0:0:0:0:
367,163,57814,6,0,B|336:212|336:212|346:283,1,120,4|2,0:0|0:0,0:0:0:0:
238,291,58703,2,0,B|224:199,2,90,2|8|8,0:0|0:0|0:0,0:0:0:0:
228,344,59591,2,0,P|184:368|112:360,1,120,2|2,0:0|0:0,0:0:0:0:
67,265,60480,2,0,B|23:251|23:251|-28:258,2,90,2|8|8,0:0|0:0|0:0,0:0:0:0:
115,240,61369,6,0,L|123:113,1,120,2|2,0:0|0:0,0:0:0:0:
230,129,62258,2,0,L|224:230,2,90,2|8|8,0:0|0:0|0:3,0:0:0:0:
249,78,63147,2,0,P|297:49|366:53,1,120,2|0,0:0|0:0,0:0:0:0:
404,80,63814,1,4,0:3:0:0:
404,80,64036,2,0,L|475:90,2,60,2|8|8,0:0|0:0|0:0,0:0:0:0:
325,154,64925,6,0,B|356:206|356:206|348:278,1,120,4|2,0:0|0:0,0:0:0:0:
452,298,65814,2,0,L|463:206,2,90,2|8|10,0:0|0:0|0:0,0:0:0:0:
421,343,66703,2,0,P|365:368|301:358,1,120,2|2,0:0|0:0,0:0:0:0:
226,291,67591,2,0,L|127:300,2,90,2|8|8,0:0|0:0|0:0,0:0:0:0:
264,253,68480,6,0,B|270:193|270:193|232:138,1,120,2|2,0:0|0:0,0:0:0:0:
150,77,69369,2,0,L|58:69,2,90,2|8|8,0:0|0:0|0:0,0:0:0:0:
193,44,70258,1,8,0:0:0:0:
304,31,70703,1,8,0:0:0:0:
411,17,71147,1,4,0:0:0:0:
235,142,72036,6,0,P|209:195|219:264,1,120,4|2,0:0|0:0,0:0:0:0:
308,308,72925,2,0,L|434:297,2,120,2|2|2,0:0|0:0|0:0,0:0:0:0:
217,367,74258,1,2,0:0:0:0:
149,282,74703,2,0,L|155:215,2,60,4|8|2,0:0|0:0|0:0,0:0:0:0:
124,330,75369,1,8,0:0:0:0:
124,330,75591,6,0,P|70:339|7:298,1,120,4|2,0:0|0:0,0:0:0:0:
53,207,76480,2,0,B|59:158|59:158|46:138|46:138|51:91,1,120,2|2,0:0|0:0,0:0:0:0:
129,16,77369,2,0,P|195:9|246:40,1,120,2|2,0:0|0:0,0:0:0:0:
283,133,78258,2,0,L|275:203,1,60,8|8,0:0|0:0,0:0:0:0:
247,238,78703,2,0,L|239:308,1,60,8|8,0:0|0:0,0:0:0:0:
212,343,79147,6,0,B|263:375|263:375|331:369,1,120,4|2,0:0|0:0,0:0:0:0:
404,299,80036,2,0,L|413:171,1,120,2|2,0:0|0:0,0:0:0:0:
373,78,80925,2,0,P|322:48|255:59,1,120,2|2,0:0|0:0,0:0:0:0:
186,130,81814,2,0,L|193:229,2,90,4|10|8,0:0|0:0|0:0,0:0:0:0:
161,81,82703,6,0,P|113:53|41:60,1,120,4|0,0:0|0:0,0:0:0:0:
2,153,83591,2,0,B|36:204|36:204|28:270,1,120,2|2,0:0|0:0,0:0:0:0:
20,370,84480,2,0,P|54:357|82:355,1,60,4|8,0:0|0:0,0:0:0:0:
131,352,84925,1,8,0:0:0:0:
147,249,85369,1,8,0:0:0:0:
253,267,85830,1,8,0:0:0:0:
242,371,86292,6,0,B|379:396|325:284|474:313,1,240,4|2,0:0|0:0,0:0:0:0:
473,203,87625,1,8,0:0:0:0:
371,163,88069,6,0,P|308:186|279:231,2,120,2|8|2,0:0|0:0|0:0,0:0:0:0:
453,92,89403,1,8,0:0:0:0:
365,28,89847,6,0,B|273:39|273:39|236:77|236:77|141:88,1,240,2|8,0:0|0:0,0:0:0:0:
35,102,91180,1,8,0:0:0:0:
98,189,91625,6,0,P|154:217|219:211,1,120,8|2,0:0|0:0,0:0:0:0:
301,156,92514,2,0,P|380:162|419:193,1,120,8|8,0:0|0:3,0:0:0:0:
439,284,93403,1,4,0:0:0:0:
434,213,101083,6,0,L|309:221,1,120,2|2,0:3|0:3,0:0:0:0:
204,227,101988,2,0,L|139:231,2,60,10|2|2,0:0|0:3|0:3,0:0:0:0:
250,129,102876,6,0,L|241:1,2,120,2|2|10,0:3|0:3|0:0,0:0:0:0:
265,181,103988,2,0,B|322:205|322:205|387:193,1,120,2|2,0:3|0:3,0:0:0:0:
431,181,104654,5,2,0:3:0:0:
477,278,105099,1,2,0:3:0:0:
392,345,105543,1,10,0:0:0:0:
392,345,105765,2,0,L|264:355,1,120,2|2,0:3|0:3,0:0:0:0:
218,362,106432,5,6,0:0:0:0:
256,149,107321,1,6,0:0:0:0:
256,192,111765,12,0,114432,0:0:0:0:
232,232,115321,6,0,L|237:293,1,60,4|8,0:0|0:0,0:0:0:0:
240,345,115765,1,4,0:0:0:0:
346,328,116210,2,0,L|351:266,1,60,2|8,0:0|0:0,0:0:0:0:
354,215,116654,1,4,0:0:0:0:
322,111,117099,2,0,B|273:107|273:107|253:123|253:123|201:118,1,120,2|2,0:0|0:0,0:0:0:0:
106,83,117987,1,8,0:0:0:0:
71,124,118210,1,8,0:0:0:0:
75,177,118432,1,12,0:0:0:0:
142,261,118876,6,0,L|274:273,1,120,4|8,0:0|0:0,0:0:0:0:
297,170,119765,2,0,L|177:159,1,120,2|8,0:0|0:0,0:0:0:0:
125,64,120654,2,0,P|177:27|239:29,1,120,2|8,0:0|0:0,0:0:0:0:
327,75,121543,1,2,0:0:0:0:
429,41,121987,1,8,0:3:0:0:
502,120,122432,6,0,L|506:189,1,60,4|2,0:0|0:0,0:0:0:0:
388,292,123321,2,0,L|391:232,1,60,4|2,0:0|0:0,0:0:0:0:
327,83,124210,5,4,0:0:0:0:
232,277,125099,1,2,0:0:0:0:
126,253,125543,1,8,0:3:0:0:
20,229,125987,6,0,B|14:168|14:168|46:115,1,120,4|8,0:0|0:0,0:0:0:0:
135,59,126876,2,0,P|195:85|260:74,1,120,2|8,0:0|0:0,0:0:0:0:
327,6,127765,2,0,B|357:59|357:59|345:128,1,120,2|8,0:0|0:0,0:0:0:0:
311,219,128654,1,8,0:0:0:0:
416,196,129099,2,0,P|458:208|479:221,1,60,8|8,0:0|0:0,0:0:0:0:
490,266,129543,6,0,P|429:282|382:326,1,120,4|2,0:0|0:0,0:0:0:0:
290,270,130432,2,0,L|280:176,2,90,2|8|8,0:0|0:0|0:0,0:0:0:0:
263,317,131321,2,0,B|205:328|205:328|145:299,1,120,2|2,0:0|0:0,0:0:0:0:
62,238,132210,2,0,P|44:282|48:332,2,90,2|8|8,0:0|0:0|0:0,0:0:0:0:
107,207,133099,6,0,B|112:159|112:159|103:138|103:138|109:78,1,120,2|2,0:0|0:0,0:0:0:0:
209,124,133987,2,0,P|251:146|302:154,2,90,2|10|8,0:0|0:0|0:0,0:0:0:0:
203,70,134876,2,0,B|251:34|251:34|321:28,1,120,2|0,0:0|0:0,0:0:0:0:
360,50,135543,1,8,0:3:0:0:
360,50,135765,2,0,L|423:56,2,60,2|8|8,0:0|0:0|0:0,0:0:0:0:
303,142,136654,6,0,L|311:271,1,120,4|2,0:0|0:0,0:0:0:0:
209,300,137543,2,0,P|141:280|121:282,2,90,2|8|8,0:0|0:0|0:0,0:0:0:0:
239,344,138432,2,0,B|295:371|295:371|357:366,1,120,2|2,0:0|0:0,0:0:0:0:
441,304,139321,2,0,L|530:314,2,90,2|8|8,0:0|0:0|0:0,0:0:0:0:
395,274,140210,6,0,P|361:208|370:153,1,120,2|2,0:0|0:0,0:0:0:0:
440,86,141099,2,0,B|486:90|486:90|531:69,2,90,2|8|8,0:0|0:0|0:0,0:0:0:0:
393,58,141987,5,4,0:0:0:0:
291,21,142432,1,8,0:0:0:0:
216,98,142876,1,2,0:3:0:0:
127,295,143765,6,0,B|223:272|204:340|307:317,1,180,4|8,0:0|0:3,0:0:0:0:
341,283,144654,2,0,L|347:215,2,60,2|0|0,0:0|0:0|0:0,0:0:0:0:
447,261,145543,6,0,B|450:202|450:202|426:147|426:147|434:77,1,180,4|0,0:0|0:3,0:0:0:0:
444,33,146432,2,0,P|487:18|506:18,2,60,2|0|0,0:0|0:0|0:0,0:0:0:0:
342,71,147321,6,0,L|152:87,1,180,4|8,0:0|0:3,0:0:0:0:
115,59,148210,2,0,P|81:44|46:40,2,60,2|0|0,0:0|0:0|0:0,0:0:0:0:
56,149,149099,6,0,P|66:247|121:234,1,180,8|8,0:0|0:3,0:0:0:0:
148,191,149987,1,2,0:0:0:0:
