osu file format v14

[General]
AudioFilename: soft-song.mp3
AudioLeadIn: 0
PreviewTime: 13737
Countdown: 0
SampleSet: Soft
StackLeniency: 0.7
Mode: 0
LetterboxInBreaks: 0
WidescreenStoryboard: 1

[Editor]
Bookmarks: 137376
DistanceSpacing: 1
BeatDivisor: 4
GridSize: 32
TimelineZoom: 3.599998

[Metadata]
Title:Everything Went Numb
TitleUnicode:Everything Went Numb
Artist:Streetlight Manifesto
ArtistUnicode:Streetlight Manifesto
Creator:pishifat
Version:Hard
Source:
Tags:milan- jazz ska punk everything_goes_numb catch_22
BeatmapID:902315
BeatmapSetID:414289

[Difficulty]
HPDrainRate:5
CircleSize:3.8
OverallDifficulty:6.5
ApproachRate:8
SliderMultiplier:0.7
SliderTickRate:1

[Events]
//Background and Video events
0,0,"soft-background.png",0,0
//Break Periods
2,29104,40846
2,93603,100333
2,108210,111015
//Storyboard Layer 0 (Background)
//Storyboard Layer 1 (Fail)
//Storyboard Layer 2 (Pass)
//Storyboard Layer 3 (Foreground)
//Storyboard Sound Samples

[TimingPoints]
460,222.222222222222,4,2,1,55,1,0
7571,-71.4285714285714,4,2,1,55,0,0
13182,-71.4285714285714,4,2,1,30,0,0
13348,-71.4285714285714,4,2,1,55,0,0
13793,-100,4,2,1,75,0,0
14682,-58.8235294117647,4,2,1,60,0,0
17348,-58.8235294117647,4,2,1,80,0,0
18459,-58.8235294117647,4,2,1,60,0,0
20904,-58.8235294117647,4,2,1,80,0,0
22015,-58.8235294117647,4,2,1,60,0,0
24459,-58.8235294117647,4,2,1,80,0,0
25571,-58.8235294117647,4,2,1,60,0,0
27126,-58.8235294117647,4,2,1,80,0,0
28459,-62.5,4,2,1,80,0,0
28682,-66.6666666666667,4,2,1,60,0,0
28904,230.769230769231,4,2,1,60,1,0
29365,-153.846153846153,4,2,1,40,0,0
41596,-71.4285714285714,4,2,1,50,0,0
42750,210.526315789474,4,2,1,50,1,0
42750,-66.6666666666667,4,2,1,50,0,0
42960,-66.6666666666667,4,2,1,54,0,0
43171,-66.6666666666667,4,2,1,60,0,0
43381,-66.6666666666667,4,2,1,65,0,0
43592,222.222222222222,4,2,1,70,1,1
43592,-58.8235294117647,4,2,1,70,0,1
46703,-58.8235294117647,4,2,1,70,0,1
47036,-58.8235294117647,4,2,1,50,0,1
47147,-58.8235294117647,4,2,1,70,0,0
49814,-58.8235294117647,4,2,1,70,0,0
50258,-58.8235294117647,4,2,1,70,0,0
50703,-58.8235294117647,4,2,1,70,0,1
51147,-58.8235294117647,4,2,1,70,0,0
51591,-58.8235294117647,4,2,1,70,0,1
52036,-58.8235294117647,4,2,1,70,0,0
52480,-71.4285714285714,4,2,1,70,0,0
52925,-71.4285714285714,4,2,1,70,0,0
53480,-71.4285714285714,4,2,1,70,0,0
54258,-71.4285714285714,4,2,1,70,0,1
57147,-71.4285714285714,4,2,1,70,0,1
57814,-58.8235294117647,4,2,1,65,0,0
64591,-58.8235294117647,4,2,1,65,0,0
64925,-58.8235294117647,4,2,1,70,0,0
70703,-58.8235294117647,4,2,1,61,0,0
72036,-58.8235294117647,4,2,1,60,0,0
74703,-58.8235294117647,4,2,1,80,0,0
75814,-58.8235294117647,4,2,1,60,0,0
78258,-58.8235294117647,4,2,1,80,0,0
79147,-58.8235294117647,4,2,1,60,0,0
79369,-58.8235294117647,4,2,1,60,0,0
81814,-58.8235294117647,4,2,1,80,0,0
82703,-58.8235294117647,4,2,1,60,0,0
85147,-58.8235294117647,4,2,1,60,0,0
85369,230.769230769231,4,2,1,80,1,0
85369,-58.8235294117647,4,2,1,80,0,0
86292,222.222222222222,4,2,1,52,1,0
86292,-71.4285714285714,4,2,1,52,0,0
89236,-71.4285714285714,4,2,1,30,0,0
89403,-71.4285714285714,4,2,1,52,0,0
90792,-71.4285714285714,4,2,1,30,0,0
91180,-71.4285714285714,4,2,1,52,0,0
92736,-71.4285714285714,4,2,1,52,0,0
92958,-71.4285714285714,4,2,1,52,0,0
93180,-71.4285714285714,4,2,1,52,0,0
93403,240,4,2,1,52,1,0
101083,226.415094339623,4,2,1,50,1,0
101083,-71.4285714285714,4,2,1,50,0,0
101988,222.222222222222,4,2,1,50,1,0
101988,-71.4285714285714,4,2,1,50,0,0
106432,-100,4,2,1,50,0,0
109099,-100,4,2,1,61,0,0
109987,-100,4,2,1,61,0,0
110876,-100,4,2,1,61,0,0
111765,-200,4,2,1,10,0,0
112210,-133.333333333333,4,2,1,15,0,0
112654,-100,4,2,1,20,0,0
113099,-80,4,2,1,25,0,0
113543,-66.6666666666667,4,2,1,30,0,0
113987,-57.1428571428571,4,2,1,35,0,0
114432,-50,4,2,1,40,0,0
114876,-44.4444444444445,4,2,1,45,0,0
115321,-58.8235294117647,4,2,1,70,0,1
118876,-71.4285714285714,4,2,1,70,0,0
121543,-71.4285714285714,4,2,1,70,0,0
121987,-71.4285714285714,4,2,1,70,0,0
122432,-71.4285714285714,4,2,1,70,0,1
122876,-71.4285714285714,4,2,1,70,0,0
123321,-71.4285714285714,4,2,1,70,0,1
123765,-71.4285714285714,4,2,1,70,0,0
124210,-71.4285714285714,4,2,1,70,0,0
125099,-71.4285714285714,4,2,1,70,0,0
125987,-71.4285714285714,4,2,1,70,0,1
129099,-71.4285714285714,4,2,1,70,0,1
129543,-58.8235294117647,4,2,1,70,0,0
135932,-58.8235294117647,4,2,1,30,0,0
135987,-58.8235294117647,4,2,1,65,0,0
142432,-58.8235294117647,4,2,1,65,0,0
143765,-71.4285714285714,4,2,1,55,0,0
149376,-71.4285714285714,4,2,1,30,0,0
149543,-71.4285714285714,4,2,1,55,0,0

[Colours]
Combo1 : 255,153,51
Combo2 : 160,222,204
Combo3 : 254,210,146
Combo4 : 0,174,174

[HitObjects]
0,116,7571,6,0,P|48:99|106:103,1,97.9999970092774,12|0,0:0|0:0,0:0:0:0:
130,133,7904,2,0,P|186:134|237:110,1,97.9999970092774,8|0,0:3|0:0,0:0:0:0:
249,76,8237,1,8,0:3:0:0:
315,174,8459,5,4,0:0:0:0:
408,143,8682,1,0,0:0:0:0:
397,240,8904,1,0,0:0:0:0:
490,211,9126,1,8,0:0:0:0:
490,211,9237,1,8,0:0:0:0:
490,211,9348,6,0,P|511:261|507:315,1,97.9999970092774,4|0,0:0|0:0,0:0:0:0:
490,349,9682,2,0,B|445:332|445:332|381:340,1,97.9999970092774,8|0,0:3|0:0,0:0:0:0:
352,361,10015,1,8,0:3:0:0:
266,278,10237,5,4,0:0:0:0:
318,195,10459,1,0,0:0:0:0:
237,138,10682,1,0,0:0:0:0:
287,54,10904,1,8,0:0:0:0:
287,54,11015,1,8,0:0:0:0:
287,54,11126,6,0,B|239:38|239:38|175:53,1,97.9999970092774,4|0,0:0|0:0,0:0:0:0:
156,81,11459,2,0,L|50:91,1,97.9999970092774,8|0,0:3|0:0,0:0:0:0:
11,74,11793,1,8,0:3:0:0:
37,187,12015,5,4,0:0:0:0:
134,179,12237,1,0,0:0:0:0:
210,239,12459,1,0,0:0:0:0:
210,337,12682,1,8,0:0:0:0:
210,337,12793,1,8,0:0:0:0:
210,337,12904,6,0,L|275:345,1,48.9999985046387,4|0,0:0|0:0,0:0:0:0:
307,348,13126,1,8,0:0:0:0:
396,307,13348,2,0,L|462:299,2,48.9999985046387,8|8|2,0:0|0:3|0:0,0:0:0:0:
318,254,13793,5,2,0:3:0:0:
318,254,14682,6,0,B|305:193|305:193|332:137,1,119.000002269745,4|8,0:0|0:0,0:0:0:0:
366,103,15015,1,8,0:0:0:0:
366,103,15126,2,0,P|320:67|247:70,1,119.000002269745,2|8,0:0|0:0,0:0:0:0:
184,139,15571,6,0,L|191:200,2,59.5000011348725,2|0|8,0:0|0:0|0:0,0:0:0:0:
157,91,15904,1,8,0:0:0:0:
157,91,16015,2,0,P|107:138|96:201,1,119.000002269745,2|8,0:0|0:0,0:0:0:0:
124,288,16459,5,2,0:0:0:0:
57,372,16682,1,8,0:0:0:0:
57,372,16793,1,8,0:0:0:0:
57,372,16904,2,0,L|183:384,1,119.000002269745,2|8,0:0|0:0,0:0:0:0:
281,366,17348,5,4,0:0:0:0:
281,366,17459,2,0,P|314:284|303:234,1,119.000002269745,2|0,0:0|0:0,0:0:0:0:
278,212,17793,2,0,L|207:205,2,59.5000011348725,2|2|8,0:0|0:0|0:0,0:0:0:0:
320,179,18126,6,0,B|379:165|439:166|439:166|486:228,1,178.500003404617,4|8,0:0|0:0,0:0:0:0:
502,258,18571,1,8,0:0:0:0:
502,258,18682,2,0,P|533:202|523:126,1,119.000002269745,2|8,0:0|0:0,0:0:0:0:
471,60,19126,6,0,L|388:53,1,59.5000011348725,2|0,0:0|0:0,0:0:0:0:
369,78,19348,1,8,0:0:0:0:
369,78,19459,1,8,0:0:0:0:
369,78,19571,2,0,B|317:110|317:110|239:101,1,119.000002269745,2|8,0:0|0:0,0:0:0:0:
157,70,20015,6,0,P|128:111|133:183,1,119.000002269745,2|8,0:0|0:0,0:0:0:0:
165,218,20348,1,8,0:0:0:0:
165,218,20459,2,0,L|42:229,1,119.000002269745,2|8,0:0|0:0,0:0:0:0:
48,336,20904,6,0,P|76:320|119:314,1,59.5000011348725,12|2,0:0|0:0,0:0:0:0:
155,313,21126,2,0,P|191:322|220:339,1,59.5000011348725,8|2,0:0|0:0,0:0:0:0:
244,373,21348,1,8,0:0:0:0:
283,273,21571,1,8,0:0:0:0:
344,360,21793,6,0,B|405:367|405:367|472:328,1,119.000002269745,4|8,0:0|0:0,0:0:0:0:
486,294,22126,1,8,0:0:0:0:
486,294,22237,2,0,L|492:170,1,119.000002269745,2|8,0:0|0:0,0:0:0:0:
499,67,22682,6,0,P|419:63|385:86,1,119.000002269745,2|8,0:0|0:0,0:0:0:0:
366,131,23015,1,8,0:0:0:0:
366,131,23126,1,2,0:0:0:0:
269,83,23348,1,8,0:0:0:0:
222,180,23571,6,0,B|170:206|170:206|101:195,1,119.000002269745,2|8,0:0|0:0,0:0:0:0:
61,173,23904,1,8,0:0:0:0:
61,173,24015,2,0,P|65:106|103:57,1,119.000002269745,2|8,0:0|0:0,0:0:0:0:
199,46,24459,5,4,0:0:0:0:
199,46,24571,2,0,L|277:52,1,59.5000011348725,2|8,0:0|0:0,0:0:0:0:
302,21,24793,2,0,B|335:0|377:-9|377:-9|413:0,1,119.000002269745,8|0,0:0|0:0,0:0:0:0:
457,30,25126,1,8,0:0:0:0:
380,105,25348,6,0,L|373:236,1,119.000002269745,4|8,0:0|0:0,0:0:0:0:
389,275,25682,1,8,0:0:0:0:
389,275,25793,2,0,P|336:243|271:255,1,119.000002269745,2|8,0:0|0:0,0:0:0:0:
199,318,26237,6,0,B|144:326|144:326|86:295,1,119.000002269745,2|8,0:0|0:0,0:0:0:0:
55,252,26571,1,8,0:0:0:0:
55,252,26682,2,0,P|73:171|110:146,1,119.000002269745,2|8,0:0|0:0,0:0:0:0:
203,129,27126,5,12,0:0:0:0:
130,49,27348,1,8,0:0:0:0:
234,24,27571,1,8,0:0:0:0:
308,113,27793,1,8,0:0:0:0:
308,113,27904,1,8,0:0:0:0:
308,113,28015,6,0,L|443:128,1,119.000002269745,4|8,0:0|0:0,0:0:0:0:
478,136,28348,1,8,0:3:0:0:
478,136,28459,2,0,L|543:144,2,56,8|8|4,0:0|0:3|0:3,0:0:0:0:
361,201,28904,5,4,0:0:0:0:
0,132,41596,5,8,0:3:0:0:
28,33,41827,2,0,P|70:12|138:18,1,97.9999970092774,8|8,0:0|0:3,0:0:0:0:
194,82,42288,1,8,0:0:0:0:
278,23,42519,1,8,0:0:0:0:
337,110,42750,6,0,P|388:116|439:93,1,105.000004005432,8|8,0:0|0:3,0:0:0:0:
459,213,43171,2,0,P|408:207|357:230,1,105.000004005432,8|4,0:3|0:3,0:0:0:0:
300,319,43592,5,4,0:0:0:0:
196,298,43814,2,0,P|184:268|176:224,1,59.5000011348725,8|8,0:0|0:0,0:0:0:0:
205,195,44036,2,0,B|212:149|212:149|204:123|204:123|212:78,1,119.000002269745,4|8,0:0|0:0,0:0:0:0:
296,12,44480,5,2,0:0:0:0:
336,111,44703,2,0,P|374:117|400:116,1,59.5000011348725,8|8,0:0|0:0,0:0:0:0:
443,94,44925,2,0,B|415:133|415:133|430:226,1,119.000002269745,4|8,0:0|0:0,0:0:0:0:
457,305,45369,6,0,P|421:337|343:338,1,119.000002269745,2|8,0:0|0:0,0:0:0:0:
322,300,45703,1,8,0:0:0:0:
322,300,45814,2,0,P|272:264|209:268,1,119.000002269745,2|8,0:0|0:0,0:0:0:0:
125,321,46258,5,8,0:0:0:0:
116,214,46480,1,8,0:0:0:0:
107,106,46703,1,12,0:0:0:0:
107,106,47147,6,0,B|159:133|159:133|243:120,1,119.000002269745,2|8,0:0|0:0,0:0:0:0:
269,107,47480,1,8,0:0:0:0:
269,107,47591,1,2,0:0:0:0:
365,155,47814,2,0,L|361:230,1,59.5000011348725,8|0,0:0|0:0,0:0:0:0:
351,266,48036,6,0,P|264:241|233:250,1,119.000002269745,2|8,0:0|0:0,0:0:0:0:
195,278,48369,1,8,0:0:0:0:
195,278,48480,1,2,0:0:0:0:
282,340,48703,1,8,0:0:0:0:
183,381,48925,6,0,B|125:387|125:387|61:353,1,119.000002269745,2|8,0:0|0:0,0:0:0:0:
33,321,49258,1,8,0:0:0:0:
33,321,49369,1,2,0:0:0:0:
119,258,49591,1,8,0:0:0:0:
20,214,49814,5,4,0:0:0:0:
106,151,50036,2,0,L|167:146,1,59.5000011348725,8|8,0:0|0:0,0:0:0:0:
200,105,50258,2,0,P|186:57|169:35,2,59.5000011348725,8|8|8,0:0|0:0|0:0,0:0:0:0:
206,225,50703,5,4,0:0:0:0:
310,200,50925,1,2,0:0:0:0:
193,229,51591,5,4,0:0:0:0:
322,199,51814,1,2,0:0:0:0:
183,232,52480,6,0,P|137:220|64:216,2,97.9999970092774,4|0|2,0:0|0:0|0:0,0:0:0:0:
262,290,53147,1,0,0:0:0:0:
359,277,53369,1,2,0:0:0:0:
359,277,53480,2,0,L|363:166,1,97.9999970092774,8|8,0:0|0:0,0:0:0:0:
365,129,53814,1,8,0:3:0:0:
293,61,54036,1,0,0:0:0:0:
293,61,54147,1,0,0:0:0:0:
293,61,54258,6,0,B|243:87|243:87|201:91|134:76,1,146.999995513916,4|0,0:0|0:0,0:0:0:0:
105,66,54703,2,0,P|132:125|124:179,1,97.9999970092774,8|0,0:0|0:0,0:0:0:0:
65,230,55147,6,0,P|134:196|215:206,1,146.999995513916,2|0,0:0|0:0,0:0:0:0:
247,219,55591,1,8,0:0:0:0:
324,158,55814,1,0,0:0:0:0:
336,255,56036,6,0,B|378:285|378:285|428:294|478:270,1,146.999995513916,2|0,0:0|0:0,0:0:0:0:
504,237,56480,2,0,B|513:124,1,97.9999970092774,8|0,0:0|0:0,0:0:0:0:
474,48,56925,6,0,L|408:42,2,48.9999985046387,8|8|2,0:0|0:0|0:0,0:0:0:0:
424,132,57369,2,0,P|377:146|356:146,1,48.9999985046387,8|8,0:0|0:0,0:0:0:0:
328,140,57591,2,0,P|296:128|266:106,1,48.9999985046387,8|8,0:0|0:0,0:0:0:0:
251,79,57814,5,4,0:0:0:0:
173,153,58036,2,0,L|183:277,2,119.000002269745,8|2|8,0:0|0:0|0:0,0:0:0:0:
148,48,58703,5,2,0:0:0:0:
148,48,58814,2,0,P|94:37|68:40,1,59.5000011348725,2|8,0:0|0:0,0:0:0:0:
37,47,59036,2,0,P|10:80|23:177,1,119.000002269745,8|0,0:0|0:0,0:0:0:0:
40,196,59369,1,8,0:0:0:0:
16,300,59591,5,2,0:0:0:0:
100,366,59814,2,0,L|242:381,2,119.000002269745,8|2|8,0:0|0:0|0:0,0:0:0:0:
16,300,60480,5,2,0:0:0:0:
118,266,60703,1,8,0:0:0:0:
118,266,60814,2,0,B|176:264|176:264|228:224,1,119.000002269745,8|0,0:0|0:0,0:0:0:0:
254,182,61147,1,8,0:0:0:0:
316,268,61369,5,2,0:0:0:0:
406,210,61591,2,0,P|409:142|373:87,2,119.000002269745,8|2|8,0:0|0:0|0:3,0:0:0:0:
320,272,62258,5,2,0:0:0:0:
320,272,62369,2,0,L|326:354,1,59.5000011348725,2|8,0:0|0:0,0:0:0:0:
335,383,62591,2,0,B|284:352|284:352|220:358,1,119.000002269745,8|0,0:0|0:0,0:0:0:0:
171,363,62925,1,8,0:3:0:0:
83,301,63147,6,0,P|75:240|123:182,1,119.000002269745,2|8,0:0|0:0,0:0:0:0:
155,178,63480,2,0,B|213:199|213:199|282:189,1,119.000002269745,8|0,0:0|0:0,0:0:0:0:
322,181,63814,1,4,0:3:0:0:
414,127,64036,6,0,L|418:58,2,59.5000011348725,2|8|8,0:0|0:0|0:0,0:0:0:0:
432,177,64369,2,0,L|427:259,1,59.5000011348725,8|8,0:0|0:0,0:0:0:0:
423,289,64591,1,8,0:3:0:0:
337,344,64814,1,8,0:0:0:0:
337,344,64925,5,4,0:0:0:0:
244,290,65147,2,0,L|114:275,2,119.000002269745,8|2|8,0:0|0:0|0:0,0:0:0:0:
334,236,65814,6,0,B|331:171|331:171|275:117,1,119.000002269745,2|8,0:0|0:0,0:0:0:0:
241,149,66147,2,0,P|193:170|114:157,1,119.000002269745,8|0,0:0|0:0,0:0:0:0:
83,134,66480,1,10,0:0:0:0:
9,212,66703,6,0,L|23:347,1,119.000002269745,2|8,0:0|0:0,0:0:0:0:
31,382,67036,1,8,0:0:0:0:
31,382,67147,2,0,P|97:341|151:341,1,119.000002269745,2|8,0:0|0:0,0:0:0:0:
239,366,67591,5,2,0:0:0:0:
320,295,67814,1,8,0:0:0:0:
320,295,67925,2,0,B|328:235|328:235|297:169,1,119.000002269745,8|0,0:0|0:0,0:0:0:0:
257,154,68258,1,8,0:0:0:0:
309,60,68480,5,2,0:0:0:0:
208,21,68703,2,0,L|82:12,2,119.000002269745,8|2|8,0:0|0:0|0:0,0:0:0:0:
309,60,69369,6,0,B|368:57|368:57|433:23,1,119.000002269745,2|8,0:0|0:0,0:0:0:0:
474,19,69703,2,0,P|506:68|500:140,1,119.000002269745,8|0,0:0|0:0,0:0:0:0:
472,169,70036,1,8,0:0:0:0:
365,157,70258,5,8,0:0:0:0:
411,253,70480,2,0,L|417:315,1,59.5000011348725,8|8,0:0|0:0,0:0:0:0:
421,366,70703,2,0,P|456:375|488:375,2,59.5000011348725,8|8|4,0:0|0:3|0:3,0:0:0:0:
326,295,71147,5,4,0:0:0:0:
326,295,72036,6,0,B|273:323|273:323|191:313,1,119.000002269745,4|8,0:0|0:0,0:0:0:0:
165,295,72369,1,8,0:0:0:0:
165,295,72480,2,0,P|137:224|156:164,1,119.000002269745,2|8,0:0|0:0,0:0:0:0:
238,130,72925,5,2,0:0:0:0:
146,75,73147,1,8,0:0:0:0:
146,75,73258,1,8,0:0:0:0:
146,75,73369,2,0,P|81:97|44:143,1,119.000002269745,2|8,0:0|0:0,0:0:0:0:
55,240,73814,5,2,0:0:0:0:
144,184,74036,2,0,L|218:177,1,59.5000011348725,8|8,0:0|0:0,0:0:0:0:
256,173,74258,2,0,P|291:230|281:296,1,119.000002269745,2|8,0:0|0:0,0:0:0:0:
207,351,74703,6,0,L|142:345,2,59.5000011348725,4|2|8,0:0|0:0|0:0,0:0:0:0:
256,371,75036,1,8,0:0:0:0:
256,371,75147,2,0,B|316:377|316:377|379:337,1,119.000002269745,2|8,0:0|0:0,0:0:0:0:
429,259,75591,5,4,0:0:0:0:
357,178,75814,1,8,0:0:0:0:
357,178,75925,1,8,0:0:0:0:
357,178,76036,2,0,L|365:107,2,59.5000011348725,2|0|8,0:0|0:0|0:0,0:0:0:0:
284,256,76480,6,0,P|214:244|177:200,1,119.000002269745,2|8,0:0|0:0,0:0:0:0:
173,157,76814,1,8,0:0:0:0:
173,157,76925,2,0,B|121:126|121:126|45:132,1,119.000002269745,2|8,0:0|0:0,0:0:0:0:
1,218,77369,6,0,P|53:275|52:336,1,119.000002269745,2|8,0:0|0:0,0:0:0:0:
43,366,77703,1,8,0:0:0:0:
43,366,77814,2,0,B|95:336|95:336|170:342,1,119.000002269745,2|8,0:0|0:0,0:0:0:0:
256,369,78258,5,8,0:0:0:0:
314,279,78480,1,8,0:0:0:0:
211,245,78703,1,8,0:0:0:0:
259,149,78925,1,8,0:0:0:0:
259,149,79036,1,0,0:0:0:0:
259,149,79147,6,0,L|388:138,1,119.000002269745,4|8,0:0|0:0,0:0:0:0:
430,147,79480,1,8,0:0:0:0:
430,147,79591,2,0,P|468:202|459:262,1,119.000002269745,2|8,0:0|0:0,0:0:0:0:
384,323,80036,6,0,B|335:292|335:292|250:299,1,119.000002269745,2|8,0:0|0:0,0:0:0:0:
224,317,80369,1,8,0:0:0:0:
224,317,80480,1,2,0:0:0:0:
128,268,80703,1,8,0:0:0:0:
215,206,80925,6,0,P|223:148|188:74,1,119.000002269745,2|8,0:0|0:0,0:0:0:0:
156,65,81258,1,8,0:0:0:0:
156,65,81369,2,0,B|203:27|203:27|280:21,1,119.000002269745,2|8,0:0|0:0,0:0:0:0:
362,57,81814,5,4,0:0:0:0:
362,57,81925,2,0,L|369:127,1,59.5000011348725,2|8,0:0|0:0,0:0:0:0:
377,168,82147,1,10,0:0:0:0:
282,217,82369,1,2,0:0:0:0:
358,299,82591,1,2,0:0:0:0:
358,299,82703,6,0,P|301:327|235:319,1,119.000002269745,4|8,0:0|0:0,0:0:0:0:
207,287,83036,2,0,P|143:280|85:306,1,119.000002269745,8|2,0:0|0:0,0:0:0:0:
54,337,83369,1,8,0:0:0:0:
8,240,83591,6,0,L|-1:115,1,119.000002269745,2|8,0:0|0:0,0:0:0:0:
16,70,83925,1,8,0:0:0:0:
16,70,84036,2,0,P|67:47|137:55,1,119.000002269745,2|8,0:0|0:0,0:0:0:0:
204,126,84480,5,4,0:0:0:0:
299,76,84703,2,0,P|331:78|376:90,1,59.5000011348725,8|8,0:0|0:0,0:0:0:0:
403,111,84925,2,0,L|473:102,2,59.5000011348725,8|8|2,0:0|0:0|0:0,0:0:0:0:
328,181,85369,5,8,0:0:0:0:
328,181,85484,2,0,L|321:306,1,119.000002269745,0|4,0:0|0:3,0:0:0:0:
316,353,85830,2,0,P|364:365|381:364,2,59.5000011348725,8|8|8,0:0|0:0|0:3,0:0:0:0:
235,255,86292,5,4,0:0:0:0:
235,255,86736,2,0,P|193:230|135:226,1,97.9999970092774,8|0,0:0|0:0,0:0:0:0:
55,234,87180,6,0,B|13:187|13:187|27:83,1,146.999995513916,2|0,0:0|0:0,0:0:0:0:
38,56,87625,2,0,P|83:34|136:36,1,97.9999970092774,8|0,0:0|0:0,0:0:0:0:
202,99,88069,5,2,0:0:0:0:
280,39,88292,1,8,0:0:0:0:
280,39,88403,1,8,0:0:0:0:
280,39,88514,2,0,L|386:49,1,97.9999970092774,8|0,0:0|0:0,0:0:0:0:
474,58,88958,5,2,0:0:0:0:
420,139,89180,2,0,L|413:195,1,48.9999985046387,8|8,0:0|0:0,0:0:0:0:
411,236,89403,2,0,P|460:250|474:250,2,48.9999985046387,8|8|2,0:0|0:0|0:0,0:0:0:0:
327,174,89847,5,2,0:0:0:0:
248,233,90069,1,8,0:0:0:0:
248,233,90180,1,8,0:0:0:0:
248,233,90292,2,0,L|254:305,2,48.9999985046387,8|0|8,0:0|0:0|0:3,0:0:0:0:
256,135,90736,6,0,L|258:103,5,30.6249990653992,8|8|8|8|8|8,0:0|0:0|0:0|0:0|0:0|0:0,0:0:0:0:
258,61,91180,2,0,P|212:38|159:40,1,97.9999970092774,8|8,0:0|0:3,0:0:0:0:
86,95,91625,6,0,L|78:195,1,97.9999970092774,8|8,0:0|0:0,0:0:0:0:
74,290,92069,2,0,P|48:297|19:297,2,48.9999985046387,2|8|8,0:0|0:0|0:0,0:0:0:0:
162,246,92514,6,0,P|218:250|267:280,1,97.9999970092774,8|8,0:0|0:0,0:0:0:0:
329,331,92958,2,0,P|391:325|431:303,1,97.9999970092774,8|4,0:3|0:3,0:0:0:0:
456,221,93403,5,4,0:0:0:0:
172,251,101083,5,2,0:3:0:0:
366,274,101535,1,2,0:3:0:0:
325,184,101762,2,0,L|320:123,3,32.6666656697591,8|8|8|10,0:0|0:0|0:0|0:0,0:0:0:0:
269,263,102210,5,2,0:3:0:0:
172,251,102432,1,2,0:3:0:0:
221,61,102876,5,2,0:3:0:0:
31,111,103321,1,2,0:3:0:0:
125,136,103543,2,0,L|174:147,3,32.6666656697591,8|8|8|10,0:0|0:0|0:0|0:0,0:0:0:0:
101,35,103988,5,2,0:3:0:0:
52,224,104432,1,2,0:3:0:0:
122,292,104654,5,2,0:3:0:0:
306,225,105099,1,2,0:3:0:0:
389,275,105321,2,0,L|395:331,3,32.6666656697591,8|8|8|10,0:0|0:0|0:0|0:0,0:0:0:0:
397,180,105765,5,2,0:3:0:0:
203,147,106210,1,2,0:3:0:0:
293,105,106432,5,6,0:0:0:0:
293,105,107321,1,6,0:0:0:0:
256,192,111765,12,8,114876,0:0:0:0:
119,346,115321,5,4,0:0:0:0:
217,303,115543,2,0,P|228:267|225:224,1,59.5000011348725,8|8,0:0|0:0,0:0:0:0:
194,204,115765,2,0,B|149:201|149:201|126:214|126:214|63:208,1,119.000002269745,4|8,0:0|0:0,0:0:0:0:
19,119,116210,5,2,0:0:0:0:
96,45,116432,2,0,L|165:38,1,59.5000011348725,8|8,0:0|0:0,0:0:0:0:
201,65,116654,2,0,B|248:70|248:70|274:62|274:62|321:70,1,119.000002269745,4|8,0:0|0:0,0:0:0:0:
415,115,117099,5,2,0:0:0:0:
379,215,117321,1,8,0:0:0:0:
379,215,117432,1,8,0:0:0:0:
379,215,117543,2,0,P|331:189|253:193,1,119.000002269745,2|8,0:0|0:0,0:0:0:0:
175,241,117987,5,8,0:0:0:0:
71,213,118210,1,8,0:0:0:0:
52,318,118432,1,12,0:0:0:0:
156,342,118654,2,8,L|160:395,2,39.6666674232483,8|8|8,0:0|0:0|0:0,0:0:0:0:
177,321,118876,6,0,B|258:294|244:360|332:318,1,146.999995513916,4|0,0:0|0:0,0:0:0:0:
353,288,119321,1,8,0:0:0:0:
311,196,119543,2,0,L|303:131,1,48.9999985046387,2|8,0:0|0:0,0:0:0:0:
300,98,119765,5,2,0:0:0:0:
300,98,119876,2,0,P|218:76|201:79,1,97.9999970092774,8|0,0:0|0:0,0:0:0:0:
161,96,120210,1,8,0:0:0:0:
80,40,120432,1,0,0:0:0:0:
24,120,120654,6,0,B|-3:198|55:187|23:275,1,146.999995513916,2|0,0:0|0:0,0:0:0:0:
16,311,121099,2,0,P|88:283|125:289,1,97.9999970092774,8|0,0:0|0:0,0:0:0:0:
196,323,121543,6,0,L|260:329,1,48.9999985046387,2|2,0:0|0:0,0:0:0:0:
290,309,121765,2,0,L|350:303,1,48.9999985046387,8|8,0:0|0:0,0:0:0:0:
387,311,121987,1,8,0:3:0:0:
270,153,122432,5,4,0:0:0:0:
280,55,122654,1,2,0:0:0:0:
268,167,123321,5,4,0:0:0:0:
283,42,123543,1,2,0:0:0:0:
265,179,124210,6,0,P|320:200|371:193,2,97.9999970092774,4|0|2,0:0|0:0|0:0,0:0:0:0:
194,111,124876,2,0,P|162:112|124:125,1,48.9999985046387,0|0,0:0|0:0,0:0:0:0:
105,144,125099,1,2,0:0:0:0:
105,144,125210,2,0,L|95:249,1,97.9999970092774,0|8,0:0|0:0,0:0:0:0:
86,289,125543,2,0,P|133:288|188:318,1,97.9999970092774,8|0,0:3|0:0,0:0:0:0:
254,370,125987,6,0,B|304:381|304:381|358:370|404:342,1,146.999995513916,4|0,0:0|0:0,0:0:0:0:
424,309,126432,2,0,L|414:200,1,97.9999970092774,8|0,0:0|0:0,0:0:0:0:
444,118,126876,5,2,0:0:0:0:
444,118,126987,2,0,B|394:128|394:128|336:104,1,97.9999970092774,0|0,0:0|0:0,0:0:0:0:
304,92,127321,2,0,P|245:115|220:161,1,97.9999970092774,8|0,0:0|0:0,0:0:0:0:
241,238,127765,6,0,L|301:244,2,48.9999985046387,2|0|0,0:0|0:0|0:0,0:0:0:0:
150,200,128210,2,0,P|108:211|64:246,1,97.9999970092774,8|0,0:0|0:0,0:0:0:0:
44,339,128654,6,0,L|-20:348,2,48.9999985046387,8|8|2,0:0|0:0|0:0,0:0:0:0:
140,318,129099,2,0,P|183:326|206:336,1,48.9999985046387,8|8,0:0|0:0,0:0:0:0:
226,357,129321,2,0,P|270:354|294:346,1,48.9999985046387,8|8,0:0|0:0,0:0:0:0:
320,325,129543,5,4,0:0:0:0:
278,226,129765,2,0,L|159:217,2,119.000002269745,8|2|8,0:0|0:0|0:0,0:0:0:0:
381,196,130432,5,2,0:0:0:0:
381,196,130543,2,0,P|390:162|390:129,1,59.5000011348725,2|8,0:0|0:0,0:0:0:0:
371,87,130765,2,0,B|316:62|316:62|249:76,1,119.000002269745,8|0,0:0|0:0,0:0:0:0:
215,105,131099,1,8,0:0:0:0:
134,34,131321,5,2,0:0:0:0:
41,87,131543,2,0,L|29:226,2,119.000002269745,8|2|8,0:0|0:0|0:0,0:0:0:0:
134,34,132210,6,0,B|169:79|169:79|173:144,1,119.000002269745,2|8,0:0|0:0,0:0:0:0:
154,191,132543,2,0,P|218:158|285:166,1,119.000002269745,8|0,0:0|0:0,0:0:0:0:
312,180,132876,1,8,0:0:0:0:
238,258,133099,5,2,0:0:0:0:
321,325,133321,2,0,L|454:333,2,119.000002269745,8|2|8,0:0|0:0|0:0,0:0:0:0:
225,373,133987,5,2,0:0:0:0:
225,373,134099,2,0,L|153:381,1,59.5000011348725,2|8,0:0|0:0,0:0:0:0:
113,366,134321,2,0,P|80:300|96:241,1,119.000002269745,10|0,0:0|0:0,0:0:0:0:
121,217,134654,1,8,0:0:0:0:
222,251,134876,6,0,B|282:247|282:247|346:204,1,119.000002269745,2|8,0:0|0:0,0:0:0:0:
360,168,135210,2,0,P|348:111|295:67,1,119.000002269745,8|0,0:0|0:0,0:0:0:0:
251,63,135543,1,8,0:3:0:0:
149,97,135765,6,0,L|145:28,2,59.5000011348725,2|8|8,0:0|0:0|0:0,0:0:0:0:
130,147,136098,2,0,L|132:225,1,59.5000011348725,8|8,0:0|0:0,0:0:0:0:
133,259,136320,1,8,0:3:0:0:
208,335,136543,1,8,0:0:0:0:
208,335,136654,5,4,0:0:0:0:
302,285,136876,2,0,P|370:292|415:327,2,119.000002269745,8|2|8,0:0|0:0|0:0,0:0:0:0:
208,335,137543,6,0,B|150:360|150:360|77:349,1,119.000002269745,2|8,0:0|0:0,0:0:0:0:
46,329,137876,2,0,P|16:271|37:201,1,119.000002269745,8|0,0:0|0:0,0:0:0:0:
52,173,138210,1,8,0:0:0:0:
150,214,138432,6,0,L|276:223,1,119.000002269745,2|8,0:0|0:0,0:0:0:0:
319,207,138765,1,8,0:0:0:0:
319,207,138876,2,0,B|350:155|350:155|343:77,1,119.000002269745,2|8,0:0|0:0,0:0:0:0:
279,11,139321,6,0,P|214:21|169:59,1,119.000002269745,2|8,0:0|0:0,0:0:0:0:
164,105,139654,2,0,B|112:126|112:126|42:116,1,119.000002269745,8|0,0:0|0:0,0:0:0:0:
2,92,139987,1,8,0:0:0:0:
21,197,140210,5,2,0:0:0:0:
125,220,140432,2,0,L|258:210,2,119.000002269745,8|2|8,0:0|0:0|0:0,0:0:0:0:
53,299,141099,6,0,P|101:346|163:351,1,119.000002269745,2|8,0:0|0:0,0:0:0:0:
197,328,141432,2,0,B|255:316|255:316|329:352,1,119.000002269745,8|0,0:0|0:0,0:0:0:0:
354,369,141765,1,8,0:0:0:0:
453,330,141987,5,4,0:0:0:0:
369,262,142210,2,0,L|362:189,1,59.5000011348725,8|8,0:0|0:0,0:0:0:0:
366,149,142432,2,0,P|417:135|439:135,2,59.5000011348725,8|0|4,0:0|0:0|0:3,0:0:0:0:
281,233,142876,5,2,0:3:0:0:
281,233,143765,6,0,P|234:237|175:215,1,97.9999970092774,4|0,0:0|0:0,0:0:0:0:
153,184,144099,2,0,P|119:179|48:202,1,97.9999970092774,8|0,0:3|0:0,0:0:0:0:
26,232,144432,1,8,0:3:0:0:
118,286,144654,5,2,0:0:0:0:
36,340,144876,1,0,0:0:0:0:
126,379,145099,1,0,0:0:0:0:
214,334,145321,1,8,0:0:0:0:
214,334,145432,1,8,0:0:0:0:
214,334,145543,6,0,B|259:313|259:313|319:320,1,97.9999970092774,4|0,0:0|0:0,0:0:0:0:
350,340,145876,2,0,P|418:332|458:304,1,97.9999970092774,8|0,0:3|0:0,0:0:0:0:
472,280,146210,1,0,0:3:0:0:
371,235,146432,5,2,0:0:0:0:
415,147,146654,1,0,0:0:0:0:
322,114,146876,1,0,0:0:0:0:
278,199,147099,1,8,0:0:0:0:
278,199,147210,1,8,0:0:0:0:
278,199,147321,6,0,L|169:210,1,97.9999970092774,4|0,0:0|0:0,0:0:0:0:
132,197,147654,2,0,B|110:152|110:152|118:91,1,97.9999970092774,8|0,0:3|0:0,0:0:0:0:
127,56,147987,1,8,0:3:0:0:
226,9,148210,5,2,0:0:0:0:
285,86,148432,1,0,0:0:0:0:
378,56,148654,1,0,0:0:0:0:
453,133,148876,1,8,0:0:0:0:
453,133,148987,1,8,0:0:0:0:
453,133,149099,6,0,L|459:236,1,97.9999970092774,8|8,0:0|0:0,0:0:0:0:
465,279,149432,1,8,0:0:0:0:
465,279,149543,2,0,P|501:287|525:300,2,48.9999985046387,8|8|8,0:0|0:0|0:3,0:0:0:0:
367,286,149987,5,2,0:0:0:0:
