osu file format v14

[General]
AudioFilename: audio.mp3
AudioLeadIn: 0
PreviewTime: 13793
Countdown: 0
SampleSet: Soft
StackLeniency: 0.7
Mode: 1
LetterboxInBreaks: 0
WidescreenStoryboard: 1

[Editor]
Bookmarks: 7571,14682,28904,43592,57814,72036,86292,93403,101083,108210,115321,129543,143765,149987
DistanceSpacing: 1
BeatDivisor: 2
GridSize: 32
TimelineZoom: 3.35

[Metadata]
Title:Everything Went Numb
TitleUnicode:Everything Went Numb
Artist:Streetlight Manifesto
ArtistUnicode:Streetlight Manifesto
Creator:Ulqui
Version:Futsuu
Source:
Tags:
BeatmapID:1743001
BeatmapSetID:737715

[Difficulty]
HPDrainRate:5.5
CircleSize:5
OverallDifficulty:4
ApproachRate:6
SliderMultiplier:1.4
SliderTickRate:1

[Events]
//Background and Video events
0,0,"Konachan.com - 252104 sample.jpg",0,0
//Break Periods
2,93603,100033
//Storyboard Layer 0 (Background)
//Storyboard Layer 1 (Fail)
//Storyboard Layer 2 (Pass)
//Storyboard Layer 3 (Foreground)
//Storyboard Sound Samples

[TimingPoints]
460,222.222222222222,4,2,0,100,1,0
28904,230.769230769231,4,2,0,100,1,0
29019,-166.666666666667,4,2,0,100,0,0
41596,-142.857142857143,4,2,0,100,0,0
42057,-125,4,2,0,100,0,0
42519,-111.111111111111,4,2,0,100,0,0
42750,210.526315789474,4,2,0,100,1,0
42750,-121.951219512195,4,2,0,100,0,0
43592,222.222222222222,4,2,0,100,1,0
46258,-100,4,2,0,100,0,0
47147,-100,4,2,0,100,0,0
50703,-100,4,2,0,100,0,0
51147,-100,4,2,0,100,0,0
51591,-100,4,2,0,100,0,0
52036,-100,4,2,0,100,0,0
52480,-100,4,2,0,100,0,0
52925,-100,4,2,0,100,0,0
53369,-100,4,2,0,100,0,0
53591,-100,4,2,0,100,0,0
53703,-105.263157894737,4,2,0,100,0,0
53814,-111.111111111111,4,2,0,100,0,0
54147,-117.647058823529,4,2,0,100,0,0
54258,-125,4,2,0,100,0,0
56925,-119.047619047619,4,2,0,100,0,0
57036,-116.279069767442,4,2,0,100,0,0
57147,-113.636363636364,4,2,0,100,0,0
57258,-111.111111111111,4,2,0,100,0,0
57369,-108.695652173913,4,2,0,100,0,0
57480,-106.382978723404,4,2,0,100,0,0
57591,-104.166666666667,4,2,0,100,0,0
57703,-102.040816326531,4,2,0,100,0,0
57814,-100,4,2,0,100,0,0
85369,230.769230769231,4,2,0,100,1,0
85369,-96.1538461538461,4,2,0,100,0,0
86292,222.222222222222,4,2,0,100,1,0
92625,-105.263157894737,4,2,0,100,0,0
92736,-111.111111111111,4,2,0,100,0,0
92847,-117.647058823529,4,2,0,100,0,0
92958,-125,4,2,0,100,0,0
93069,-133.333333333333,4,2,0,100,0,0
93180,-142.857142857143,4,2,0,100,0,0
93292,-153.846153846154,4,2,0,100,0,0
93403,240,4,2,0,100,1,0
93403,-153.846153846154,4,2,0,100,0,0
101083,226.415094339623,4,2,0,100,1,0
101083,-98.0392156862745,4,2,0,100,0,0
101988,222.222222222222,4,2,0,100,1,0
108210,-227.272727272727,4,2,0,100,0,0
109099,-227.272727272727,4,2,0,5,0,0
109210,-222.222222222222,4,2,0,7,0,0
109321,-217.391304347826,4,2,0,9,0,0
109432,-212.765957446809,4,2,0,11,0,0
109543,-208.333333333333,4,2,0,13,0,0
109654,-204.081632653061,4,2,0,15,0,0
109765,-200,4,2,0,17,0,0
109876,-196.078431372549,4,2,0,19,0,0
109987,-192.307692307692,4,2,0,21,0,0
110099,-188.679245283019,4,2,0,23,0,0
110210,-185.185185185185,4,2,0,25,0,0
110321,-181.818181818182,4,2,0,27,0,0
110432,-178.571428571429,4,2,0,29,0,0
110543,-175.438596491228,4,2,0,31,0,0
110654,-172.413793103448,4,2,0,33,0,0
110754,-169.491525423729,4,2,0,35,0,0
110876,-166.666666666667,4,2,0,37,0,0
110987,-163.934426229508,4,2,0,39,0,0
111099,-161.290322580645,4,2,0,41,0,0
111210,-158.730158730159,4,2,0,43,0,0
111321,-156.25,4,2,0,45,0,0
111432,-153.846153846154,4,2,0,47,0,0
111543,-151.515151515152,4,2,0,49,0,0
111654,-149.253731343284,4,2,0,51,0,0
111765,-147.058823529412,4,2,0,53,0,0
111876,-144.927536231884,4,2,0,55,0,0
111987,-142.857142857143,4,2,0,57,0,0
112099,-140.845070422535,4,2,0,59,0,0
112210,-138.888888888889,4,2,0,61,0,0
112321,-136.986301369863,4,2,0,63,0,0
112432,-135.135135135135,4,2,0,65,0,0
112543,-133.333333333333,4,2,0,67,0,0
112654,-131.578947368421,4,2,0,69,0,0
112765,-129.87012987013,4,2,0,71,0,0
112876,-128.205128205128,4,2,0,72,0,0
112987,-126.582278481013,4,2,0,73,0,0
113099,-125,4,2,0,75,0,0
113210,-123.456790123457,4,2,0,77,0,0
113321,-121.951219512195,4,2,0,79,0,0
113432,-120.481927710843,4,2,0,81,0,0
113543,-119.047619047619,4,2,0,83,0,0
113654,-117.647058823529,4,2,0,85,0,0
113765,-116.279069767442,4,2,0,86,0,0
113876,-114.942528735632,4,2,0,87,0,0
113987,-113.636363636364,4,2,0,88,0,0
114099,-112.359550561798,4,2,0,89,0,0
114210,-111.111111111111,4,2,0,90,0,0
114321,-109.89010989011,4,2,0,91,0,0
114432,-108.695652173913,4,2,0,92,0,0
114543,-107.52688172043,4,2,0,93,0,0
114654,-106.382978723404,4,2,0,94,0,0
114765,-105.263157894737,4,2,0,95,0,0
114876,-104.166666666667,4,2,0,96,0,0
114987,-103.092783505155,4,2,0,97,0,0
115099,-102.040816326531,4,2,0,98,0,0
115210,-101.010101010101,4,2,0,99,0,0
115321,-100,4,2,0,100,0,0
117987,-100,4,2,0,100,0,0
118654,-100,4,2,0,100,0,0
118728,-100,4,2,0,100,0,0
118802,-100,4,2,0,100,0,0
118876,-100,4,2,0,100,0,0
122432,-100,4,2,0,100,0,0
122876,-100,4,2,0,100,0,0
123321,-100,4,2,0,100,0,0
123765,-100,4,2,0,100,0,0
124210,-100,4,2,0,100,0,0
124654,-100,4,2,0,100,0,0
125099,-100,4,2,0,100,0,0
125307,-100,4,2,0,100,0,0
125419,-105.263157894737,4,2,0,100,0,0
125530,-111.111111111111,4,2,0,100,0,0
125863,-117.647058823529,4,2,0,100,0,0
125974,-125,4,2,0,100,0,0
128640,-119.047619047619,4,2,0,100,0,0
128751,-116.279069767442,4,2,0,100,0,0
128862,-113.636363636364,4,2,0,100,0,0
128973,-111.111111111111,4,2,0,100,0,0
129084,-108.695652173913,4,2,0,100,0,0
129195,-106.382978723404,4,2,0,100,0,0
129306,-104.166666666667,4,2,0,100,0,0
129418,-102.040816326531,4,2,0,100,0,0
129529,-100,4,2,0,100,0,0

[HitObjects]
124,190,7571,5,4,0:0:0:0:
144,157,8459,1,4,0:0:0:0:
144,157,8682,1,4,0:0:0:0:
144,157,8904,1,4,0:0:0:0:
144,157,9348,1,4,0:0:0:0:
144,157,10237,1,4,0:0:0:0:
144,157,10459,1,4,0:0:0:0:
144,157,10682,1,4,0:0:0:0:
181,105,11126,1,4,0:0:0:0:
144,157,12015,1,4,0:0:0:0:
144,157,12237,1,4,0:0:0:0:
144,157,12459,1,4,0:0:0:0:
144,157,12904,1,4,0:0:0:0:
166,102,13126,1,8,0:0:0:0:
166,102,13348,1,0,0:0:0:0:
166,102,13459,1,0,0:0:0:0:
166,102,13571,1,0,0:0:0:0:
166,102,13793,1,8,0:0:0:0:
224,160,14682,5,0,0:0:0:0:
192,96,14904,1,8,0:0:0:0:
160,96,15348,1,8,0:0:0:0:
160,32,15571,1,0,0:0:0:0:
192,96,15793,1,8,0:0:0:0:
160,96,16237,1,8,0:0:0:0:
160,64,16459,1,0,0:0:0:0:
160,64,16682,1,8,0:0:0:0:
236,72,16793,1,0,0:0:0:0:
160,96,17015,1,0,0:0:0:0:
160,96,17126,1,8,0:0:0:0:
160,96,17348,1,0,0:0:0:0:
160,96,17571,1,8,0:0:0:0:
210,66,17793,1,0,0:0:0:0:
192,32,18015,1,8,0:0:0:0:
192,96,18237,1,0,0:0:0:0:
192,160,18460,1,8,0:0:0:0:
160,96,18904,1,8,0:0:0:0:
160,96,19126,1,0,0:0:0:0:
160,96,19348,1,8,0:0:0:0:
160,96,19793,1,8,0:0:0:0:
192,64,20015,1,0,0:0:0:0:
192,64,20237,1,8,0:0:0:0:
160,64,20348,1,8,0:0:0:0:
160,64,20682,1,8,0:0:0:0:
160,64,20904,1,8,0:0:0:0:
128,64,21015,1,8,0:0:0:0:
160,64,21126,1,8,0:0:0:0:
160,64,21348,1,8,0:0:0:0:
128,64,21459,1,8,0:0:0:0:
160,64,21571,1,8,0:0:0:0:
128,64,21793,1,0,0:0:0:0:
160,96,22015,1,8,0:0:0:0:
192,192,22459,1,8,0:0:0:0:
160,96,22682,1,0,0:0:0:0:
256,64,22904,1,8,0:0:0:0:
192,32,23348,1,8,0:0:0:0:
192,32,23571,1,0,0:0:0:0:
192,64,23793,1,8,0:0:0:0:
192,96,24237,1,8,0:0:0:0:
192,64,24459,1,8,0:0:0:0:
160,64,24682,1,8,0:0:0:0:
192,32,24793,1,8,0:0:0:0:
160,32,24904,1,0,0:0:0:0:
160,32,25126,1,8,0:0:0:0:
192,32,25348,1,0,0:0:0:0:
192,32,25571,1,8,0:0:0:0:
160,64,26015,1,8,0:0:0:0:
192,32,26237,1,0,0:0:0:0:
192,64,26459,1,8,0:0:0:0:
224,96,26904,1,8,0:0:0:0:
160,32,27126,1,8,0:0:0:0:
160,64,27348,1,8,0:0:0:0:
160,32,27459,1,8,0:0:0:0:
160,64,27571,1,8,0:0:0:0:
160,64,27793,1,8,0:0:0:0:
160,96,27904,1,8,0:0:0:0:
160,64,28015,1,8,0:0:0:0:
160,64,28237,1,8,0:0:0:0:
128,32,28459,1,0,0:0:0:0:
160,32,28682,1,8,0:0:0:0:
160,32,28904,1,4,0:0:0:0:
224,192,30519,1,0,0:0:0:0:
224,192,30750,1,0,0:0:0:0:
224,192,32596,1,0,0:0:0:0:
224,192,34211,1,0,0:0:0:0:
224,192,34442,1,0,0:0:0:0:
224,192,36288,1,0,0:0:0:0:
224,192,37904,1,0,0:0:0:0:
224,192,38134,1,0,0:0:0:0:
224,192,39980,1,0,0:0:0:0:
192,160,41596,1,0,0:0:0:0:
192,160,41827,1,8,0:0:0:0:
192,64,42057,1,0,0:0:0:0:
192,64,42288,1,8,0:0:0:0:
160,96,42519,1,8,0:0:0:0:
160,96,42750,1,0,0:0:0:0:
160,64,43171,1,0,0:0:0:0:
192,64,43381,1,0,0:0:0:0:
192,64,43592,1,4,0:0:0:0:
192,64,43814,1,8,0:0:0:0:
160,32,44036,1,0,0:0:0:0:
192,96,44480,1,0,0:0:0:0:
160,64,44703,1,8,0:0:0:0:
160,64,44925,1,0,0:0:0:0:
192,64,45369,1,0,0:0:0:0:
192,64,45592,1,8,0:0:0:0:
192,64,45814,1,0,0:0:0:0:
224,32,46036,1,8,0:0:0:0:
224,32,46258,1,12,0:0:0:0:
160,64,46480,5,12,0:0:0:0:
160,64,46703,1,12,0:0:0:0:
224,160,47147,1,0,0:0:0:0:
192,160,47369,1,8,0:0:0:0:
160,32,47814,1,8,0:0:0:0:
192,64,48036,1,0,0:0:0:0:
192,64,48258,1,8,0:0:0:0:
160,32,48703,1,8,0:0:0:0:
192,32,48925,1,0,0:0:0:0:
192,32,49147,1,8,0:0:0:0:
192,32,49258,1,0,0:0:0:0:
192,64,49480,1,0,0:0:0:0:
192,64,49591,1,8,0:0:0:0:
192,32,49814,1,8,0:0:0:0:
192,32,50036,1,8,0:0:0:0:
192,32,50258,1,8,0:0:0:0:
224,32,50369,1,8,0:0:0:0:
160,32,50591,1,8,0:0:0:0:
160,32,50703,1,4,0:0:0:0:
192,32,50925,1,4,0:0:0:0:
192,64,51591,1,4,0:0:0:0:
192,64,51814,1,4,0:0:0:0:
192,64,52480,1,4,0:0:0:0:
192,64,52703,1,4,0:0:0:0:
160,64,53369,1,4,0:0:0:0:
160,64,53814,1,8,0:0:0:0:
160,64,54258,1,4,0:0:0:0:
192,128,54703,1,8,0:0:0:0:
192,96,55147,1,0,0:0:0:0:
192,96,55591,1,8,0:0:0:0:
192,96,55814,1,0,0:0:0:0:
192,96,56036,1,4,0:0:0:0:
192,32,56480,1,8,0:0:0:0:
160,96,56925,1,0,0:0:0:0:
192,32,57147,1,0,0:0:0:0:
192,32,57369,1,8,0:0:0:0:
192,64,57480,1,8,0:0:0:0:
192,64,57591,1,8,0:0:0:0:
192,64,57814,1,4,0:0:0:0:
256,128,58036,1,8,0:0:0:0:
192,96,58480,1,8,0:0:0:0:
192,32,58703,1,0,0:0:0:0:
192,64,58925,1,8,0:0:0:0:
188,103,59258,1,0,0:0:0:0:
192,64,59369,1,8,0:0:0:0:
224,64,59591,1,0,0:0:0:0:
224,64,59814,1,8,0:0:0:0:
192,64,60258,1,8,0:0:0:0:
192,64,60480,1,0,0:0:0:0:
192,64,60703,1,8,0:0:0:0:
225,26,61036,1,0,0:0:0:0:
192,32,61147,1,8,0:0:0:0:
192,96,61369,1,0,0:0:0:0:
192,96,61591,1,8,0:0:0:0:
192,64,62036,1,0,0:0:0:0:
192,32,62258,1,0,0:0:0:0:
160,64,62480,1,8,0:0:0:0:
224,160,62925,1,0,0:0:0:0:
224,160,63147,1,0,0:0:0:0:
192,64,63591,1,0,0:0:0:0:
65,98,63814,1,8,0:0:0:0:
224,96,64036,1,0,0:0:0:0:
160,64,64258,1,8,0:0:0:0:
206,35,64480,1,8,0:0:0:0:
192,64,64591,1,0,0:0:0:0:
192,64,64814,1,8,0:0:0:0:
192,64,64925,1,4,0:0:0:0:
224,128,65147,1,8,0:0:0:0:
160,96,65591,1,8,0:0:0:0:
192,64,65814,1,0,0:0:0:0:
192,64,66036,1,8,0:0:0:0:
160,64,66369,1,0,0:0:0:0:
160,64,66480,1,12,0:0:0:0:
160,32,66703,1,12,0:0:0:0:
192,32,66925,1,8,0:0:0:0:
192,64,67369,1,8,0:0:0:0:
192,64,67591,1,0,0:0:0:0:
192,64,67814,1,8,0:0:0:0:
160,64,68147,1,0,0:0:0:0:
160,64,68258,1,8,0:0:0:0:
160,32,68480,1,0,0:0:0:0:
160,32,68703,1,8,0:0:0:0:
160,32,69147,1,8,0:0:0:0:
192,64,69369,1,0,0:0:0:0:
192,64,69591,1,8,0:0:0:0:
192,32,70036,1,8,0:0:0:0:
224,64,70258,1,8,0:0:0:0:
224,64,70480,1,8,0:0:0:0:
192,64,70591,1,8,0:0:0:0:
192,64,70703,1,0,0:0:0:0:
192,32,70925,1,0,0:0:0:0:
192,64,71147,1,4,0:0:0:0:
160,160,72036,1,0,0:0:0:0:
192,192,72258,1,8,0:0:0:0:
160,128,72703,1,8,0:0:0:0:
160,96,72925,1,0,0:0:0:0:
160,96,73147,1,8,0:0:0:0:
160,96,73369,1,0,0:0:0:0:
192,64,73591,1,8,0:0:0:0:
160,64,73814,1,0,0:0:0:0:
160,64,74036,1,8,0:0:0:0:
160,64,74480,1,8,0:0:0:0:
192,128,74703,1,0,0:0:0:0:
160,128,74925,1,8,0:0:0:0:
160,128,75036,1,0,0:0:0:0:
192,96,75258,1,0,0:0:0:0:
192,96,75369,1,8,0:0:0:0:
192,96,75591,1,0,0:0:0:0:
160,128,75814,1,8,0:0:0:0:
160,32,76258,1,8,0:0:0:0:
224,64,76480,1,0,0:0:0:0:
224,64,76703,1,8,0:0:0:0:
192,96,76925,1,0,0:0:0:0:
224,128,77036,1,0,0:0:0:0:
224,128,77147,1,8,0:0:0:0:
192,96,77369,1,0,0:0:0:0:
160,96,77591,1,8,0:0:0:0:
160,64,78036,1,8,0:0:0:0:
192,64,78258,1,8,0:0:0:0:
192,96,78369,1,8,0:0:0:0:
192,96,78480,1,8,0:0:0:0:
192,128,78703,1,8,0:0:0:0:
192,96,79147,1,0,0:0:0:0:
192,96,79369,1,8,0:0:0:0:
192,160,79814,1,8,0:0:0:0:
160,64,80036,1,0,0:0:0:0:
160,64,80258,1,8,0:0:0:0:
192,128,80480,1,0,0:0:0:0:
160,32,80703,1,8,0:0:0:0:
192,32,80925,1,0,0:0:0:0:
192,64,81147,1,8,0:0:0:0:
192,32,81591,1,8,0:0:0:0:
192,96,81814,1,0,0:0:0:0:
160,32,82036,1,8,0:0:0:0:
192,32,82480,1,8,0:0:0:0:
192,32,82703,1,0,0:0:0:0:
224,96,82925,1,8,0:0:0:0:
224,160,83147,1,0,0:0:0:0:
224,160,83369,1,8,0:0:0:0:
192,32,83591,1,0,0:0:0:0:
192,64,83814,1,8,0:0:0:0:
192,64,84258,1,8,0:0:0:0:
192,64,84480,1,0,0:0:0:0:
192,64,84703,1,8,0:0:0:0:
192,64,84814,1,8,0:0:0:0:
192,64,84925,1,8,0:0:0:0:
160,64,85147,1,0,0:0:0:0:
192,96,85369,1,8,0:0:0:0:
160,64,85830,1,8,0:0:0:0:
192,96,86292,1,4,0:0:0:0:
192,64,86736,1,8,0:0:0:0:
192,64,87180,1,0,0:0:0:0:
192,96,87625,1,8,0:0:0:0:
192,96,88069,1,0,0:0:0:0:
192,128,88292,1,8,0:0:0:0:
192,128,88514,1,8,0:0:0:0:
192,128,88958,1,0,0:0:0:0:
192,64,89180,1,8,0:0:0:0:
192,64,89403,1,8,0:0:0:0:
192,64,89625,1,8,0:0:0:0:
160,64,89847,1,0,0:0:0:0:
192,64,90292,1,8,0:0:0:0:
192,64,90514,1,0,0:0:0:0:
192,64,90736,1,0,0:0:0:0:
256,128,91180,1,8,0:0:0:0:
224,96,91403,1,0,0:0:0:0:
224,96,91625,1,8,0:0:0:0:
224,96,92069,1,8,0:0:0:0:
192,96,92514,1,8,0:0:0:0:
192,64,92736,1,8,0:0:0:0:
192,64,92958,1,8,0:0:0:0:
192,64,93180,1,8,0:0:0:0:
192,32,93403,1,4,0:0:0:0:
224,160,101083,5,4,0:0:0:0:
224,160,101535,1,4,0:0:0:0:
192,128,101762,1,8,0:0:0:0:
224,96,102210,1,4,0:0:0:0:
224,96,102432,1,4,0:0:0:0:
128,128,102876,1,4,0:0:0:0:
128,128,103321,1,4,0:0:0:0:
160,128,103543,1,8,0:0:0:0:
128,160,103988,1,4,0:0:0:0:
160,96,104432,1,4,0:0:0:0:
192,96,104654,1,4,0:0:0:0:
192,64,105099,1,4,0:0:0:0:
192,64,105321,1,8,0:0:0:0:
192,96,105765,1,4,0:0:0:0:
192,96,106210,1,4,0:0:0:0:
192,96,106432,1,12,0:0:0:0:
192,64,107321,1,12,0:0:0:0:
160,128,109099,1,0,0:0:0:0:
128,128,109321,1,0,0:0:0:0:
128,128,109543,1,0,0:0:0:0:
128,128,109987,1,0,0:0:0:0:
128,128,110210,1,0,0:0:0:0:
128,128,110432,1,0,0:0:0:0:
128,128,110876,1,0,0:0:0:0:
128,128,111099,1,0,0:0:0:0:
224,96,111321,1,0,0:0:0:0:
224,96,111765,1,8,0:0:0:0:
128,160,111987,1,0,0:0:0:0:
128,160,112210,1,8,0:0:0:0:
160,160,112654,1,8,0:0:0:0:
160,160,112876,1,0,0:0:0:0:
160,160,113099,1,8,0:0:0:0:
160,160,113543,1,8,0:0:0:0:
224,160,113765,1,8,0:0:0:0:
224,160,113987,1,8,0:0:0:0:
224,160,114210,1,8,0:0:0:0:
224,160,114432,1,8,0:0:0:0:
160,64,114654,1,8,0:0:0:0:
160,96,114765,1,8,0:0:0:0:
160,96,114876,1,8,0:0:0:0:
160,96,115099,1,8,0:0:0:0:
160,96,115321,1,4,0:0:0:0:
192,160,115543,1,8,0:0:0:0:
192,160,115765,1,0,0:0:0:0:
192,160,116210,1,0,0:0:0:0:
192,160,116432,1,8,0:0:0:0:
192,96,116654,1,0,0:0:0:0:
192,160,117099,1,0,0:0:0:0:
192,160,117321,1,8,0:0:0:0:
192,64,117543,1,0,0:0:0:0:
192,128,117765,1,8,0:0:0:0:
160,160,117987,1,12,0:0:0:0:
160,160,118210,1,12,0:0:0:0:
160,160,118432,1,12,0:0:0:0:
192,192,118876,1,0,0:0:0:0:
224,160,119321,1,8,0:0:0:0:
192,128,119543,1,0,0:0:0:0:
192,128,119765,1,0,0:0:0:0:
192,160,120210,1,8,0:0:0:0:
192,128,120432,1,0,0:0:0:0:
192,128,120654,1,0,0:0:0:0:
192,128,120765,1,0,0:0:0:0:
192,128,121099,1,8,0:0:0:0:
192,128,121321,1,0,0:0:0:0:
192,128,121543,1,0,0:0:0:0:
192,128,121654,1,8,0:0:0:0:
192,128,121876,1,0,0:0:0:0:
192,128,121987,1,8,0:0:0:0:
192,64,122432,1,4,0:0:0:0:
160,96,122654,1,4,0:0:0:0:
192,96,123321,1,4,0:0:0:0:
160,96,123543,1,4,0:0:0:0:
160,64,124210,1,4,0:0:0:0:
192,96,124432,1,4,0:0:0:0:
160,96,125099,1,4,0:0:0:0:
160,96,125543,1,8,0:0:0:0:
160,96,125987,1,4,0:0:0:0:
192,96,126432,1,8,0:0:0:0:
192,128,126654,1,0,0:0:0:0:
160,160,126876,1,8,0:0:0:0:
160,96,127321,1,8,0:0:0:0:
192,96,127543,1,0,0:0:0:0:
192,96,127765,1,0,0:0:0:0:
192,96,128210,1,8,0:0:0:0:
224,64,128432,1,0,0:0:0:0:
224,96,128654,1,8,0:0:0:0:
192,128,128765,1,8,0:0:0:0:
192,128,129099,1,8,0:0:0:0:
160,64,129321,1,8,0:0:0:0:
224,96,129543,1,4,0:0:0:0:
224,128,129765,1,8,0:0:0:0:
160,64,130210,1,8,0:0:0:0:
224,192,130432,1,0,0:0:0:0:
224,192,130654,1,8,0:0:0:0:
237,136,130987,1,0,0:0:0:0:
160,96,131099,1,8,0:0:0:0:
160,128,131321,1,0,0:0:0:0:
192,128,131543,1,8,0:0:0:0:
192,128,131987,1,8,0:0:0:0:
192,96,132210,1,0,0:0:0:0:
192,96,132432,1,8,0:0:0:0:
192,128,132765,1,0,0:0:0:0:
192,96,132876,1,8,0:0:0:0:
192,160,133099,1,0,0:0:0:0:
192,160,133321,1,8,0:0:0:0:
192,192,133765,1,8,0:0:0:0:
192,96,133987,1,0,0:0:0:0:
192,96,134210,1,8,0:0:0:0:
160,64,134543,1,0,0:0:0:0:
160,64,134654,1,8,0:0:0:0:
224,96,134876,1,0,0:0:0:0:
192,64,135321,1,0,0:0:0:0:
160,64,135543,1,0,0:0:0:0:
192,64,135765,1,0,0:0:0:0:
160,64,136210,1,8,0:0:0:0:
192,64,136321,1,0,0:0:0:0:
160,64,136543,1,8,0:0:0:0:
160,64,136654,1,4,0:0:0:0:
192,160,136876,1,8,0:0:0:0:
192,128,137321,1,8,0:0:0:0:
160,128,137543,1,0,0:0:0:0:
160,128,137765,1,8,0:0:0:0:
128,128,138099,1,0,0:0:0:0:
128,128,138210,1,8,0:0:0:0:
192,128,138432,1,0,0:0:0:0:
192,128,138654,1,8,0:0:0:0:
160,128,139099,1,8,0:0:0:0:
160,128,139321,1,0,0:0:0:0:
160,128,139543,1,8,0:0:0:0:
160,128,139876,1,0,0:0:0:0:
192,64,139987,1,8,0:0:0:0:
192,128,140210,1,0,0:0:0:0:
192,128,140432,1,8,0:0:0:0:
160,96,140876,1,8,0:0:0:0:
192,64,141099,1,0,0:0:0:0:
192,64,141321,1,8,0:0:0:0:
192,128,141654,1,0,0:0:0:0:
192,128,141765,1,8,0:0:0:0:
224,96,141987,1,12,0:0:0:0:
192,128,142210,1,8,0:0:0:0:
192,128,142432,1,0,0:0:0:0:
160,96,142543,1,0,0:0:0:0:
192,96,142765,1,8,0:0:0:0:
192,64,142876,1,4,0:0:0:0:
192,96,143765,1,4,0:0:0:0:
192,64,144654,1,4,0:0:0:0:
192,64,144876,1,4,0:0:0:0:
192,96,145099,1,4,0:0:0:0:
192,64,145543,1,4,0:0:0:0:
192,64,146432,1,4,0:0:0:0:
192,64,146654,1,4,0:0:0:0:
192,64,146876,1,4,0:0:0:0:
192,64,147321,1,4,0:0:0:0:
160,96,148210,1,4,0:0:0:0:
160,96,148432,1,4,0:0:0:0:
160,96,148654,1,4,0:0:0:0:
160,96,149099,1,4,0:0:0:0:
160,96,149321,1,8,0:0:0:0:
160,64,149543,1,0,0:0:0:0:
192,64,149765,1,8,0:0:0:0:
160,32,149987,1,12,0:0:0:0:
