osu file format v14

[General]
AudioFilename: silence.mp3
AudioLeadIn: 0
PreviewTime: 92960
Countdown: 1
SampleSet: Soft
StackLeniency: 0.9
Mode: 0
LetterboxInBreaks: 0
WidescreenStoryboard: 1

[Editor]
DistanceSpacing: 1.1
BeatDivisor: 4
GridSize: 32
TimelineZoom: 1

[Metadata]
Title:A Moment Of Silence
TitleUnicode:A Moment Of Silence
Artist:Streetlight Manifesto
ArtistUnicode:Streetlight Manifesto
Creator:pishifat
Version:Normal
Source:
Tags:everything goes numb violence catch 22 jazz ska punk
BeatmapID:1016089
BeatmapSetID:474755

[Difficulty]
HPDrainRate:5
CircleSize:3
OverallDifficulty:4
ApproachRate:5
SliderMultiplier:1
SliderTickRate:1

[Events]
//Background and Video events
0,0,"ssss.jpg",0,0
//Break Periods
2,141160,150260
//Storyboard Layer 0 (Background)
//Storyboard Layer 1 (Fail)
//Storyboard Layer 2 (Pass)
//Storyboard Layer 3 (Foreground)
//Storyboard Sound Samples

[TimingPoints]
-40,375,4,2,1,70,1,0
11397,-111.111111111111,4,2,1,70,0,0
11678,-111.111111111111,4,2,1,5,0,0
11960,-111.111111111111,4,2,1,55,0,0
21710,-111.111111111111,4,2,1,55,0,0
22085,-111.111111111111,4,2,1,55,0,0
26960,-111.111111111111,4,2,1,70,0,0
27710,-111.111111111111,4,2,1,55,0,0
28085,-111.111111111111,4,2,1,55,0,0
37460,-111.111111111111,4,2,1,70,0,0
38022,-111.111111111111,4,2,1,70,0,0
38960,-111.111111111111,4,2,2,70,0,0
39335,-111.111111111111,4,2,2,70,0,0
39710,-111.111111111111,4,2,2,70,0,0
40085,-111.111111111111,4,2,2,70,0,0
49460,-111.111111111111,4,2,2,70,0,0
49835,-111.111111111111,4,2,2,70,0,0
50960,-111.111111111111,4,2,2,70,0,0
51710,-111.111111111111,4,2,2,55,0,0
52460,-111.111111111111,4,2,1,55,0,0
59772,-111.111111111111,4,2,1,65,0,0
61460,-111.111111111111,4,2,1,70,0,0
62022,-111.111111111111,4,2,1,70,0,0
62960,-111.111111111111,4,2,1,70,0,0
63335,-111.111111111111,4,2,1,70,0,0
63710,-111.111111111111,4,2,1,70,0,0
64085,-111.111111111111,4,2,1,55,0,0
71772,-111.111111111111,4,2,1,60,0,0
74022,-111.111111111111,4,2,1,70,0,0
74960,-111.111111111111,4,2,1,70,0,0
75335,-111.111111111111,4,2,1,60,0,0
75710,-111.111111111111,4,2,1,60,0,0
87335,-111.111111111111,4,2,1,50,0,0
91460,-111.111111111111,4,2,1,60,0,0
91835,-111.111111111111,4,2,1,70,0,0
92210,-111.111111111111,4,2,1,60,0,0
92585,-111.111111111111,4,2,1,50,0,0
92960,-111.111111111111,4,2,1,70,0,1
104960,-111.111111111111,4,2,1,70,0,0
105710,-111.111111111111,4,2,1,70,0,0
106460,-111.111111111111,4,2,1,70,0,0
107210,-111.111111111111,4,2,1,70,0,0
107866,-111.111111111111,4,2,1,70,0,0
107960,-111.111111111111,4,2,1,70,0,1
116960,-111.111111111111,4,2,1,70,0,0
117710,-111.111111111111,4,2,1,70,0,1
118460,-111.111111111111,4,2,1,63,0,1
128960,-111.111111111111,4,2,1,70,0,0
129710,-111.111111111111,4,2,1,70,0,1
130460,-111.111111111111,4,2,1,63,0,1
140960,-111.111111111111,4,2,1,50,0,0
151210,-111.111111111111,4,2,1,70,0,0
152022,-111.111111111111,4,2,1,70,0,0
152960,-111.111111111111,4,2,1,70,0,0
153335,-111.111111111111,4,2,1,70,0,0
153710,-111.111111111111,4,2,1,70,0,0
154085,-111.111111111111,4,2,1,60,0,0
164022,-111.111111111111,4,2,1,70,0,0
166835,-111.111111111111,4,2,1,5,0,0

[Colours]
Combo1 : 140,154,181
Combo2 : 202,179,179
Combo3 : 197,199,198
Combo4 : 205,204,169

[HitObjects]
136,81,11397,6,0,L|144:126,1,44.999998626709,4|0,0:3|1:0,0:0:0:0:
121,222,11960,6,0,B|234:246|196:186|305:208,1,179.999994506836,4|8,0:0|0:0,0:0:0:0:
379,260,13085,1,4,0:3:0:0:
472,227,13460,2,0,L|480:134,1,89.9999972534181,4|0,3:3|0:0,0:0:0:0:
445,44,14210,2,0,B|388:9|388:9|304:22,1,134.999995880127,8|8,0:0|0:0,0:0:0:0:
282,51,14960,6,0,L|132:43,1,134.999995880127,4|4,3:0|0:3,0:0:0:0:
97,39,15710,1,8,0:0:0:0:
10,86,16085,1,4,0:3:0:0:
95,136,16460,2,0,P|116:217|114:234,1,89.9999972534181,4|0,3:3|0:0,0:0:0:0:
71,310,17210,2,0,B|125:276|125:276|208:289,1,134.999995880127,8|8,0:0|0:0,0:0:0:0:
242,303,17960,6,0,P|314:309|373:262,1,134.999995880127,4|4,3:0|0:3,0:0:0:0:
389,233,18710,2,0,L|381:131,1,89.9999972534181,8|4,0:0|0:3,0:0:0:0:
395,45,19460,2,0,P|341:51|301:79,1,89.9999972534181,4|0,3:0|2:0,0:0:0:0:
269,158,20210,2,0,B|202:173|202:173|133:134,1,134.999995880127,8|8,0:0|0:0,0:0:0:0:
106,108,20960,6,0,P|75:177|88:251,1,134.999995880127,4|4,3:0|0:3,0:0:0:0:
113,272,21710,1,8,0:0:0:0:
200,224,22085,1,2,0:3:0:0:
266,296,22460,6,0,B|276:372,2,67.4999979400635,0|0|0,1:0|1:0|1:0,0:0:0:0:
300,260,23210,1,0,1:0:0:0:
149,28,26960,6,0,P|99:80|118:191,1,179.999994506836,4|8,0:0|0:0,0:0:0:0:
202,216,28085,1,4,0:3:0:0:
287,165,28460,2,0,L|381:153,1,89.9999972534181,4|0,3:0|0:0,0:0:0:0:
473,172,29210,2,0,B|514:224|514:224|502:310,1,134.999995880127,0|8,0:0|0:0,0:0:0:0:
492,340,29960,6,0,P|408:305|392:305,1,89.9999972534181,4|4,3:0|0:3,0:0:0:0:
337,238,30710,2,0,P|279:254|246:280,1,89.9999972534181,8|4,0:0|0:3,0:0:0:0:
161,236,31460,2,0,P|131:328|132:337,1,89.9999972534181,4|0,3:0|0:0,0:0:0:0:
37,284,32210,2,0,B|23:214|23:214|59:148,1,134.999995880127,8|8,0:0|0:0,0:0:0:0:
82,117,32960,6,0,L|185:126,1,89.9999972534181,4|4,3:3|0:3,0:0:0:0:
260,80,33710,2,0,L|359:69,1,89.9999972534181,8|4,0:0|0:3,0:0:0:0:
448,76,34460,1,4,3:0:0:0:
492,164,34835,1,0,0:0:0:0:
413,225,35210,2,0,B|355:192|355:192|287:203,1,134.999995880127,8|8,0:0|0:0,0:0:0:0:
242,223,35960,6,0,P|216:287|221:322,1,89.9999972534181,4|4,3:3|0:3,0:0:0:0:
150,379,36710,2,0,P|121:322|119:277,1,89.9999972534181,8|6,0:0|3:0,0:0:0:0:
136,199,37460,6,0,B|70:210,2,67.4999979400635,0|0|0,1:0|1:0|1:0,0:0:0:0:
183,215,38210,1,0,1:0:0:0:
117,50,38960,5,4,0:0:0:0:
190,116,39335,1,2,0:0:0:0:
267,54,39710,2,0,L|365:39,1,89.9999972534181,0|2,1:0|0:0,0:0:0:0:
454,28,40460,2,0,P|509:99|512:115,1,89.9999972534181,2|0,0:0|0:0,0:0:0:0:
472,189,41210,2,0,B|412:162|412:162|338:179,1,134.999995880127,0|2,1:3|0:0,0:0:0:0:
305,208,41960,6,0,P|217:196|166:164,1,134.999995880127,2|0,0:0|0:3,0:0:0:0:
141,141,42710,1,0,1:0:0:0:
127,44,43085,1,2,0:0:0:0:
49,105,43460,2,0,P|35:163|40:209,1,89.9999972534181,0|6,1:0|0:3,0:0:0:0:
7,287,44210,2,0,P|38:340|64:360,1,89.9999972534181,0|8,1:0|0:3,0:0:0:0:
108,340,44772,1,4,0:3:0:0:
151,315,44960,5,4,0:0:0:0:
236,365,45335,1,2,0:0:0:0:
312,302,45710,2,0,L|317:204,1,89.9999972534181,0|2,1:0|0:0,0:0:0:0:
237,152,46460,2,0,P|223:108|225:60,1,89.9999972534181,2|0,0:0|0:0,0:0:0:0:
308,12,47210,2,0,B|365:46|365:46|446:37,1,134.999995880127,0|2,1:0|0:0,0:0:0:0:
482,32,47960,6,0,P|517:77|518:209,1,179.999994506836,2|0,0:0|1:0,0:0:0:0:
464,275,49085,1,2,0:3:0:0:
374,231,49460,1,0,1:0:0:0:
291,285,49835,2,0,L|286:380,2,89.9999972534181,2|8|0,0:0|0:3|1:0,0:0:0:0:
288,235,50772,1,0,0:0:0:0:
283,186,50960,6,0,P|226:148|105:168,1,179.999994506836,4|0,0:0|1:0,0:0:0:0:
48,228,52085,1,4,0:3:0:0:
24,131,52460,2,0,L|15:29,1,89.9999972534181,4|0,3:3|0:0,0:0:0:0:
106,0,53210,2,0,B|160:33|160:33|245:22,1,134.999995880127,8|8,0:0|0:0,0:0:0:0:
280,17,53960,6,0,P|349:31|372:49,1,89.9999972534181,4|0,3:0|0:0,0:0:0:0:
430,114,54710,2,0,L|535:128,1,89.9999972534181,8|4,0:0|0:3,0:0:0:0:
490,220,55460,2,0,L|397:207,1,89.9999972534181,4|0,3:3|0:0,0:0:0:0:
318,152,56210,2,0,B|251:158|251:158|191:211,1,134.999995880127,8|8,0:0|0:0,0:0:0:0:
180,248,56960,6,0,P|132:246|80:216,1,89.9999972534181,4|4,0:0|0:3,0:0:0:0:
49,140,57710,2,0,P|56:71|77:40,1,89.9999972534181,8|4,2:0|2:3,0:0:0:0:
160,24,58460,1,4,3:3:0:0:
225,93,58835,1,0,2:0:0:0:
309,40,59210,2,0,B|379:31|379:31|446:78,1,134.999995880127,8|8,0:0|0:0,0:0:0:0:
457,110,59960,6,0,P|441:195|446:216,1,89.9999972534181,4|4,3:3|0:3,0:0:0:0:
474,290,60710,2,0,L|365:298,1,89.9999972534181,8|6,0:0|0:3,0:0:0:0:
318,222,61460,6,0,B|326:143,2,67.4999979400635,0|0|0,1:0|1:0|1:0,0:0:0:0:
287,261,62210,1,0,1:0:0:0:
98,117,62960,5,4,0:0:0:0:
0,137,63335,1,0,0:0:0:0:
7,235,63710,2,0,L|18:331,1,89.9999972534181,0|0,1:0|0:0,0:0:0:0:
102,375,64460,2,0,P|163:353|206:355,1,89.9999972534181,4|0,3:3|0:3,0:0:0:0:
285,368,65210,2,0,P|354:359|381:346,1,89.9999972534181,0|0,1:0|0:0,0:0:0:0:
405,313,65772,1,0,1:0:0:0:
418,265,65960,6,0,L|409:165,1,89.9999972534181,4|4,3:3|0:3,0:0:0:0:
357,90,66710,2,0,P|295:101|260:129,1,89.9999972534181,0|4,1:0|0:3,0:0:0:0:
216,196,67460,2,0,P|146:188|115:168,1,89.9999972534181,4|0,3:0|0:0,0:0:0:0:
68,101,68210,2,0,B|25:152|25:152|43:236,1,134.999995880127,0|0,1:0|1:0,0:0:0:0:
51,266,68960,5,4,0:0:0:0:
125,331,69335,1,4,0:3:0:0:
217,296,69710,2,0,P|277:301|316:320,1,89.9999972534181,0|4,1:0|0:3,0:0:0:0:
393,354,70460,2,0,L|401:258,1,89.9999972534181,4|0,3:3|0:0,0:0:0:0:
327,196,71210,2,0,B|288:143|288:143|297:57,1,134.999995880127,0|0,1:0|1:0,0:0:0:0:
311,27,71960,6,0,P|370:8|441:49,1,134.999995880127,4|4,3:0|0:3,0:0:0:0:
464,76,72710,1,0,1:0:0:0:
415,158,73085,1,6,0:3:0:0:
463,244,73460,6,0,B|538:257,2,67.4999979400635,0|0|0,1:0|1:0|1:0,0:0:0:0:
415,258,74210,1,0,1:0:0:0:
282,371,74960,6,0,B|180:330|243:302|126:266,1,179.999994506836,4|0,0:0|1:0,0:0:0:0:
71,194,76085,1,4,0:3:0:0:
76,95,76460,2,0,P|105:74|169:58,1,89.9999972534181,4|0,3:3|0:0,0:0:0:0:
234,119,77210,2,0,B|302:129|302:129|372:91,1,134.999995880127,0|0,1:0|1:0,0:0:0:0:
399,67,77960,6,0,P|468:86|486:102,1,89.9999972534181,4|0,3:3|0:0,0:0:0:0:
446,189,78710,2,0,P|388:204|355:226,1,89.9999972534181,0|4,1:0|0:3,0:0:0:0:
324,311,79460,1,4,3:3:0:0:
246,249,79835,1,0,1:0:0:0:
182,324,80210,1,4,0:3:0:0:
140,297,80397,1,8,0:3:0:0:
100,267,80585,1,8,0:3:0:0:
165,193,80960,6,0,L|171:93,1,89.9999972534181,4|4,0:0|0:3,0:0:0:0:
107,26,81710,2,0,P|165:71|270:58,1,179.999994506836,0|4,1:0|3:3,0:0:0:0:
348,4,82835,1,0,0:0:0:0:
441,35,83210,2,0,B|479:89|479:89|466:168,1,134.999995880127,0|0,1:0|1:0,0:0:0:0:
458,205,83960,6,0,P|381:178|354:180,1,89.9999972534181,4|4,3:0|0:3,0:0:0:0:
293,235,84710,2,0,P|225:252|201:248,1,89.9999972534181,0|4,1:0|0:3,0:0:0:0:
128,188,85460,2,0,L|117:98,1,89.9999972534181,4|2,3:0|0:0,0:0:0:0:
74,9,86210,2,0,B|24:51|24:51|19:130,1,134.999995880127,0|0,1:0|1:0,0:0:0:0:
15,170,86960,5,4,3:0:0:0:
27,268,87335,2,0,L|35:367,2,89.9999972534181,2|10|2,0:0|0:0|0:0,0:0:0:0:
105,207,88460,2,0,P|178:226|202:244,1,89.9999972534181,4|2,3:3|0:0,0:0:0:0:
256,306,89210,2,0,B|325:315|325:315|391:277,1,134.999995880127,10|10,0:0|0:0,0:0:0:0:
412,243,89960,6,0,P|414:202|392:149,1,89.9999972534181,4|2,3:3|0:0,0:0:0:0:
320,93,90710,2,0,P|299:132|296:177,2,89.9999972534181,10|2|4,0:0|0:0|3:0,0:0:0:0:
413,61,91835,1,0,1:0:0:0:
343,0,92210,1,8,0:3:0:0:
247,27,92585,1,4,0:3:0:0:
152,56,92960,6,0,L|60:48,1,89.9999972534181,4|4,0:0|0:3,0:0:0:0:
41,145,93710,2,0,L|130:152,1,89.9999972534181,0|4,1:0|0:3,0:0:0:0:
224,120,94460,2,0,P|291:95|324:96,2,89.9999972534181,4|4|0,3:0|0:3|1:0,0:0:0:0:
206,217,95585,1,0,0:3:0:0:
282,279,95960,6,0,L|377:286,2,89.9999972534181,4|4|0,3:3|0:3|1:0,0:0:0:0:
189,315,97085,1,4,0:3:0:0:
110,255,97460,2,0,P|100:183|110:149,1,89.9999972534181,4|0,3:3|0:0,0:0:0:0:
167,91,98210,2,0,P|248:98|266:108,1,89.9999972534181,0|0,1:0|0:0,0:0:0:0:
323,172,98960,5,4,3:3:0:0:
372,86,99335,1,4,0:3:0:0:
466,116,99710,2,0,L|479:212,1,89.9999972534181,0|4,1:0|0:3,0:0:0:0:
460,302,100460,2,0,P|399:276|355:272,1,89.9999972534181,4|4,3:0|0:3,0:0:0:0:
288,319,101210,2,0,P|216:340|183:338,1,89.9999972534181,0|0,1:0|0:0,0:0:0:0:
110,300,101960,5,4,3:3:0:0:
160,215,102335,2,0,L|255:224,2,89.9999972534181,4|0|4,0:3|1:0|0:3,0:0:0:0:
77,159,103460,2,0,P|79:83|94:59,1,89.9999972534181,4|4,3:3|0:3,0:0:0:0:
168,20,104210,2,0,L|268:26,1,89.9999972534181,0|4,1:0|0:3,0:0:0:0:
356,27,104960,5,8,3:3:0:0:
378,123,105335,1,4,3:0:0:0:
402,218,105710,1,4,1:2:0:0:
218,149,106460,5,8,3:0:0:0:
119,159,106835,1,4,0:3:0:0:
20,169,107210,1,4,1:2:0:0:
150,318,107960,6,0,P|233:287|245:288,1,89.9999972534181,4|4,0:0|0:3,0:0:0:0:
322,327,108710,2,0,P|388:339|426:333,1,89.9999972534181,0|4,1:0|0:3,0:0:0:0:
478,264,109460,1,4,3:3:0:0:
396,207,109835,1,4,0:3:0:0:
456,128,110210,2,0,P|472:62|468:23,1,89.9999972534181,0|0,1:0|0:0,0:0:0:0:
375,65,110960,6,0,L|271:72,1,89.9999972534181,4|4,3:3|0:3,0:0:0:0:
198,22,111710,2,0,P|137:8|99:16,1,89.9999972534181,0|4,1:0|0:3,0:0:0:0:
33,74,112460,2,0,L|28:173,1,89.9999972534181,4|0,3:3|0:0,0:0:0:0:
63,256,113210,1,0,1:0:0:0:
145,201,113585,1,0,0:0:0:0:
219,266,113960,6,0,P|296:280|323:275,1,89.9999972534181,0|4,3:0|0:3,0:0:0:0:
370,202,114710,2,0,P|432:186|477:189,1,89.9999972534181,0|4,1:0|0:3,0:0:0:0:
508,271,115460,1,4,3:3:0:0:
445,348,115835,1,0,1:0:0:0:
347,362,116210,1,0,1:0:0:0:
263,309,116585,1,4,0:3:0:0:
239,218,116960,5,4,0:3:0:0:
239,218,117710,2,0,B|244:186|278:161|278:161|277:96|207:63,1,179.999994506836,4|4,1:2|3:3,0:0:0:0:
128,39,118835,1,4,0:3:0:0:
53,104,119210,2,0,L|64:200,1,89.9999972534181,0|4,1:0|0:3,0:0:0:0:
0,270,119960,6,0,P|60:249|151:314,1,179.999994506836,4|0,3:3|1:0,0:0:0:0:
232,364,121085,1,4,0:3:0:0:
320,320,121460,2,0,L|324:223,1,89.9999972534181,4|4,3:3|0:3,0:0:0:0:
265,150,122210,2,0,L|254:44,1,89.9999972534181,0|0,1:0|0:0,0:0:0:0:
340,19,122960,5,4,3:3:0:0:
394,101,123335,2,0,P|445:115|489:111,2,89.9999972534181,4|0|4,0:3|1:0|0:3,0:0:0:0:
340,19,124460,2,0,P|270:10|244:15,1,89.9999972534181,4|4,3:3|0:3,0:0:0:0:
175,77,125210,2,0,L|168:177,1,89.9999972534181,0|0,1:0|0:0,0:0:0:0:
160,265,125960,5,4,3:3:0:0:
77,210,126335,2,0,P|12:222|-16:241,2,89.9999972534181,4|0|4,0:3|1:0|0:3,0:0:0:0:
160,265,127460,2,0,P|214:257|249:231,1,89.9999972534181,0|4,3:0|0:3,0:0:0:0:
297,154,128210,2,0,P|333:202|339:249,1,89.9999972534181,0|0,1:0|0:0,0:0:0:0:
300,321,128960,5,4,0:3:0:0:
489,379,129710,2,0,B|516:360|524:329|524:329|468:284|465:221,1,179.999994506836,4|4,1:2|3:3,0:0:0:0:
485,133,130835,1,4,0:3:0:0:
429,51,131210,2,0,P|364:36|325:41,1,89.9999972534181,2|0,1:2|0:0,0:0:0:0:
254,85,131960,6,0,B|155:104|178:46|69:71,1,179.999994506836,4|0,3:2|1:0,0:0:0:0:
3,133,133085,1,4,0:3:0:0:
57,215,133460,2,0,P|126:228|156:248,1,89.9999972534181,4|4,3:3|0:3,0:0:0:0:
205,314,134210,2,0,P|276:301|305:286,1,89.9999972534181,0|0,1:0|0:0,0:0:0:0:
345,210,134960,6,0,L|334:104,2,89.9999972534181,4|4|0,3:3|0:3|1:0,0:0:0:0:
397,294,136085,1,4,0:3:0:0:
488,256,136460,2,0,P|506:168|503:153,1,89.9999972534181,4|0,3:3|0:0,0:0:0:0:
462,80,137210,1,0,1:0:0:0:
370,117,137585,1,0,1:0:0:0:
287,62,137960,6,0,L|188:51,1,89.9999972534181,4|4,3:3|0:3,0:0:0:0:
104,85,138710,2,0,P|90:121|92:178,1,89.9999972534181,0|4,1:0|0:3,0:0:0:0:
164,237,139460,1,4,3:3:0:0:
256,202,139835,1,0,1:0:0:0:
303,288,140210,1,0,1:0:0:0:
397,258,140585,1,4,0:3:0:0:
449,341,140960,5,2,0:0:0:0:
174,128,151460,6,0,B|106:116,2,67.4999979400635,0|0|0,1:0|1:0|1:0,0:0:0:0:
211,161,152210,1,0,1:0:0:0:
369,280,152960,6,0,P|457:295|517:235,1,179.999994506836,4|0,0:0|1:0,0:0:0:0:
497,138,154085,1,0,0:0:0:0:
414,83,154460,2,0,L|316:95,1,89.9999972534181,4|0,3:3|0:0,0:0:0:0:
277,78,155022,1,4,0:3:0:0:
231,59,155210,2,0,L|124:51,1,89.9999972534181,0|4,1:0|0:3,0:0:0:0:
49,88,155960,6,0,P|20:166|24:191,1,89.9999972534181,4|0,3:3|0:0,0:0:0:0:
82,247,156710,2,0,P|159:257|184:271,1,89.9999972534181,0|0,1:0|0:0,0:0:0:0:
242,328,157460,2,0,P|302:346|350:342,1,89.9999972534181,4|0,3:3|0:0,0:0:0:0:
368,316,158022,1,4,0:3:0:0:
402,279,158210,1,0,1:0:0:0:
347,196,158585,1,4,0:3:0:0:
390,107,158960,6,0,L|490:101,2,89.9999972534181,4|0|0,3:3|0:0|1:0,0:0:0:0:
305,55,160085,1,0,0:0:0:0:
213,18,160460,2,0,P|150:39|124:59,1,89.9999972534181,0|4,1:0|0:3,0:0:0:0:
108,149,161210,1,0,1:0:0:0:
165,229,161585,1,4,0:3:0:0:
113,313,161960,5,4,3:3:0:0:
153,341,162147,2,0,L|292:324,1,134.999995880127,0|4,1:0|0:3,0:0:0:0:
361,258,163085,1,0,1:0:0:0:
422,335,163460,6,0,B|491:343,2,67.4999979400635,0|0|0,1:0|1:0|1:0,0:0:0:0:
375,352,164210,1,0,1:0:0:0:
256,192,166835,12,0,170960,0:0:0:0:
