osu file format v14

[General]
AudioFilename: silence.mp3
AudioLeadIn: 0
PreviewTime: 92960
Countdown: 1
SampleSet: Soft
StackLeniency: 0.2
Mode: 0
LetterboxInBreaks: 0
WidescreenStoryboard: 1

[Editor]
Bookmarks: 38303
DistanceSpacing: 1.7
BeatDivisor: 4
GridSize: 32
TimelineZoom: 1

[Metadata]
Title:A Moment Of Silence
TitleUnicode:A Moment Of Silence
Artist:Streetlight Manifesto
ArtistUnicode:Streetlight Manifesto
Creator:pishifat
Version:Insane
Source:
Tags:everything goes numb violence catch 22 jazz ska punk
BeatmapID:1014277
BeatmapSetID:474755

[Difficulty]
HPDrainRate:6
CircleSize:5
OverallDifficulty:7.5
ApproachRate:8.5
SliderMultiplier:1
SliderTickRate:1

[Events]
//Background and Video events
0,0,"ssss.jpg",0,0
//Break Periods
2,141160,150785
//Storyboard Layer 0 (Background)
//Storyboard Layer 1 (Fail)
//Storyboard Layer 2 (Pass)
//Storyboard Layer 3 (Foreground)
//Storyboard Sound Samples

[TimingPoints]
-40,375,4,2,1,70,1,0
11397,-25,4,2,1,70,0,0
11585,-71.4285714285714,4,2,1,70,0,0
11678,-71.4285714285714,4,2,1,5,0,0
11960,-83.3333333333333,4,2,1,55,0,0
21710,-76.9230769230769,4,2,1,55,0,0
22085,-71.4285714285714,4,2,1,55,0,0
26960,-74.0740740740741,4,2,1,70,0,0
27710,-86.9565217391304,4,2,1,55,0,0
28085,-95.2380952380952,4,2,1,55,0,0
37460,-95.2380952380952,4,2,1,70,0,0
38022,-71.4285714285714,4,2,1,70,0,0
38960,-74.0740740740741,4,2,2,70,0,0
39335,-80,4,2,2,70,0,0
39710,-86.9565217391304,4,2,2,70,0,0
40085,-95.2380952380952,4,2,2,70,0,0
49460,-86.9565217391304,4,2,2,70,0,0
49835,-74.0740740740741,4,2,2,70,0,0
50960,-80,4,2,2,70,0,0
51710,-95.2380952380952,4,2,2,55,0,0
52460,-95.2380952380952,4,2,1,55,0,0
59772,-86.9565217391304,4,2,1,65,0,0
61460,-86.9565217391304,4,2,1,70,0,0
62022,-71.4285714285714,4,2,1,70,0,0
62960,-74.0740740740741,4,2,1,70,0,0
63335,-80,4,2,1,70,0,0
63710,-86.9565217391304,4,2,1,70,0,0
64085,-95.2380952380952,4,2,1,55,0,0
71772,-86.9565217391304,4,2,1,60,0,0
74022,-71.4285714285714,4,2,1,70,0,0
74960,-74.0740740740741,4,2,1,70,0,0
75335,-80,4,2,1,60,0,0
75710,-86.9565217391304,4,2,1,60,0,0
87335,-95.2380952380952,4,2,1,50,0,0
91460,-95.2380952380952,4,2,1,60,0,0
91835,-80,4,2,1,70,0,0
92210,-95.2380952380952,4,2,1,60,0,0
92585,-117.647058823529,4,2,1,50,0,0
92960,-74.0740740740741,4,2,1,70,0,1
104960,-117.647058823529,4,2,1,70,0,0
105710,-68.9655172413793,4,2,1,70,0,1
106460,-117.647058823529,4,2,1,70,0,0
107210,-68.9655172413793,4,2,1,70,0,1
107835,-80,4,2,1,70,0,0
107960,-74.0740740740741,4,2,1,70,0,1
116960,-80,4,2,1,70,0,0
117710,-64.5161290322581,4,2,1,70,0,1
118460,-80,4,2,1,63,0,1
128960,-117.647058823529,4,2,1,70,0,0
129710,-68.9655172413793,4,2,1,70,0,1
130460,-80,4,2,1,63,0,1
140960,-80,4,2,1,50,0,0
151210,-80,4,2,1,70,0,0
152022,-71.4285714285714,4,2,1,70,0,0
152960,-74.0740740740741,4,2,1,70,0,0
153335,-80,4,2,1,70,0,0
153710,-86.9565217391304,4,2,1,70,0,0
154085,-95.2380952380952,4,2,1,60,0,0
164022,-71.4285714285714,4,2,1,70,0,0
166835,-71.4285714285714,4,2,1,5,0,0

[Colours]
Combo1 : 140,154,181
Combo2 : 202,179,179
Combo3 : 197,199,198
Combo4 : 205,204,169

[HitObjects]
81,16,11397,5,4,0:3:0:0:
239,42,11585,2,0,B|181:32,1,34.9999989318848,0|0,1:0|0:0,0:0:0:0:
204,36,11960,6,0,B|303:17|266:88|389:57,1,179.999994506836,4|0,0:0|0:0,0:0:0:0:
239,170,12710,2,0,L|233:107,1,59.9999981689454,8|0,0:0|0:0,0:0:0:0:
368,209,13085,2,0,L|376:147,1,59.9999981689454,4|0,0:3|0:0,0:0:0:0:
272,322,13460,2,0,P|293:301|320:289,1,59.9999981689454,4|0,3:3|0:0,0:0:0:0:
355,283,13741,1,0,0:0:0:0:
355,283,13835,2,0,P|409:292|435:307,1,59.9999981689454,0|4,0:0|0:3,0:0:0:0:
225,384,14210,5,8,0:0:0:0:
483,324,14491,1,8,0:0:0:0:
225,384,14772,1,8,0:0:0:0:
321,210,14960,6,0,B|347:108|270:135|307:24,1,179.999994506836,4|4,3:0|0:3,0:0:0:0:
249,173,15710,1,8,0:0:0:0:
200,53,15897,2,0,P|214:17|247:-12,2,59.9999981689454,0|4|0,0:0|0:3|0:0,0:0:0:0:
249,173,16460,2,0,L|329:182,1,59.9999981689454,4|0,3:3|0:0,0:0:0:0:
336,198,16741,1,0,0:0:0:0:
336,198,16835,2,0,L|416:208,1,59.9999981689454,0|4,0:0|0:3,0:0:0:0:
188,218,17210,5,8,0:0:0:0:
454,133,17491,1,8,0:0:0:0:
188,218,17772,1,8,0:0:0:0:
403,346,17960,6,0,P|318:316|268:312,1,119.999996337891,4|0,3:0|0:0,0:0:0:0:
289,313,18522,1,4,0:3:0:0:
271,168,18710,2,0,P|289:144|314:127,1,59.9999981689454,8|0,0:0|0:0,0:0:0:0:
188,218,19085,2,0,P|188:188|195:159,1,59.9999981689454,4|0,0:3|0:0,0:0:0:0:
171,10,19460,2,0,P|165:59|148:90,1,59.9999981689454,4|0,3:0|2:0,2:0:0:0:
145,96,19741,1,0,2:0:0:0:
145,96,19835,2,0,P|90:115|64:118,1,59.9999981689454,0|4,2:0|2:3,2:0:0:0:
252,21,20210,5,8,0:0:0:0:
12,105,20491,1,8,0:0:0:0:
252,21,20772,1,8,0:0:0:0:
174,166,20960,6,0,P|164:229|167:303,1,119.999996337891,4|0,3:0|0:0,0:0:0:0:
165,285,21522,1,4,0:3:0:0:
303,131,21710,2,0,L|222:122,1,64.9999970245363,8|0,0:0|0:0,0:0:0:0:
319,248,22085,2,0,B|352:233|352:233|408:238,1,69.9999978637696,2|0,0:3|0:0,0:0:0:0:
385,236,22366,1,0,0:0:0:0:
385,236,22460,5,0,1:0:0:0:
140,46,22741,1,0,1:0:0:0:
96,363,23022,2,0,L|103:314,1,34.9999989318848,0|0,1:0|0:0,0:0:0:0:
111,255,23210,5,0,1:0:0:0:
134,360,26960,6,0,P|134:319|118:253,1,101.250000386238,4|0,0:0|0:0,0:0:0:0:
116,248,27335,1,0,0:0:0:0:
206,206,27522,1,0,0:0:0:0:
206,206,27616,1,0,0:0:0:0:
206,206,27710,2,0,L|197:288,1,57.5000010967255,8|0,0:0|0:0,0:0:0:0:
125,120,28085,2,0,L|133:195,1,52.4999983978272,4|0,0:3|0:0,0:0:0:0:
207,271,28460,2,0,P|278:261|297:245,1,78.7499975967408,4|0,3:0|0:0,0:0:0:0:
292,249,28835,2,0,P|324:235|363:231,1,52.4999983978272,0|4,0:0|0:3,0:0:0:0:
151,324,29210,5,0,0:0:0:0:
118,215,29397,1,0,0:0:0:0:
148,221,29491,1,8,0:0:0:0:
118,215,29585,1,0,0:0:0:0:
194,130,29772,1,8,0:0:0:0:
350,77,29960,6,0,L|290:87,1,52.4999983978272,4|0,3:0|0:0,0:0:0:0:
172,5,30335,2,0,L|210:51,1,52.4999983978272,4|0,0:3|0:0,0:0:0:0:
206,46,30616,1,0,0:0:0:0:
206,46,30710,1,8,0:0:0:0:
277,10,30897,1,0,0:0:0:0:
208,193,31085,2,0,L|229:136,1,52.4999983978272,4|0,0:3|0:0,0:0:0:0:
406,17,31460,2,0,P|445:22|494:51,1,78.7499975967408,4|0,3:0|0:0,0:0:0:0:
488,49,31835,1,0,0:0:0:0:
456,116,32022,1,4,0:3:0:0:
496,209,32210,5,8,0:0:0:0:
366,221,32397,1,0,0:0:0:0:
345,245,32491,1,8,0:0:0:0:
366,221,32585,1,0,0:0:0:0:
381,91,32772,1,8,0:0:0:0:
258,202,32960,6,0,L|252:297,1,78.7499975967408,4|0,3:3|0:0,0:0:0:0:
254,293,33335,2,0,P|302:282|322:284,1,52.4999983978272,4|0,0:3|0:0,0:0:0:0:
304,282,33616,1,0,0:0:0:0:
304,282,33710,1,8,0:0:0:0:
355,346,33897,1,0,0:0:0:0:
431,232,34085,2,0,P|408:220|371:216,1,52.4999983978272,4|0,0:3|0:0,0:0:0:0:
172,245,34460,2,0,L|178:317,1,52.4999983978272,4|0,3:0|0:0,0:0:0:0:
186,332,34741,1,0,0:0:0:0:
186,332,34835,2,0,L|193:400,1,52.4999983978272,0|4,0:0|0:3,0:0:0:0:
99,228,35210,5,8,0:0:0:0:
249,257,35397,1,0,0:0:0:0:
265,283,35491,1,8,0:0:0:0:
249,257,35585,1,0,0:0:0:0:
293,110,35772,1,8,0:0:0:0:
430,202,35960,6,0,P|398:213|336:214,1,78.7499975967408,4|0,3:3|0:0,0:0:0:0:
340,214,36335,1,4,0:3:0:0:
372,298,36522,1,0,0:0:0:0:
372,298,36616,1,0,0:0:0:0:
372,298,36710,1,8,0:0:0:0:
251,266,36897,2,0,P|272:267|287:274,1,26.2499991989136
289,275,37085,2,0,P|265:275|225:262,1,52.4999983978272,6|0,3:0|0:0,0:0:0:0:
113,150,37460,5,0,1:0:0:0:
412,378,37741,1,0,1:0:0:0:
460,6,38022,2,0,L|455:50,1,34.9999989318848,0|4,1:0|0:3,0:0:0:0:
445,112,38210,5,0,1:0:0:0:
445,112,38960,6,0,P|407:115|356:140,1,67.5000002574921,4|0,0:0|0:0,0:0:0:0:
231,272,39335,2,0,P|251:279|272:282,2,41.6666666666667,2|0|0,0:0|0:0|0:0,0:0:0:0:
172,217,39710,1,0,1:0:0:0:
172,217,40085,2,0,L|167:164,1,52.4999983978272,2|0,0:0|0:0,0:0:0:0:
163,120,40366,1,0,1:0:0:0:
167,165,40460,6,0,B|79:186|108:132|2:157,1,157.499995193482,2|0,0:0|0:3,0:0:0:0:
21,161,41116,1,4,0:3:0:0:
21,161,41210,2,0,P|70:184|79:194,1,52.4999983978272,0|0,1:3|0:3,0:3:0:0:
68,182,41491,1,2,0:0:0:0:
68,182,41585,1,2,0:3:0:0:
229,103,41772,1,2,0:0:0:0:
185,91,41866,1,0,1:0:0:0:
229,103,41960,6,0,B|260:203|201:169|234:280,1,157.499995193482,2|0,0:0|0:3,0:0:0:0:
234,263,42616,1,4,0:3:0:0:
234,263,42710,2,0,L|298:254,1,52.4999983978272,0|0,1:0|0:0,0:0:0:0:
474,173,43085,2,0,L|415:166,1,52.4999983978272,2|0,0:0|0:0,0:0:0:0:
377,169,43366,1,0,1:0:0:0:
344,199,43460,5,0,1:0:0:0:
385,93,43647,1,4,0:3:0:0:
332,278,43835,2,0,P|307:269|285:255,1,52.4999983978272,6|0,0:3|0:0,0:0:0:0:
225,141,44210,5,0,1:0:0:0:
244,183,44303,1,0,1:0:0:0:
312,111,44491,1,8,0:3:0:0:
306,99,44585,2,0,P|281:84|250:75,1,52.4999983978272,8|4,0:3|0:3,0:0:0:0:
41,116,44960,6,0,L|38:184,1,52.4999983978272,4|0,0:0|0:0,0:0:0:0:
167,247,45335,2,0,L|162:197,2,34.9999989318848,2|2|2,0:0|0:0|0:0,0:0:0:0:
179,324,45710,1,0,1:0:0:0:
179,324,46085,2,0,P|236:340|249:349,1,52.4999983978272,2|0,0:0|0:0,0:0:0:0:
265,363,46366,1,0,1:0:0:0:
230,337,46460,6,0,L|242:168,1,157.499995193482,2|0,0:0|0:3,0:0:0:0:
248,186,47116,1,4,0:3:0:0:
248,186,47210,2,0,P|310:172|319:168,1,52.4999983978272,0|0,1:0|0:0,0:0:0:0:
299,176,47491,1,2,0:0:0:0:
299,176,47585,1,2,0:0:0:0:
250,39,47772,1,2,0:0:0:0:
245,83,47866,1,0,1:0:0:0:
250,39,47960,6,0,B|166:26|190:75|76:49,1,157.499995193482,2|0,0:0|0:3,0:0:0:0:
103,59,48616,1,4,0:3:0:0:
103,59,48710,2,0,P|77:74|54:103,1,52.4999983978272,0|0,1:0|0:0,0:0:0:0:
270,135,49085,2,0,P|243:121|198:119,1,52.4999983978272,2|0,0:3|0:0,0:0:0:0:
60,169,49460,5,0,1:0:0:0:
90,206,49553,2,0,L|87:270,1,57.5000010967255,0|0,1:0|0:0,0:0:0:0:
85,312,49835,1,2,0:0:0:0:
134,140,50022,1,0,1:0:0:0:
14,234,50210,1,8,0:3:0:0:
9,247,50303,1,8,0:3:0:0:
4,260,50397,1,8,0:3:0:0:
200,177,50585,1,0,1:0:0:0:
236,205,50678,2,0,P|248:236|252:297,1,67.5000002574921,0|0,1:0|0:0,0:0:0:0:
250,283,50960,6,0,L|385:267,1,125,4|0,0:0|0:0,0:0:0:0:
334,185,51522,1,0,0:0:0:0:
334,185,51616,1,0,0:0:0:0:
334,185,51710,2,0,P|364:193|403:194,1,52.4999983978272,0|0,1:0|0:0,0:0:0:0:
337,78,52085,2,0,P|354:100|377:117,1,52.4999983978272,4|0,0:3|0:0,0:0:0:0:
506,12,52460,2,0,P|466:15|405:46,1,104.999996795654,4|0,3:3|0:0,0:0:0:0:
452,110,53022,1,4,0:3:0:0:
358,245,53210,5,8,0:0:0:0:
319,111,53397,1,0,0:0:0:0:
333,83,53491,1,8,0:0:0:0:
319,111,53585,1,0,0:0:0:0:
197,175,53772,1,8,0:0:0:0:
332,325,53960,6,0,L|426:311,1,78.7499975967408,4|0,3:0|0:0,0:0:0:0:
423,311,54335,1,0,0:0:0:0:
358,245,54522,1,0,0:0:0:0:
486,157,54710,2,0,P|479:197|463:224,1,52.4999983978272,8|0,0:0|0:0,0:0:0:0:
403,73,55085,2,0,P|417:123|417:140,1,52.4999983978272,4|0,0:3|0:0,0:0:0:0:
247,28,55460,2,0,P|292:39|325:65,1,78.7499975967408,4|0,3:3|0:0,0:0:0:0:
326,68,55835,1,0,0:0:0:0:
259,109,56022,1,4,0:3:0:0:
299,227,56210,5,8,0:0:0:0:
195,152,56397,1,0,0:0:0:0:
169,170,56491,1,8,0:0:0:0:
195,152,56585,1,0,0:0:0:0:
159,29,56772,1,8,0:0:0:0:
102,233,56960,6,0,P|142:249|194:250,1,78.7499975967408,4|0,0:0|0:0,0:0:0:0:
191,251,57335,1,4,0:3:0:0:
171,332,57522,1,0,2:0:0:0:
171,332,57616,1,0,2:0:0:0:
171,332,57710,2,0,L|164:402,1,52.4999983978272,8|0,2:0|2:0,2:0:0:0:
262,278,58085,2,0,L|269:349,1,52.4999983978272,4|0,2:3|2:0,2:0:0:0:
191,180,58460,1,4,3:3:0:0:
262,164,58647,1,0,2:0:0:0:
355,235,58835,2,0,L|375:301,1,52.4999983978272,0|4,2:0|2:3,2:0:0:0:
476,102,59210,5,8,0:0:0:0:
360,107,59397,1,0,0:0:0:0:
345,134,59491,1,8,0:0:0:0:
360,107,59585,1,0,0:0:0:0:
303,1,59772,2,0,L|253:9,1,28.7500005483627,8|0,0:0|0:0,0:0:0:0:
190,69,59960,6,0,L|261:80,1,57.5000010967255,4|0,3:3|0:0,0:0:0:0:
280,86,60241,1,0,0:0:0:0:
280,86,60335,2,0,P|263:112|254:156,1,57.5000010967255,4|0,0:3|0:0,0:0:0:0:
238,259,60710,2,0,P|227:234|208:206,1,57.5000010967255,8|0,0:0|0:0,0:0:0:0:
210,208,60991,1,0,0:0:0:0:
210,208,61085,1,6,0:3:0:0:
138,196,61272,1,0,0:0:0:0:
52,277,61460,5,0,1:0:0:0:
303,40,61741,1,0,1:0:0:0:
382,375,62022,2,0,L|370:328,1,34.9999989318848,0|4,1:0|0:3,0:0:0:0:
356,269,62210,5,0,1:0:0:0:
356,269,62960,6,0,P|303:272|250:246,1,101.250000386238,4|0,0:0|0:0,0:0:0:0:
249,242,63335,1,0,0:0:0:0:
178,331,63522,1,0,0:0:0:0:
178,331,63616,1,0,0:0:0:0:
178,331,63710,2,0,P|179:283|186:262,1,57.5000010967255,0|0,1:0|0:0,0:0:0:0:
310,377,64085,2,0,P|307:330|300:312,1,52.4999983978272
222,147,64460,2,0,L|168:153,2,34.9999989318848,4|0|0,3:3|0:0|0:0,0:0:0:0:
307,122,64835,2,0,L|367:127,1,52.4999983978272,0|0,0:3|0:3,0:0:0:0:
365,132,65116,1,4,0:3:0:0:
365,132,65210,6,0,P|379:93|376:18,1,104.999996795654,0|0,1:0|0:0,0:0:0:0:
308,241,65772,1,0,1:0:0:0:
486,217,65960,6,0,L|389:209,1,78.7499975967408,4|0,3:3|0:0,0:0:0:0:
394,209,66335,1,4,0:3:0:0:
438,292,66522,1,0,0:0:0:0:
438,292,66616,1,0,0:0:0:0:
438,292,66710,2,0,P|394:302|374:312,1,52.4999983978272,0|0,1:0|0:0,0:0:0:0:
231,200,67085,1,4,0:3:0:0:
208,273,67272,1,0,0:0:0:0:
208,273,67366,1,0,0:0:0:0:
208,273,67460,2,0,L|214:331,1,52.4999983978272,4|0,3:0|0:0,0:0:0:0:
143,168,67835,2,0,L|137:226,1,52.4999983978272
332,96,68210,5,0,1:0:0:0:
184,108,68397,1,0,0:0:0:0:
226,94,68491,1,0,1:0:0:0:
184,108,68585,1,0,0:0:0:0:
307,29,68772,1,0,1:0:0:0:
245,177,68960,6,0,P|308:200|335:202,1,78.7499975967408,4|0,0:0|0:0,0:0:0:0:
332,203,69335,2,0,L|395:198,1,52.4999983978272,4|0,0:3|0:0,0:0:0:0:
474,102,69710,2,0,L|451:149,1,52.4999983978272,0|0,1:0|0:0,0:0:0:0:
489,273,70085,2,0,L|459:229,1,52.4999983978272,4|0,0:3|0:0,0:0:0:0:
247,262,70460,2,0,P|235:289|230:326,1,52.4999983978272,4|0,3:3|0:0,0:0:0:0:
230,311,70741,1,0,0:0:0:0:
230,311,70835,1,0,0:0:0:0:
175,230,71022,1,4,0:3:0:0:
175,230,71116,1,4,0:3:0:0:
175,230,71210,5,0,1:0:0:0:
54,325,71397,1,0,0:0:0:0:
64,281,71491,1,0,1:0:0:0:
54,325,71585,1,0,0:0:0:0:
1,187,71772,2,0,L|-43:194,1,28.7500005483627,0|0,1:0|0:0,0:0:0:0:
83,208,71960,6,0,P|94:151|92:135,1,57.5000010967255,4|0,3:0|0:0,0:0:0:0:
94,152,72241,1,2,0:0:0:0:
94,152,72335,1,2,0:0:0:0:
68,82,72522,1,4,0:3:0:0:
68,82,72616,1,4,0:3:0:0:
68,82,72710,2,0,L|146:74,1,57.5000010967255,0|0,1:0|0:0,0:0:0:0:
162,89,72991,1,2,0:0:0:0:
162,89,73085,2,0,P|221:101|236:99,1,57.5000010967255,6|0,0:3|0:0,0:0:0:0:
426,29,73460,5,0,1:0:0:0:
180,233,73741,1,0,1:0:0:0:
480,345,74022,2,0,L|435:327,1,34.9999989318848,0|4,1:0|0:3,0:0:0:0:
377,308,74210,5,0,1:0:0:0:
377,308,74960,6,0,B|260:274|299:375|153:319,1,202.500000772476,4|2,0:0|0:0,0:0:0:0:
190,336,75616,1,2,0:0:0:0:
190,336,75710,2,0,P|183:305|182:270,1,57.5000010967255,0|0,1:0|0:0,0:0:0:0:
295,173,76085,1,4,0:3:0:0:
212,144,76272,1,0,0:0:0:0:
212,144,76366,1,0,0:0:0:0:
212,144,76460,1,4,3:3:0:0:
212,144,76710,2,0,P|222:180|222:218,1,76.6666681289673,2|2,0:0|0:0,0:0:0:0:
51,66,77210,5,0,1:0:0:0:
139,193,77397,1,0,0:0:0:0:
93,187,77491,1,0,1:0:0:0:
139,193,77585,1,0,0:0:0:0:
19,282,77772,1,0,1:0:0:0:
201,344,77960,6,0,L|290:332,2,76.6666681289673,4|2|2,3:3|0:0|0:0,0:0:0:0:
19,282,78710,2,0,P|52:292|80:308,1,57.5000010967255,0|0,1:0|0:0,0:0:0:0:
96,193,79085,2,0,P|114:221|126:252,1,57.5000010967255,4|0,0:3|0:0,0:0:0:0:
323,158,79460,2,0,L|263:165,1,57.5000010967255,4|0,3:3|0:0,0:0:0:0:
223,183,79741,1,0,1:0:0:0:
201,223,79835,1,0,1:0:0:0:
301,237,80022,1,8,0:3:0:0:
187,348,80210,5,4,0:3:0:0:
260,327,80397,1,8,0:3:0:0:
57,250,80585,1,8,0:3:0:0:
129,264,80772,1,4,0:3:0:0:
2,158,80960,6,0,P|10:75|27:38,1,115.000002193451,4|4,0:0|0:3,0:0:0:0:
150,0,81522,1,0,0:0:0:0:
150,0,81616,1,0,0:0:0:0:
150,0,81710,2,0,L|76:7,1,57.5000010967255,0|0,1:0|0:0,0:0:0:0:
169,111,82085,2,0,L|243:118,1,57.5000010967255,4|0,0:3|0:0,0:0:0:0:
347,36,82460,2,0,P|386:19|414:17,1,57.5000010967255,4|0,3:3|0:0,0:0:0:0:
435,24,82741,1,0,0:0:0:0:
435,24,82835,2,0,P|460:41|483:75,1,57.5000010967255,0|4,0:0|0:3,0:0:0:0:
436,226,83210,5,0,1:0:0:0:
301,140,83397,1,0,0:0:0:0:
345,152,83491,1,0,1:0:0:0:
301,140,83585,1,0,0:0:0:0:
457,140,83772,1,0,1:0:0:0:
263,208,83960,6,0,P|250:278|252:307,1,86.2500016450882,4|0,3:0|0:0,0:0:0:0:
253,306,84335,2,0,L|260:367,1,57.5000010967255,4|0,0:3|0:0,0:0:0:0:
259,363,84616,1,0,0:0:0:0:
259,363,84710,1,0,1:0:0:0:
331,324,84897,1,0,0:0:0:0:
183,347,85085,2,0,P|147:340|116:323,1,57.5000010967255,4|0,0:3|0:0,0:0:0:0:
90,199,85460,2,0,P|101:233|102:269,1,57.5000010967255,4|0,3:0|0:0,0:0:0:0:
8,354,85835,2,0,P|32:326|62:307,1,57.5000010967255,2|4,0:0|0:3,0:0:0:0:
238,236,86210,5,0,1:0:0:0:
150,100,86397,1,0,0:0:0:0:
156,145,86491,1,0,1:0:0:0:
150,100,86585,1,0,0:0:0:0:
103,254,86772,1,0,1:0:0:0:
31,151,86960,5,4,3:0:0:0:
31,151,87335,2,0,L|91:159,1,52.4999983978272,2|4,0:0|0:3,0:0:0:0:
240,108,87710,2,0,L|192:138,1,52.4999983978272,10|0,0:0|0:0,0:0:0:0:
120,46,88085,2,0,L|128:101,1,52.4999983978272,2|0,0:0|0:0,0:0:0:0:
224,210,88460,2,0,P|221:181|207:151,1,52.4999983978272,4|0,3:3|0:0,0:0:0:0:
79,186,88835,2,0,P|81:214|89:240,1,52.4999983978272,2|4,0:0|0:3,0:0:0:0:
265,351,89210,5,10,0:0:0:0:
181,297,89397,1,2,0:0:0:0:
151,307,89491,1,8,0:0:0:0:
181,297,89585,1,2,0:0:0:0:
224,210,89772,1,10,0:0:0:0:
405,199,89960,5,4,3:3:0:0:
405,199,90335,1,2,0:0:0:0:
343,159,90522,1,4,0:3:0:0:
318,314,90710,2,0,L|328:259,1,52.4999983978272,10|0,0:0|0:0,0:0:0:0:
428,375,91085,2,0,L|421:322,1,52.4999983978272,2|0,0:0|0:0,0:0:0:0:
265,205,91460,2,0,P|235:209|204:222,1,52.4999983978272,4|0,3:0|0:0,0:0:0:0:
193,255,91741,1,0,1:0:0:0:
185,297,91835,6,0,P|136:289|101:258,1,83.3333333333333,0|8,1:0|0:3,0:0:0:0:
75,199,92210,6,0,B|98:224|98:224|105:271,1,69.9999978637696,8|8,0:3|0:3,0:0:0:0:
16,221,92585,6,0,P|33:204|73:196,1,56.6666677474976,4|4,0:3|0:3,0:0:0:0:
262,282,92960,5,4,0:0:0:0:
165,10,93335,2,0,L|159:115,1,90.0000003433228,4|0,0:3|0:0,0:0:0:0:
157,176,93710,2,0,L|160:109,1,45.0000001716614,0|0,1:0|0:0,0:0:0:0:
334,38,94085,2,0,P|295:30|238:61,1,90.0000003433228,4|0,0:3|0:0,0:0:0:0:
242,129,94460,6,0,P|272:153|331:158,1,90.0000003433228,4|0,3:0|0:0,0:0:0:0:
377,106,94835,1,4,0:3:0:0:
271,252,95085,1,0,0:0:0:0:
259,253,95210,1,0,1:0:0:0:
418,220,95460,1,4,0:3:0:0:
430,219,95585,1,0,0:3:0:0:
369,363,95835,1,0,0:0:0:0:
366,351,95960,6,0,L|352:240,1,90.0000003433228,4|0,3:3|0:0,0:0:0:0:
340,186,96335,2,0,P|292:155|241:152,1,90.0000003433228,4|0,0:3|0:0,0:0:0:0:
190,157,96710,2,0,L|263:150,1,45.0000001716614,0|0,1:0|0:0,0:0:0:0:
52,169,97085,2,0,P|32:132|30:80,1,90.0000003433228,4|0,0:3|0:0,0:0:0:0:
98,46,97460,6,0,P|138:64|184:63,1,90.0000003433228,4|0,3:3|0:0,0:0:0:0:
247,23,97835,1,0,0:0:0:0:
188,169,98085,1,0,0:0:0:0:
196,159,98210,2,0,P|227:140|288:143,1,90.0000003433228,0|4,1:0|0:3,0:0:0:0:
346,180,98585,1,0,0:0:0:0:
150,234,98835,1,0,1:0:0:0:
151,247,98960,6,0,L|161:364,1,90.0000003433228,4|0,3:3|0:0,0:0:0:0:
222,383,99335,1,4,0:3:0:0:
397,278,99585,1,0,0:0:0:0:
397,290,99710,2,0,L|392:346,1,45.0000001716614,0|0,1:0|0:0,0:0:0:0:
262,206,100085,2,0,P|272:126|291:105,1,90.0000003433228,4|0,0:3|0:0,0:0:0:0:
348,88,100460,5,4,3:0:0:0:
195,78,100710,1,0,0:0:0:0:
181,75,100835,1,4,0:3:0:0:
148,212,101085,1,0,0:0:0:0:
136,214,101210,2,0,L|75:220,1,45.0000001716614,0|0,1:0|0:0,0:0:0:0:
0,228,101460,1,4,0:3:0:0:
13,226,101585,1,0,0:0:0:0:
14,368,101835,1,0,1:0:0:0:
20,358,101960,6,0,P|74:336|121:345,1,90.0000003433228,4|0,3:3|0:0,0:0:0:0:
177,372,102335,2,0,P|242:364|277:336,1,90.0000003433228,4|0,0:3|0:0,0:0:0:0:
293,291,102710,2,0,L|269:340,1,45.0000001716614,0|0,1:0|0:0,0:0:0:0:
356,132,103085,1,4,0:3:0:0:
366,260,103335,1,0,1:0:0:0:
360,249,103460,6,0,P|329:221|266:215,1,90.0000003433228,4|0,3:3|0:0,0:0:0:0:
225,155,103835,2,0,P|176:173|147:214,1,90.0000003433228,4|0,0:3|0:0,0:0:0:0:
148,271,104210,2,0,L|151:205,1,45.0000001716614,0|0,1:0|0:0,0:0:0:0:
83,191,104460,1,0,0:0:0:0:
73,186,104585,2,0,L|66:92,1,90.0000003433228,4|0,0:3|0:0,0:0:0:0:
58,17,104960,5,8,3:3:0:0:
250,54,105210,1,8,0:3:0:0:
255,64,105335,2,0,P|213:49|186:48,1,56.6666677474976,4|0,3:0|0:0,0:0:0:0:
141,124,105710,6,0,B|270:103|228:193|388:152,1,241.666674041748,4|0,1:2|0:0,0:0:0:0:
440,110,106460,5,8,3:0:0:0:
345,241,106710,1,8,0:3:0:0:
352,250,106835,2,0,P|401:234|427:234,1,56.6666677474976,4|0,0:3|0:0,0:0:0:0:
468,310,107210,6,0,B|339:289|390:374|221:338,1,241.666674041748,4|0,1:2|0:0,0:0:0:0:
173,294,107960,6,0,L|164:201,1,90.0000003433228,4|0,0:0|0:0,0:0:0:0:
191,127,108335,2,0,P|143:126|86:170,1,90.0000003433228,4|0,0:3|0:0,0:0:0:0:
73,203,108710,2,0,L|109:143,1,45.0000001716614,0|0,1:0|0:0,0:0:0:0:
0,3,109085,2,0,L|110:12,1,90.0000003433228,4|0,0:3|0:0,0:0:0:0:
168,16,109460,5,4,3:3:0:0:
214,190,109710,1,0,1:0:0:0:
218,179,109835,2,0,P|268:152|319:157,1,90.0000003433228,4|0,0:3|0:0,0:0:0:0:
368,166,110210,2,0,L|300:151,1,45.0000001716614,0|0,1:0|0:0,0:0:0:0:
374,93,110460,1,4,0:3:0:0:
387,88,110585,1,0,0:0:0:0:
217,19,110835,1,0,1:0:0:0:
224,29,110960,6,0,P|265:48|328:40,1,90.0000003433228,4|0,3:3|0:0,0:0:0:0:
377,13,111335,2,0,P|445:18|481:48,1,90.0000003433228,4|0,0:3|0:0,0:0:0:0:
497,82,111710,2,0,L|461:20,1,45.0000001716614,0|0,1:0|0:0,0:0:0:0:
408,88,111960,1,0,0:0:0:0:
407,101,112085,2,0,L|398:217,1,90.0000003433228,4|0,0:3|0:0,0:0:0:0:
392,271,112460,5,4,3:3:0:0:
245,172,112710,1,0,0:0:0:0:
246,184,112835,2,0,L|255:298,1,90.0000003433228
259,343,113210,2,0,L|253:277,1,45.0000001716614,0|0,1:0|0:0,0:0:0:0:
175,260,113460,1,4,0:3:0:0:
163,257,113585,1,0,0:0:0:0:
33,372,113835,1,0,1:0:0:0:
21,375,113960,6,0,P|0:322|10:263,1,90.0000003433228,0|0,3:0|0:0,0:0:0:0:
50,229,114335,2,0,P|62:186|57:134,1,90.0000003433228,4|0,0:3|0:0,0:0:0:0:
35,78,114710,2,0,L|55:143,1,45.0000001716614,0|0,1:0|0:0,0:0:0:0:
134,144,114960,1,0,0:0:0:0:
146,142,115085,2,0,L|256:133,1,90.0000003433228,4|0,0:3|0:0,0:0:0:0:
314,126,115460,5,4,3:3:0:0:
135,22,115710,1,0,0:0:0:0:
125,28,115835,1,0,1:0:0:0:
375,62,116085,1,0,1:0:0:0:
368,52,116210,2,0,P|347:42|317:37,2,45.0000001716614,0|8|8,1:0|0:3|0:3,0:0:0:0:
440,104,116585,2,0,P|461:94|492:91,2,45.0000001716614,4|4|4,0:3|0:3|0:3,0:0:0:0:
404,175,116960,5,4,0:3:0:0:
404,175,117710,6,0,B|380:171|356:181|356:181|338:172|324:153|324:153|218:132|149:239,1,258.33333530426,4|0,1:2|0:0,0:0:0:0:
124,263,118460,6,0,P|87:276|13:253,1,83.3333333333333,4|0,3:3|0:0,0:0:0:0:
0,207,118835,2,0,L|-11:97,1,83.3333333333333,4|0,0:3|0:0,0:0:0:0:
0,59,119210,2,0,L|-9:122,1,41.6666666666667,0|0,1:0|0:0,0:0:0:0:
211,29,119585,2,0,P|140:34|109:61,1,83.3333333333333,4|0,0:3|0:0,0:0:0:0:
123,115,119960,6,0,P|161:139|220:140,1,83.3333333333333,4|0,3:3|0:0,0:0:0:0:
271,105,120335,2,0,L|279:196,1,83.3333333333333,4|0,0:3|0:0,0:0:0:0:
287,260,120710,2,0,L|281:206,1,41.6666666666667,0|0,1:0|0:0,0:0:0:0:
79,240,121085,1,4,0:3:0:0:
294,363,121335,1,0,1:0:0:0:
290,351,121460,6,0,P|222:331|190:341,1,83.3333333333333,4|0,3:3|0:0,0:0:0:0:
144,367,121835,2,0,P|102:367|65:348,1,83.3333333333333,4|0,0:3|0:0,0:0:0:0:
21,288,122210,2,0,L|48:328,1,41.6666666666667,0|0,1:0|0:0,0:0:0:0:
121,295,122460,1,4,0:3:0:0:
126,282,122585,2,0,L|129:187,1,83.3333333333333
130,123,122960,6,0,P|194:96|228:104,1,83.3333333333333,4|0,3:3|0:0,0:0:0:0:
271,130,123335,1,4,0:3:0:0:
444,56,123585,1,0,0:0:0:0:
431,58,123710,2,0,L|379:65,1,41.6666666666667,0|0,1:0|0:0,0:0:0:0:
347,133,123960,1,0,0:0:0:0:
360,135,124085,2,0,L|457:145,1,83.3333333333333,4|0,0:3|0:0,0:0:0:0:
509,184,124460,5,4,3:3:0:0:
302,260,124710,1,0,0:0:0:0:
308,250,124835,2,0,P|355:233|398:240,1,83.3333333333333,4|0,0:3|0:0,0:0:0:0:
454,278,125210,1,0,1:0:0:0:
281,343,125460,1,4,0:3:0:0:
279,331,125585,1,0,0:0:0:0:
319,142,125835,1,0,1:0:0:0:
317,155,125960,6,0,P|284:170|218:165,1,83.3333333333333,4|0,3:3|0:0,0:0:0:0:
165,149,126335,2,0,P|123:148|85:165,1,83.3333333333333,4|0,0:3|0:0,0:0:0:0:
33,221,126710,1,0,1:0:0:0:
220,268,126960,1,0,0:0:0:0:
211,257,127085,2,0,P|171:233|119:231,1,83.3333333333333,4|0,0:3|0:0,0:0:0:0:
83,285,127460,5,0,3:0:0:0:
165,149,127710,1,0,1:0:0:0:
162,137,127835,1,4,0:3:0:0:
323,184,128085,1,0,0:0:0:0:
325,172,128210,2,0,L|333:121,1,41.6666666666667,0|0,1:0|0:0,0:0:0:0:
246,122,128460,1,4,0:3:0:0:
249,134,128585,1,0,0:0:0:0:
418,49,128835,1,0,1:0:0:0:
421,37,128960,6,0,P|459:38|505:60,1,85.0000016212464,4|4,0:3|0:3,0:0:0:0:
501,57,129710,6,0,B|458:53|458:53|428:73|428:73|349:57|371:109|325:115|285:114|246:95,1,241.666674041748,4|0,1:2|0:0,0:0:0:0:
188,44,130460,6,0,L|199:153,1,83.3333333333333,4|0,3:3|0:0,0:0:0:0:
140,176,130835,2,0,L|129:285,1,83.3333333333333,4|0,0:3|0:0,0:0:0:0:
125,331,131210,2,0,L|131:269,1,41.6666666666667,2|0,1:2|0:0,0:0:0:0:
312,255,131585,2,0,P|271:260|238:285,1,83.3333333333333
319,381,131960,5,4,3:2:0:0:
471,39,132335,2,0,L|363:31,1,83.3333333333333,4|0,0:3|0:0,0:0:0:0:
319,27,132710,2,0,L|391:34,1,41.6666666666667,0|0,1:0|0:0,0:0:0:0:
146,76,133085,2,0,P|186:83|220:106,1,83.3333333333333,4|0,0:3|0:0,0:0:0:0:
270,171,133460,6,0,P|333:183|377:168,1,83.3333333333333,4|0,3:3|0:0,0:0:0:0:
430,142,133835,2,0,L|423:248,1,83.3333333333333,4|0,0:3|0:0,0:0:0:0:
419,300,134210,2,0,L|423:236,1,41.6666666666667,0|0,1:0|0:0,0:0:0:0:
344,269,134460,1,4,0:3:0:0:
332,272,134585,1,0,0:0:0:0:
183,152,134835,1,0,1:0:0:0:
194,157,134960,6,0,P|215:191|220:241,1,83.3333333333333,4|0,3:3|0:0,0:0:0:0:
182,304,135335,2,0,L|91:313,1,83.3333333333333,4|0,0:3|0:0,0:0:0:0:
28,320,135710,2,0,L|100:314,1,41.6666666666667,0|0,1:0|0:0,0:0:0:0:
154,31,136085,2,0,P|133:83|150:142,1,83.3333333333333,4|0,0:3|0:0,0:0:0:0:
194,157,136460,6,0,P|266:135|305:146,1,83.3333333333333,4|0,3:3|0:0,0:0:0:0:
344,162,136835,2,0,P|385:159|422:140,1,83.3333333333333,0|4,0:0|0:3,0:0:0:0:
456,79,137210,2,0,L|431:126,1,41.6666666666667,0|0,1:0|0:0,0:0:0:0:
485,187,137460,1,4,0:3:0:0:
487,201,137585,2,0,L|494:291,1,83.3333333333333,0|0,1:0|1:0,0:0:0:0:
461,351,137960,6,0,P|386:342|359:319,1,83.3333333333333,4|0,3:3|0:0,0:0:0:0:
314,299,138335,2,0,P|239:308|212:331,1,83.3333333333333,4|0,0:3|0:0,0:0:0:0:
184,361,138710,2,0,L|219:327,1,41.6666666666667,0|0,1:0|0:0,0:0:0:0:
204,235,138960,1,0,0:0:0:0:
193,240,139085,2,0,P|158:243|99:208,1,83.3333333333333,4|0,0:3|0:0,0:0:0:0:
66,161,139460,5,4,3:3:0:0:
201,53,139710,1,0,1:0:0:0:
196,66,139835,1,0,1:0:0:0:
414,211,140085,1,0,1:0:0:0:
410,198,140210,1,0,1:0:0:0:
406,185,140335,2,0,P|358:173|335:174,1,41.6666666666667,0|8,1:0|0:3,0:0:0:0:
272,244,140585,2,4,P|316:224|338:222,2,41.6666666666667,4|4|4,0:3|0:3|0:3,0:3:0:0:
230,311,140960,5,2,0:0:0:0:
390,23,151460,5,0,1:0:0:0:
92,127,151741,1,0,1:0:0:0:
332,334,152022,2,0,L|301:308,1,34.9999989318848,0|4,1:0|0:3,0:0:0:0:
249,266,152210,5,0,1:0:0:0:
249,266,152960,6,0,P|299:268|350:257,1,101.250000386238,4|0,0:0|0:0,0:0:0:0:
360,253,153335,1,0,0:0:0:0:
434,354,153522,1,0,0:0:0:0:
434,354,153616,1,0,0:0:0:0:
434,354,153710,2,0,P|423:314|423:285,1,57.5000010967255,0|0,1:0|0:0,0:0:0:0:
457,185,154085,1,0,0:0:0:0:
302,146,154272,1,0,0:0:0:0:
278,184,154366,1,0,1:0:0:0:
302,146,154460,6,0,P|309:113|308:86,1,52.4999983978272,4|4,3:3|0:3,0:0:0:0:
196,12,154835,1,0,0:0:0:0:
126,116,155022,1,4,0:3:0:0:
112,119,155116,1,4,0:3:0:0:
85,87,155210,1,0,1:0:0:0:
71,90,155303,2,0,L|-4:82,1,52.4999983978272,4|0,0:3|0:0,0:0:0:0:
6,84,155585,1,4,0:3:0:0:
100,273,155772,1,0,0:0:0:0:
105,317,155866,1,0,1:0:0:0:
100,273,155960,6,0,P|141:261|169:262,1,52.4999983978272,4|4,3:3|0:3,0:0:0:0:
305,355,156335,2,0,P|330:351|355:342,1,52.4999983978272
355,342,156616,1,4,0:3:0:0:
355,342,156710,1,0,1:0:0:0:
310,279,156897,1,0,0:0:0:0:
436,318,157085,1,0,0:0:0:0:
412,152,157272,1,0,0:0:0:0:
398,194,157366,1,0,1:0:0:0:
412,152,157460,6,0,P|367:135|351:134,1,52.4999983978272,4|4,3:3|0:3,0:0:0:0:
248,159,157835,1,0,0:0:0:0:
267,7,158022,1,4,0:3:0:0:
274,19,158116,1,4,0:3:0:0:
254,56,158210,1,0,1:0:0:0:
261,69,158303,2,0,L|190:76,1,52.4999983978272,4|0,0:3|0:0,0:0:0:0:
195,75,158585,1,4,0:3:0:0:
219,181,158772,1,0,0:0:0:0:
254,154,158866,1,0,1:0:0:0:
219,181,158960,6,0,L|145:175,1,52.4999983978272,4|4,3:3|0:3,0:0:0:0:
43,229,159335,1,0,0:0:0:0:
116,311,159522,1,0,0:0:0:0:
129,305,159616,1,4,0:3:0:0:
159,335,159710,2,0,L|216:341,1,52.4999983978272,0|0,1:0|0:0,0:0:0:0:
371,331,160085,2,0,L|303:321,1,52.4999983978272
280,296,160366,1,0,1:0:0:0:
266,254,160460,5,0,1:0:0:0:
273,211,160553,1,0,1:0:0:0:
273,211,160647,1,4,0:3:0:0:
507,233,160835,2,0,L|414:224,1,78.7499975967408,4|0,0:3|0:0,0:0:0:0:
386,229,161210,5,0,1:0:0:0:
345,246,161303,1,0,1:0:0:0:
471,150,161491,1,0,1:0:0:0:
443,114,161585,2,0,P|389:100|375:99,1,52.4999983978272,4|0,0:3|0:0,0:0:0:0:
392,100,161866,1,4,0:3:0:0:
392,100,161960,5,4,3:3:0:0:
512,33,162147,1,0,1:0:0:0:
338,54,162335,1,0,0:0:0:0:
329,65,162428,1,8,0:3:0:0:
323,77,162522,1,0,3:3:0:0:
320,91,162616,1,4,0:3:0:0:
320,105,162710,2,0,L|264:112,1,52.4999983978272,4|0,0:3|0:0,0:0:0:0:
224,120,162991,1,0,1:0:0:0:
192,151,163085,1,0,1:0:0:0:
192,151,163178,1,8,2:3:0:0:
192,151,163272,1,4,2:3:0:0:
400,106,163460,5,0,1:0:0:0:
49,36,163741,1,0,1:0:0:0:
165,355,164022,2,0,L|149:311,1,34.9999989318848,0|4,1:0|0:3,0:0:0:0:
126,250,164210,5,0,1:0:0:0:
256,192,166835,12,0,170960,0:0:0:0:
