osu file format v14

[General]
AudioFilename: audio.mp3
AudioLeadIn: 0
PreviewTime: 152772
Countdown: 0
SampleSet: Soft
StackLeniency: 0.7
Mode: 2
LetterboxInBreaks: 0
WidescreenStoryboard: 1

[Editor]
Bookmarks: 285
DistanceSpacing: 1.2
BeatDivisor: 3
GridSize: 16
TimelineZoom: 2.3

[Metadata]
Title:A Moment Of Silence/A Moment Of Violence
TitleUnicode:A Moment Of Silence/A Moment Of Violence
Artist:Streetlight Manifesto
ArtistUnicode:Streetlight Manifesto
Creator:Crowley
Version:Chaos is order, yet undeciphered.
Source:
Tags:Everything Goes Numb Ska Punk Jazz Catch 22 Marathon
BeatmapID:1887399
BeatmapSetID:903561

[Difficulty]
HPDrainRate:7
CircleSize:5
OverallDifficulty:9.6
ApproachRate:9.6
SliderMultiplier:2
SliderTickRate:1

[Events]
//Background and Video events
0,0,"h.jpg",0,0
//Break Periods
2,45785,172021
//Storyboard Layer 0 (Background)
//Storyboard Layer 1 (Fail)
//Storyboard Layer 2 (Pass)
//Storyboard Layer 3 (Foreground)
//Storyboard Sound Samples

[TimingPoints]
324,461.538461538462,4,2,4,50,1,0
554,500,4,2,4,50,1,0
679,461.538461538462,4,2,4,50,1,0
1025,428.571428571429,4,2,4,50,1,0
1382,461.538461538462,4,2,4,50,1,0
2145,500,4,2,4,50,1,0
2895,521.739130434783,4,2,4,50,1,0
3677,444.444444444444,4,2,4,50,1,0
3677,-153.846153846153,4,2,4,50,0,0
6343,461.538461538462,4,2,4,50,1,0
6573,545.454545454546,4,2,4,50,1,0
6709,480,4,2,4,50,1,0
7429,500,4,2,4,50,1,0
8179,600,4,2,4,50,1,0
8479,461.538461538462,4,2,4,50,1,0
8709,545.454545454546,4,2,4,50,1,0
8981,444.444444444444,4,2,4,50,1,0
10314,545.454545454546,4,2,4,50,1,0
10835,375,4,2,4,50,1,0
11960,375,4,2,1,50,1,0
23210,-66.6666666666667,4,2,1,50,0,0
25960,-83.3333333333333,4,2,1,50,0,0
26866,-100,4,2,1,50,0,0
38960,-100,4,2,3,60,0,0
50960,-100,4,2,3,60,0,0
52460,-100,4,2,1,50,0,0
62960,-100,4,2,3,60,0,0
74585,-76.9230769230769,4,2,1,50,0,0
74960,-100,4,2,3,50,0,0
86960,-100,4,2,1,40,0,0
91741,-100,4,2,3,50,0,0
92960,-100,4,2,3,60,0,1
104960,-100,4,2,3,60,0,0
105710,-100,4,2,3,60,0,1
106460,-100,4,2,3,60,0,0
107210,-100,4,2,3,60,0,1
107897,-100,4,2,3,60,0,0
107960,-100,4,2,3,60,0,1
117147,-100,4,2,3,30,0,0
117710,-66.6666666666667,4,2,3,60,0,1
118460,-100,4,2,3,60,0,1
129585,-100,4,2,3,60,0,0
129710,-66.6666666666667,4,2,3,60,0,1
130460,-100,4,2,3,60,0,0
131210,-100,4,2,3,60,0,1
131897,-100,4,2,3,60,0,0
131960,-100,4,2,3,60,0,1
140960,-200,4,2,3,20,0,0
151460,-100,4,2,3,60,0,0
152960,-83.3333333333333,4,2,3,60,0,0
164210,-66.6666666666667,4,2,3,60,0,0
172530,333.333333333333,4,2,2,50,1,0
173863,-100,4,2,2,70,0,1
179030,-100,4,2,2,70,0,0
179196,-100,4,2,2,70,0,1
184530,-100,4,2,2,60,0,0
189196,-66.6666666666667,4,2,2,60,0,0
189863,-100,4,2,2,60,0,0
195196,-100,4,2,2,50,0,0
224529,-90.9090909090909,4,2,2,70,0,1
224779,-90.9090909090909,4,2,2,50,0,0
224863,-83.3333333333333,4,2,2,50,0,1
225113,-83.3333333333333,4,2,2,50,0,0
225196,-76.9230769230769,4,2,2,50,0,1
225446,-76.9230769230769,4,2,2,50,0,0
225529,-100,4,2,2,50,0,0
227196,-100,4,2,2,60,0,1
237529,-100,4,2,2,60,0,0
237863,-83.3333333333333,4,2,2,70,0,1
243029,-83.3333333333333,4,2,2,70,0,0
243196,-83.3333333333333,4,2,2,70,0,1
248696,-83.3333333333333,4,2,2,70,0,0
249196,-50,4,2,2,70,0,1
249863,-100,4,2,2,70,0,1
259363,-100,4,2,2,70,0,0
259863,-50,4,2,2,70,0,1
260529,-100,4,2,2,70,0,1
269863,-100,4,2,2,50,0,0
291196,-100,4,2,2,20,0,0
291529,-66.6666666666667,4,2,2,30,0,0
292029,-66.6666666666667,4,2,2,20,0,0

[Colours]
Combo1 : 0,0,255
Combo2 : 128,255,128
Combo3 : 0,255,64
Combo4 : 0,128,255

[HitObjects]
173,175,324,6,0,L|79:171,1,50
173,175,554,1,0,0:0:0:0:
24,103,679,2,0,L|15:244,1,100
177,256,1025,2,0,L|43:254,1,100
268,206,1382,6,0,P|321:191|246:68,1,250
116,129,2145,2,0,L|222:131,2,100
288,62,2895,6,0,P|338:72|262:185,1,250
35,213,3677,2,0,L|441:215,1,389.999982147218
142,73,6343,6,0,L|137:161,1,50
212,175,6573,1,0,0:0:0:0:
330,217,6709,2,0,L|182:231,1,100
127,278,7069,2,0,L|244:290,1,100
429,307,7429,2,0,P|474:281|394:182,1,200
213,174,8179,6,0,L|328:180,1,100
459,191,8709,1,0,0:0:0:0:
46,71,8981,6,0,P|62:141|434:66,1,600
65,45,10835,6,0,L|60:162,1,100
309,201,11210,1,0,0:0:0:0:
183,203,11397,1,0,0:0:0:0:
378,124,11585,1,0,0:0:0:0:
115,113,11772,1,0,0:0:0:0:
372,53,11960,6,0,P|443:91|370:163,1,200
273,176,12522,1,0,0:0:0:0:
453,224,12710,1,0,0:0:0:0:
367,280,12897,2,0,L|482:298,2,100
203,285,13460,5,0,0:0:0:0:
293,270,13647,1,0,0:0:0:0:
186,184,13835,1,0,0:0:0:0:
277,171,14022,1,0,0:0:0:0:
13,87,14210,2,0,L|10:213,1,100
214,188,14491,2,0,L|285:190,1,50
11,101,14772,1,0,0:0:0:0:
278,102,14960,6,0,L|158:94,3,100
370,35,15710,1,0,0:0:0:0:
255,43,15897,2,0,L|181:165,2,100
93,41,16460,5,0,0:0:0:0:
93,41,16647,1,0,0:0:0:0:
207,42,16835,1,0,0:0:0:0:
93,41,17022,1,0,0:0:0:0:
349,87,17210,2,0,L|341:200,1,100
161,204,17491,2,0,L|227:199,1,50
458,185,17772,1,0,0:0:0:0:
198,288,17960,5,0,0:0:0:0:
299,284,18147,1,0,0:0:0:0:
393,280,18335,1,0,0:0:0:0:
488,274,18522,1,0,0:0:0:0:
317,191,18710,2,0,L|449:202,1,100
275,120,19085,2,0,L|216:131,2,50
109,60,19460,5,0,0:0:0:0:
123,141,19647,1,0,0:0:0:0:
208,192,19835,1,0,0:0:0:0:
305,198,20022,1,0,0:0:0:0:
109,321,20210,2,0,L|103:218,1,100
182,213,20491,1,0,0:0:0:0:
394,216,20585,2,0,L|379:154,1,50
228,159,20772,2,0,L|214:102,1,50
23,82,20960,5,0,0:0:0:0:
115,77,21147,1,0,0:0:0:0:
209,76,21335,1,0,0:0:0:0:
115,77,21522,1,0,0:0:0:0:
272,19,21710,1,0,0:0:0:0:
166,17,21897,1,0,0:0:0:0:
21,17,22085,1,0,0:0:0:0:
352,166,22272,1,0,0:0:0:0:
191,159,22366,1,0,0:0:0:0:
28,158,22460,6,0,L|141:148,1,100
401,271,22741,2,0,L|288:261,1,100
120,257,23022,1,0,0:0:0:0:
290,246,23116,1,0,0:0:0:0:
120,239,23210,2,0,P|46:195|161:91,1,300.000011444092
283,268,26022,5,0,0:0:0:0:
394,229,26147,2,0,L|208:209,1,159.999995117188
412,147,26522,1,0,0:0:0:0:
39,102,26960,5,0,0:0:0:0:
150,97,27147,2,0,P|212:125|140:217,1,200
300,206,27710,1,0,0:0:0:0:
148,319,27897,2,0,L|226:319,1,50
198,319,28085,1,0,0:0:0:0:
73,288,28272,1,0,0:0:0:0:
219,258,28460,5,0,0:0:0:0:
143,249,28585,1,0,0:0:0:0:
219,258,28710,1,0,0:0:0:0:
100,168,28835,1,0,0:0:0:0:
238,163,29022,1,0,0:0:0:0:
47,48,29210,2,0,L|31:163,1,100
209,206,29491,2,0,L|198:294,1,50
459,371,29772,1,0,0:0:0:0:
187,343,29960,6,0,L|310:343,1,100
198,255,30335,1,0,0:0:0:0:
301,253,30522,1,0,0:0:0:0:
25,140,30710,1,0,0:0:0:0:
219,143,30897,1,0,0:0:0:0:
54,84,31085,2,0,L|27:195,1,100
309,238,31460,5,0,0:0:0:0:
194,231,31585,1,0,0:0:0:0:
309,238,31710,1,0,0:0:0:0:
181,164,31835,1,0,0:0:0:0:
181,164,32022,1,0,0:0:0:0:
465,48,32210,2,0,L|481:163,1,100
303,206,32491,2,0,L|314:294,1,50
53,371,32772,2,0,L|44:306,1,50
287,278,32960,5,0,0:0:0:0:
190,266,33147,1,0,0:0:0:0:
332,218,33335,1,0,0:0:0:0:
332,218,33522,1,0,0:0:0:0:
159,176,33710,1,0,0:0:0:0:
256,164,33897,1,0,0:0:0:0:
114,116,34085,1,0,0:0:0:0:
114,116,34272,1,0,0:0:0:0:
306,80,34460,5,0,0:0:0:0:
180,42,34647,1,0,0:0:0:0:
177,82,34741,1,0,0:0:0:0:
172,120,34835,1,0,0:0:0:0:
306,80,35022,1,0,0:0:0:0:
47,48,35210,2,0,L|31:163,1,100
209,206,35491,2,0,L|198:294,1,50
459,371,35772,1,0,0:0:0:0:
134,309,35960,5,0,0:0:0:0:
221,305,36085,1,0,0:0:0:0:
134,309,36210,1,0,0:0:0:0:
134,309,36335,1,0,0:0:0:0:
264,302,36522,1,0,0:0:0:0:
81,262,36710,1,0,0:0:0:0:
222,241,36897,1,0,0:0:0:0:
177,239,36991,1,0,0:0:0:0:
135,239,37085,1,0,0:0:0:0:
135,239,37272,1,0,0:0:0:0:
466,142,37460,6,0,L|333:147,1,100
121,192,37741,2,0,L|248:199,1,100
394,207,38022,1,0,0:0:0:0:
236,202,38116,1,0,0:0:0:0:
424,211,38210,2,0,P|472:194|394:98,1,200
0,102,38960,6,0,L|145:111,1,133.333333333333
369,118,39335,1,0,0:0:0:0:
283,129,39460,1,0,0:0:0:0:
369,118,39585,1,0,0:0:0:0:
186,42,39710,2,0,P|135:85|208:123,1,150
398,190,40085,2,0,L|237:191,1,150
463,120,40460,6,0,P|482:192|383:265,1,200
236,266,41022,2,0,L|231:328,1,50
426,344,41210,2,0,L|481:235,1,100
287,262,41491,2,0,L|245:171,1,100
410,177,41772,2,0,L|431:120,1,50
175,106,41960,5,0,0:0:0:0:
299,97,42147,1,0,0:0:0:0:
299,97,42335,1,0,0:0:0:0:
299,97,42522,1,0,0:0:0:0:
258,97,42616,1,0,0:0:0:0:
89,93,42710,2,0,L|86:225,1,100
288,214,43085,2,0,L|146:202,1,100
346,184,43366,1,0,0:0:0:0:
388,185,43460,5,0,0:0:0:0:
484,193,43647,1,0,0:0:0:0:
256,69,43835,2,0,P|211:110|255:137,1,100
252,141,44085,1,0,0:0:0:0:
283,150,44147,1,0,0:0:0:0:
474,180,44210,1,0,0:0:0:0:
284,218,44303,1,0,0:0:0:0:
448,260,44491,2,0,L|455:193,1,50
315,204,44772,1,0,0:0:0:0:
14,219,44960,6,0,P|7:163|98:130,1,150
298,128,45335,1,0,0:0:0:0:
212,141,45460,1,0,0:0:0:0:
298,128,45585,1,0,0:0:0:0:
381,216,172530,6,0,L|421:213,2,33.3333333333333,2|2|2,0:3|0:3|0:3,0:0:0:0:
308,218,172696,1,2,0:3:0:0:
381,216,172779,1,2,3:0:0:0:
156,183,172863,2,0,L|92:182,1,50,2|2,3:0|0:0,0:0:0:0:
259,93,173029,2,0,L|267:169,1,50,8|0,0:0|0:0,0:0:0:0:
77,239,173196,2,0,L|11:244,1,50,8|8,0:0|0:0,0:0:0:0:
77,239,173363,2,0,L|133:244,1,50,8|8,0:3|0:3,0:0:0:0:
284,250,173529,2,0,L|333:220,1,50,8|8,0:0|0:0,0:0:0:0:
480,188,173696,2,0,L|492:136,1,50,8|8,0:0|0:0,0:0:0:0:
250,126,173863,6,0,L|194:125,1,50,6|0,0:0|0:0,0:0:0:0:
351,53,174029,2,0,P|398:102|331:189,1,150,10|0,0:0|0:0,0:0:0:0:
190,194,174363,2,0,L|282:190,1,50,10|0,0:0|0:0,0:0:0:0:
336,200,174529,2,0,L|200:198,1,100,0|8,0:0|0:0,0:0:0:0:
459,113,174863,2,0,L|401:112,1,50,2|0,0:0|0:0,0:0:0:0:
212,237,175029,2,0,L|144:234,1,50,10|0,0:0|0:0,0:0:0:0:
330,183,175196,6,0,P|342:151|296:100,1,100,2|8,0:0|0:0,0:0:0:0:
161,100,175446,2,0,L|219:101,1,50,2|0,0:0|0:0,0:0:0:0:
388,185,175613,1,2,0:0:0:0:
426,233,175696,1,8,0:0:0:0:
394,280,175779,1,0,0:0:0:0:
196,310,175863,2,0,L|274:308,1,50,2|0,0:0|0:0,0:0:0:0:
316,307,176029,1,8,0:0:0:0:
160,217,176196,2,0,L|238:215,1,50,2|0,0:0|0:0,0:0:0:0:
280,213,176362,1,8,0:0:0:0:
7,127,176529,5,6,0:0:0:0:
245,129,176696,2,0,L|303:133,1,50,10|0,0:0|0:0,0:0:0:0:
142,189,176863,2,0,L|78:197,1,50,2|0,0:0|0:0,0:0:0:0:
247,278,177029,2,0,L|315:288,1,50,10|0,0:0|0:0,0:0:0:0:
472,289,177196,2,0,P|488:230|448:198,1,100,2|8,0:0|0:0,0:0:0:0:
311,201,177446,2,0,L|243:203,2,50,2|0|0,0:0|0:0|0:0,0:0:0:0:
463,192,177696,2,0,L|465:247,1,50,8|0,0:0|0:0,0:0:0:0:
289,322,177863,6,0,P|273:263|313:231,1,100,2|8,0:0|0:0,0:0:0:0:
440,235,178113,2,0,L|508:237,2,50,2|0|0,0:0|0:0|0:0,0:0:0:0:
298,225,178363,2,0,L|296:280,1,50,8|0,0:0|0:0,0:0:0:0:
473,334,178529,2,0,L|419:332,1,50,10|8,0:0|0:0,0:0:0:0:
423,332,178696,2,0,L|477:332,1,50,8|8,0:0|0:0,0:0:0:0:
258,291,178863,2,8,L|171:296,1,50,10|8,0:0|0:0,0:0:0:0:
377,191,179029,2,8,L|439:195,1,50,8|8,0:0|0:0,0:0:0:0:
171,191,179196,5,4,0:0:0:0:
426,184,179363,2,0,L|434:255,1,50,10|0,0:0|0:0,0:0:0:0:
282,250,179529,2,0,L|279:317,1,50,2|0,0:0|0:0,0:0:0:0:
437,346,179696,2,0,L|381:348,1,50,8|0,0:0|0:0,0:0:0:0:
229,319,179863,2,0,L|367:317,1,100,2|8,0:0|0:0,0:0:0:0:
194,256,180113,2,0,L|189:203,1,50,2|0,0:0|0:0,0:0:0:0:
251,165,180279,1,0,0:0:0:0:
388,163,180363,2,0,L|316:162,1,50,10|0,0:0|0:0,0:0:0:0:
184,271,180529,6,0,L|322:269,1,100,2|8,0:0|0:0,0:0:0:0:
149,208,180779,2,0,L|144:155,1,50,2|0,0:0|0:0,0:0:0:0:
206,117,180945,1,0,0:0:0:0:
343,115,181029,2,0,L|271:114,1,50,10|0,0:0|0:0,0:0:0:0:
40,104,181196,2,0,L|187:102,1,100,2|8,0:0|0:0,0:0:0:0:
396,177,181529,2,0,L|392:108,1,50,2|0,0:0|0:0,0:0:0:0:
199,118,181696,2,0,L|135:108,1,50,10|0,0:0|0:0,0:0:0:0:
326,244,181863,6,0,L|384:243,2,50,6|0|8,0:0|0:0|0:0,0:0:0:0:
78,175,182196,2,0,L|20:174,2,50,2|0|8,0:0|0:0|0:0,0:0:0:0:
379,104,182529,2,0,L|386:155,1,50,2|0,0:0|0:0,0:0:0:0:
236,196,182696,2,0,L|175:235,1,50,10|0,0:0|0:0,0:0:0:0:
12,293,182863,2,0,L|155:289,1,100,2|8,0:0|0:0,0:0:0:0:
399,307,183196,6,0,L|449:315,2,50,2|0|8,0:0|0:0|0:0,0:0:0:0:
108,350,183529,2,0,L|105:275,1,50,2|0,0:0|0:0,0:0:0:0:
279,240,183696,2,0,L|336:237,1,50,10|0,0:0|0:0,0:0:0:0:
88,198,183863,2,0,L|77:130,1,50,10|8,2:3|2:3,0:0:0:0:
160,117,184029,2,0,L|167:55,1,50,10|8,2:3|2:3,0:0:0:0:
246,64,184196,2,0,L|282:27,1,50,6|4,2:3|2:3,0:0:0:0:
364,52,184363,2,0,L|429:46,1,50,6|4,2:3|2:3,0:0:0:0:
237,242,184529,6,0,P|180:221|249:137,1,200,6|0,0:0|0:0,0:0:0:0:
361,134,185029,1,0,0:0:0:0:
125,255,185196,1,8,0:0:0:0:
235,256,185363,1,0,0:0:0:0:
235,256,185529,1,0,0:0:0:0:
74,256,185696,1,8,0:0:0:0:
302,166,185863,5,4,0:0:0:0:
68,171,186029,1,8,0:0:0:0:
183,169,186196,2,0,L|61:168,1,100,0|0,0:0|0:0,0:0:0:0:
337,106,186529,2,0,L|339:44,1,50,10|8,0:0|0:0,0:0:0:0:
266,42,186696,1,8,0:0:0:0:
112,49,186779,1,10,0:0:0:0:
169,45,186863,1,8,0:0:0:0:
455,41,187029,1,4,0:0:0:0:
195,239,187196,6,0,P|127:221|131:98,1,200,6|0,0:0|0:0,0:0:0:0:
237,104,187696,1,0,0:0:0:0:
471,102,187863,1,10,0:0:0:0:
339,104,188029,1,0,0:0:0:0:
339,104,188196,1,0,0:0:0:0:
499,104,188363,1,8,0:0:0:0:
148,202,188529,6,0,L|300:224,2,133.333333333333,8|4|8,0:3|0:3|0:3,0:0:0:0:
441,124,189196,2,0,P|494:156|426:173,1,150.000005722046,6|0,0:3|0:0,0:0:0:0:
404,185,189418,2,0,P|350:154|402:122,1,150.000005722046,6|0,0:3|0:0,0:0:0:0:
441,124,189641,1,6,0:3:0:0:
160,325,189863,6,0,L|378:322,1,200,4|0,0:0|0:0,0:0:0:0:
247,305,190363,1,0,0:0:0:0:
490,289,190529,1,10,0:0:0:0:
348,291,190696,1,0,0:0:0:0:
348,291,190863,1,0,0:0:0:0:
490,289,191029,1,8,0:0:0:0:
162,188,191196,5,4,0:0:0:0:
394,188,191363,1,8,0:0:0:0:
269,189,191529,1,0,0:0:0:0:
269,189,191696,1,0,0:0:0:0:
486,94,191863,2,0,L|490:155,1,50,8|8,0:0|0:0,0:0:0:0:
423,178,192029,1,8,0:0:0:0:
192,210,192113,2,0,L|125:215,1,50,8|8,0:0|0:0,0:0:0:0:
386,149,192363,1,6,0:0:0:0:
143,137,192529,6,0,P|78:162|165:219,1,200,6|0,0:0|0:0,0:0:0:0:
263,236,193029,1,0,0:0:0:0:
37,325,193196,1,8,0:0:0:0:
161,325,193363,1,0,0:0:0:0:
289,324,193529,1,0,0:0:0:0:
161,325,193696,1,8,0:0:0:0:
469,186,193863,6,0,L|324:185,2,133.333333333333,8|8|8,0:3|0:3|0:3,0:0:0:0:
44,255,194529,2,0,L|189:254,2,133.333333333333,8|8|8,0:3|0:3|0:3,0:0:0:0:
428,244,195196,6,0,L|431:178,1,50,4|0,0:0|0:0,0:0:0:0:
355,176,195363,1,8,0:0:0:0:
455,176,195529,1,0,0:0:0:0:
405,176,195612,1,0,0:0:0:0:
355,176,195696,1,8,0:0:0:0:
61,280,195863,1,0,0:0:0:0:
289,272,196029,1,8,0:0:0:0:
52,206,196196,2,0,L|49:149,1,50,0|0,0:0|0:0,0:0:0:0:
281,134,196363,1,8,0:0:0:0:
42,187,196529,5,0,0:0:0:0:
157,186,196696,1,8,0:0:0:0:
315,176,196863,2,0,L|318:239,1,50,0|0,0:0|0:0,0:0:0:0:
240,277,197029,1,8,0:0:0:0:
376,285,197196,1,0,0:0:0:0:
258,282,197363,1,8,0:0:0:0:
111,274,197529,2,0,L|48:280,2,50,0|0|8,0:0|0:0|0:0,0:0:0:0:
411,269,197863,6,0,L|274:264,1,100,4|8,0:0|0:0,0:0:0:0:
457,159,198196,1,0,0:0:0:0:
458,208,198279,1,0,0:0:0:0:
460,258,198362,1,8,0:0:0:0:
269,323,198529,2,0,L|385:317,1,100,0|8,0:0|0:0,0:0:0:0:
219,235,198863,2,0,L|276:231,1,50,0|0,0:0|0:0,0:0:0:0:
423,224,199029,6,0,L|299:224,1,100,8|0,0:0|0:0,0:0:0:0:
474,138,199363,1,8,0:0:0:0:
304,135,199529,2,0,L|252:138,2,50,0|0|8,0:0|0:0|0:0,0:0:0:0:
66,249,199863,6,8,L|-13:254,1,50,8|8,0:0|0:0,0:0:0:0:
16,252,200029,2,8,L|72:249,1,50,8|8,0:0|0:0,0:0:0:0:
252,225,200196,2,8,L|262:285,1,50,8|8,0:0|0:0,0:0:0:0:
127,317,200363,2,8,L|138:381,1,50,8|8,0:0|0:0,0:0:0:0:
333,320,200529,6,0,L|206:316,1,100,6|8,0:0|0:0,0:0:0:0:
386,229,200863,1,0,0:0:0:0:
336,229,200946,1,0,0:0:0:0:
286,230,201029,1,8,0:0:0:0:
119,235,201196,1,0,0:0:0:0:
238,232,201363,1,8,0:0:0:0:
68,162,201529,2,0,L|62:227,1,50,0|0,0:0|0:0,0:0:0:0:
157,247,201696,1,8,0:0:0:0:
378,313,201863,6,0,L|269:316,2,100,0|8|0,0:0|0:0|0:0,0:0:0:0:
319,306,202279,1,0,0:0:0:0:
141,306,202363,2,0,L|136:193,1,100,8|0,0:0|0:0,0:0:0:0:
261,194,202696,1,8,0:0:0:0:
106,158,202863,1,0,0:0:0:0:
155,157,202946,1,0,0:0:0:0:
205,157,203029,1,8,0:0:0:0:
479,153,203196,5,4,0:0:0:0:
343,151,203363,1,8,0:0:0:0:
494,155,203529,1,0,0:0:0:0:
502,198,203613,1,0,0:0:0:0:
510,238,203696,1,8,0:0:0:0:
349,297,203863,2,0,L|466:293,1,100,0|8,0:0|0:0,0:0:0:0:
298,221,204196,1,0,0:0:0:0:
347,219,204279,1,0,0:0:0:0:
397,218,204362,1,8,0:0:0:0:
103,117,204529,5,0,0:0:0:0:
327,112,204696,1,8,0:0:0:0:
83,113,204863,2,0,L|74:202,1,50,0|0,0:0|0:0,0:0:0:0:
321,188,205029,1,8,0:0:0:0:
66,297,205196,5,8,0:3:0:0:
30,243,205279,1,8,0:3:0:0:
56,185,205362,1,8,0:3:0:0:
119,177,205446,1,8,0:3:0:0:
265,181,205529,1,4,0:3:0:0:
231,180,205612,1,4,0:3:0:0:
198,180,205695,1,4,0:3:0:0:
165,179,205779,1,4,0:3:0:0:
345,97,205863,6,0,P|390:123|321:175,1,150,4|0,0:0|0:0,0:0:0:0:
276,184,206196,1,2,0:0:0:0:
343,184,206307,1,2,0:0:0:0:
410,183,206418,1,2,0:0:0:0:
194,290,206529,2,0,L|87:291,1,100,10|0,0:0|0:0,0:0:0:0:
236,196,206863,2,0,L|124:194,1,100,2|8,0:0|0:0,0:0:0:0:
365,90,207196,5,4,0:0:0:0:
216,157,207363,2,0,L|334:155,1,100,8|0,0:0|0:0,0:0:0:0:
216,157,207696,1,0,0:0:0:0:
453,279,207863,2,0,L|524:279,2,50,10|8|8,0:0|0:0|0:0,0:0:0:0:
285,280,208113,2,0,L|282:342,1,50,10|8,0:0|0:0,0:0:0:0:
501,366,208363,1,4,0:0:0:0:
194,348,208529,6,0,P|149:328|240:260,1,200,4|0,0:0|0:0,0:0:0:0:
321,236,209029,1,0,0:0:0:0:
71,188,209196,1,8,0:0:0:0:
204,185,209363,1,0,0:0:0:0:
204,185,209529,1,0,0:0:0:0:
23,148,209696,1,8,0:0:0:0:
303,142,209863,5,4,0:0:0:0:
83,106,210029,2,0,L|75:177,1,50,8|8,0:0|0:0,0:0:0:0:
237,242,210196,2,0,L|302:243,1,50,8|8,0:0|0:3,0:0:0:0:
237,242,210363,2,0,L|165:246,1,50,8|12,0:3|0:3,0:0:0:0:
378,173,210529,2,0,L|428:171,1,50,8|8,0:0|0:0,0:0:0:0:
427,171,210696,2,0,L|369:173,1,50,8|8,0:3|0:3,0:0:0:0:
299,177,210863,2,0,L|321:230,1,50,4|4,0:3|0:3,0:0:0:0:
408,244,211029,2,0,L|478:249,1,50,4|4,0:3|0:3,0:0:0:0:
206,353,211196,6,0,P|158:309|222:267,1,150,4|0,0:0|0:0,0:0:0:0:
282,260,211529,1,2,0:0:0:0:
184,258,211641,1,2,0:0:0:0:
282,260,211752,1,2,0:0:0:0:
58,171,211863,2,0,L|48:303,1,100,10|0,0:0|0:0,0:0:0:0:
199,264,212196,2,0,L|186:388,1,100,2|8,0:0|0:0,0:0:0:0:
478,226,212529,5,6,0:0:0:0:
257,223,212696,2,0,L|375:224,1,100,8|0,0:0|0:0,0:0:0:0:
257,223,213029,1,0,0:0:0:0:
21,140,213196,2,0,L|114:137,1,50,10|8,0:0|0:0,0:0:0:0:
132,136,213363,1,8,0:0:0:0:
321,136,213446,2,0,L|319:200,1,50,10|8,0:0|0:0,0:0:0:0:
94,238,213696,1,6,0:0:0:0:
344,300,213863,6,0,L|137:300,1,200,6|0,0:0|0:0,0:0:0:0:
249,278,214363,1,0,0:0:0:0:
483,258,214529,1,8,0:0:0:0:
337,257,214696,1,0,0:0:0:0:
337,257,214863,1,2,0:0:0:0:
490,257,215029,1,8,0:0:0:0:
164,193,215196,5,4,0:0:0:0:
305,191,215363,2,8,L|368:186,1,50
185,317,215529,2,0,L|178:255,1,50,10|8,0:0|0:3,0:0:0:0:
314,266,215696,2,0,L|305:200,1,50,6|4,0:3|0:3,0:0:0:0:
132,173,215863,2,0,L|156:115,1,50,10|4,0:0|0:3,0:0:0:0:
354,156,216030,2,0,L|379:94,1,50,10|8,0:3|0:3,0:0:0:0:
111,47,216196,2,0,L|174:38,1,50,6|4,0:3|0:3,0:0:0:0:
429,36,216363,2,0,L|493:22,1,50,6|4,0:3|0:3,0:0:0:0:
130,295,216529,6,0,P|16:291|15:291,1,100,6|8,0:0|0:0,0:0:0:0:
299,209,216863,1,0,0:0:0:0:
249,207,216946,1,0,0:0:0:0:
199,205,217029,1,8,0:0:0:0:
491,91,217196,2,0,L|354:90,1,100,0|8,0:0|0:0,0:0:0:0:
245,151,217529,1,0,0:0:0:0:
294,150,217613,1,0,0:0:0:0:
376,149,217696,1,8,0:0:0:0:
7,311,217863,6,0,L|145:309,1,100,0|8,0:0|0:0,0:0:0:0:
326,369,218196,1,0,0:0:0:0:
276,367,218279,1,0,0:0:0:0:
226,366,218362,1,8,0:0:0:0:
353,265,218529,1,0,0:0:0:0:
253,265,218695,1,8,0:0:0:0:
103,201,218863,1,0,0:0:0:0:
154,201,218946,1,0,0:0:0:0:
203,201,219029,1,8,0:0:0:0:
483,197,219196,6,0,L|494:322,1,100,4|8,0:0|0:0,0:0:0:0:
348,355,219529,2,0,L|283:354,1,50,0|0,0:0|0:0,0:0:0:0:
443,269,219696,2,0,L|317:268,1,100,8|0,0:0|0:0,0:0:0:0:
458,187,220029,1,8,0:0:0:0:
298,186,220196,1,0,0:0:0:0:
297,235,220279,1,0,0:0:0:0:
296,285,220362,1,8,0:0:0:0:
434,319,220529,6,0,L|309:315,1,100,0|8,0:0|0:0,0:0:0:0:
170,307,220863,2,0,L|112:309,2,50,0|0|8,0:0|0:0|0:0,0:0:0:0:
426,226,221196,2,0,L|358:224,1,50,8|8,0:3|0:3,0:0:0:0:
376,224,221363,2,8,L|429:224,1,50,8|8,0:0|0:0,0:0:0:0:
280,176,221529,2,8,L|274:113,1,50,8|8,0:0|0:0,0:0:0:0:
430,89,221696,2,8,L|421:33,1,50,8|8,0:0|0:0,0:0:0:0:
197,145,221863,6,0,L|325:146,1,100,6|8,0:0|0:0,0:0:0:0:
148,42,222196,2,0,L|143:103,1,50,0|0,0:0|0:0,0:0:0:0:
215,118,222363,2,0,L|94:115,1,100,8|0,0:0|0:0,0:0:0:0:
250,51,222696,1,8,0:0:0:0:
74,55,222863,2,0,L|17:60,2,50,0|0|8,0:0|0:0|0:0,0:0:0:0:
254,179,223196,6,0,L|257:300,1,100,0|8,0:0|0:0,0:0:0:0:
123,332,223529,1,0,0:0:0:0:
172,330,223612,1,0,0:0:0:0:
222,328,223695,1,8,0:0:0:0:
82,176,223863,2,0,L|79:297,1,100,0|8,0:0|0:0,0:0:0:0:
222,328,224196,1,0,0:0:0:0:
172,326,224279,1,0,0:0:0:0:
122,324,224362,1,8,0:0:0:0:
402,258,224529,6,0,L|514:255,1,110.000003356934,4|8,0:0|0:0,0:0:0:0:
375,246,224779,1,0,0:0:0:0:
201,182,224863,2,0,L|347:178,1,119.999996337891,4|8,0:0|0:0,0:0:0:0:
186,172,225113,1,0,0:0:0:0:
13,119,225196,2,0,L|158:115,1,129.999994049073,4|8,0:0|0:0,0:0:0:0:
491,47,225529,2,0,L|497:116,1,50,0|0,0:0|0:0,0:0:0:0:
258,172,225696,1,8,0:0:0:0:
487,291,225863,6,0,P|506:249|477:191,1,100,0|8,0:0|0:0,0:0:0:0:
280,198,226113,1,0,0:0:0:0:
219,198,226196,2,0,L|157:196,2,50,0|0|8,0:0|0:0|0:0,0:0:0:0:
473,135,226529,5,8,0:0:0:0:
424,132,226612,1,8,0:0:0:0:
392,95,226695,1,8,0:3:0:0:
398,47,226779,1,8,0:3:0:0:
450,28,226863,2,0,L|504:28,1,50,8|8,0:3|0:3,0:0:0:0:
450,28,227029,2,0,L|504:28,1,50,4|4,0:3|0:3,0:0:0:0:
307,234,227196,6,0,P|252:201|324:163,1,150,4|0,0:0|0:0,0:0:0:0:
452,148,227529,1,0,0:0:0:0:
367,148,227696,1,0,0:0:0:0:
77,197,227863,2,0,P|61:134|165:80,1,200,8|0,0:0|0:0,0:0:0:0:
410,83,228363,1,8,0:0:0:0:
116,137,228529,6,0,L|237:131,1,100,0|8,0:0|0:0,0:0:0:0:
58,225,228863,1,0,0:0:0:0:
192,220,229029,1,0,0:0:0:0:
470,219,229196,2,0,L|478:340,1,100,8|0,0:0|0:0,0:0:0:0:
251,213,229529,1,4,0:0:0:0:
387,211,229696,1,0,0:0:0:0:
94,318,229863,1,4,0:0:0:0:
225,317,230029,5,0,0:0:0:0:
51,257,230196,2,0,L|43:361,1,100,0|4,0:0|0:3,0:0:0:0:
279,358,230529,2,0,P|317:318|245:248,1,150,8|0,0:0|0:0,0:0:0:0:
100,242,230863,2,0,L|214:240,1,100,0|8,0:0|0:0,0:0:0:0:
442,238,231196,5,4,0:0:0:0:
213,309,231363,2,0,L|139:311,1,50,8|8,0:0|0:0,0:0:0:0:
163,310,231529,2,0,L|224:310,1,50,8|8,0:0|0:3,0:0:0:0:
60,220,231696,2,0,L|52:300,1,50,4|4,0:3|0:3,0:0:0:0:
232,265,231863,1,8,0:0:0:0:
279,254,231946,1,8,0:0:0:0:
300,211,232029,1,8,0:0:0:0:
279,167,232113,1,8,0:3:0:0:
110,164,232196,1,4,0:3:0:0:
159,164,232279,1,4,0:3:0:0:
209,164,232362,1,4,0:3:0:0:
259,164,232446,1,4,0:3:0:0:
55,73,232529,6,0,P|14:116|75:180,1,150,4|0,0:0|0:0,0:0:0:0:
250,182,232863,1,0,0:0:0:0:
130,183,233029,1,0,0:0:0:0:
361,80,233196,2,0,P|220:80|219:80,1,100,8|0,0:0|0:0,0:0:0:0:
402,11,233529,1,0,0:0:0:0:
262,11,233696,1,8,0:0:0:0:
14,106,233863,5,4,0:0:0:0:
163,111,234029,1,0,0:0:0:0:
14,106,234196,1,2,0:0:0:0:
14,106,234363,1,0,0:0:0:0:
314,109,234529,2,0,L|321:223,1,100,8|0,0:0|0:0,0:0:0:0:
24,315,234863,1,4,0:0:0:0:
438,331,235196,6,0,P|475:285|398:236,1,150,4|0,0:0|0:0,0:0:0:0:
219,228,235529,1,2,0:0:0:0:
336,227,235696,1,0,0:0:0:0:
105,136,235863,2,0,L|318:139,1,200,8|0,0:0|0:0,0:0:0:0:
77,65,236363,1,8,0:0:0:0:
297,62,236529,6,0,L|345:81,1,50,2|0,0:0|0:0,0:0:0:0:
198,130,236696,2,0,L|121:143,1,50,8|8,0:0|0:0,0:0:0:0:
328,208,236863,2,0,L|388:211,1,50,8|8,0:0|0:3,0:0:0:0:
377,210,237029,2,0,L|323:211,1,50,8|8,0:3|0:3,0:0:0:0:
485,119,237196,2,0,L|492:176,1,50,8|8,0:0|0:0,0:0:0:0:
406,202,237363,2,0,L|381:249,1,50,8|8,0:3|0:3,0:0:0:0:
272,275,237529,2,0,L|212:280,1,50,4|4,0:3|0:3,0:0:0:0:
133,292,237696,2,0,L|80:289,1,50,4|4,0:3|0:3,0:0:0:0:
314,180,237863,6,0,L|472:178,1,119.999996337891,4|8,0:0|0:0,0:0:0:0:
178,97,238196,2,0,L|115:97,2,59.9999981689454,0|0|8,0:0|0:0|0:0,0:0:0:0:
449,102,238529,2,0,L|459:246,1,119.999996337891,0|8,0:0|0:0,0:0:0:0:
186,291,238863,2,0,L|270:291,1,59.9999981689454,0|0,0:0|0:0,0:0:0:0:
417,289,239029,1,8,0:0:0:0:
143,209,239196,5,4,0:0:0:0:
296,209,239363,1,8,0:0:0:0:
48,111,239529,2,0,L|41:187,1,59.9999981689454,0|0,0:0|0:0,0:0:0:0:
219,257,239696,1,8,0:0:0:0:
487,260,239863,1,0,0:0:0:0:
349,260,240029,1,8,0:0:0:0:
45,344,240196,1,0,0:0:0:0:
42,284,240279,1,0,0:0:0:0:
39,224,240362,1,8,0:0:0:0:
282,166,240529,6,0,L|146:166,1,119.999996337891,4|8,0:0|0:0,0:0:0:0:
410,70,240863,2,0,L|333:70,1,59.9999981689454,0|0,0:0|0:0,0:0:0:0:
247,71,241029,1,8,0:0:0:0:
488,18,241196,2,0,L|496:174,1,119.999996337891,0|8,0:0|0:0,0:0:0:0:
228,271,241529,2,0,L|153:271,1,59.9999981689454,0|0,0:0|0:0,0:0:0:0:
367,202,241696,1,8,0:0:0:0:
105,109,241863,5,0,0:0:0:0:
255,111,242029,1,8,0:0:0:0:
30,44,242196,2,0,L|99:44,1,59.9999981689454,0|0,0:0|0:0,0:0:0:0:
292,42,242363,1,8,0:0:0:0:
41,86,242529,2,0,L|38:166,1,59.9999981689454,8|8,0:0|0:0,0:0:0:0:
203,188,242696,2,0,L|266:188,1,59.9999981689454,8|8,0:0|0:3,0:3:0:0:
112,242,242863,2,0,L|49:243,1,59.9999981689454,4|8,0:3|0:0,0:0:0:0:
259,191,243029,2,0,L|265:286,1,59.9999981689454,8|8,0:0|0:0,0:0:0:0:
56,330,243196,6,0,L|206:326,1,119.999996337891,4|8,0:0|0:0,0:0:0:0:
457,324,243529,2,0,L|459:235,1,59.9999981689454,0|0,0:0|0:0,0:0:0:0:
206,244,243696,1,8,0:0:0:0:
470,180,243863,2,0,L|341:180,1,119.999996337891,0|8,0:0|0:0,0:0:0:0:
125,181,244196,2,0,L|45:182,2,59.9999981689454,0|0|8,0:0|0:0|0:0,0:0:0:0:
373,171,244529,6,0,L|382:323,1,119.999996337891,4|8,0:0|0:0,0:0:0:0:
157,344,244863,1,0,0:0:0:0:
216,343,244946,1,0,0:0:0:0:
276,342,245029,1,8,0:0:0:0:
38,261,245196,1,0,0:0:0:0:
166,260,245363,1,8,0:0:0:0:
414,257,245529,2,0,L|416:194,1,59.9999981689454,0|0,0:0|0:0,0:0:0:0:
351,175,245696,1,8,0:0:0:0:
31,165,245863,6,0,L|206:160,1,119.999996337891,4|8,0:0|0:0,0:0:0:0:
392,157,246196,2,0,L|456:158,2,59.9999981689454,0|0|8,0:0|0:0|0:0,0:0:0:0:
83,328,246529,2,0,P|39:289|88:258,1,119.999996337891,0|8,0:0|0:0,0:0:0:0:
331,258,246863,2,0,L|259:257,1,59.9999981689454,0|0,0:0|0:0,0:0:0:0:
74,257,247029,1,8,0:0:0:0:
325,173,247196,6,0,L|328:316,1,119.999996337891,0|8,0:0|0:0,0:0:0:0:
72,359,247529,2,0,L|70:294,1,59.9999981689454,0|0,0:0|0:0,0:0:0:0:
341,273,247696,1,8,0:0:0:0:
70,240,247863,1,8,0:0:0:0:
19,213,247946,1,8,0:0:0:0:
20,156,248029,1,8,0:3:0:0:
71,131,248112,1,8,0:3:0:0:
290,133,248196,2,0,L|367:139,1,59.9999981689454,4|4,0:3|0:3,0:0:0:0:
185,203,248363,2,0,L|113:209,1,59.9999981689454,4|4,0:3|0:3,0:0:0:0:
378,226,248529,6,0,L|379:261,1,29.9999990844727,2|0,0:0|0:0,0:0:0:0:
106,320,248696,2,0,L|107:355,1,29.9999990844727,2|0,0:0|0:0,0:0:0:0:
106,322,249029,1,4,0:3:0:0:
367,319,249196,6,0,B|511:314|511:314|351:298|351:298|469:294|495:247|544:183|452:101|375:122|347:186,1,600,4|8,0:0|0:0,0:0:0:0:
77,160,249863,1,0,0:0:0:0:
234,162,250029,1,8,0:0:0:0:
77,160,250196,1,0,0:0:0:0:
77,160,250363,1,0,0:0:0:0:
338,220,250529,1,8,0:0:0:0:
109,224,250696,1,0,0:0:0:0:
253,222,250863,2,0,P|290:182|230:120,1,150,4|0,0:0|0:0,0:0:0:0:
27,128,251196,6,0,L|254:124,1,200,4|0,0:0|0:0,0:0:0:0:
107,116,251696,1,0,0:0:0:0:
343,59,251863,2,0,P|422:78|345:116,1,200,8|0,0:0|0:0,0:0:0:0:
77,127,252363,1,8,0:0:0:0:
352,132,252529,6,0,L|361:222,1,50,4|8,0:3|0:0,0:0:0:0:
213,209,252696,2,0,L|218:264,1,50,8|8,0:0|0:0,0:0:0:0:
397,307,252863,2,0,L|470:309,1,50,8|8,0:3|0:3,0:0:0:0:
446,308,253029,2,0,L|395:309,1,50,8|8,0:3|0:3,0:0:0:0:
179,305,253196,1,8,0:0:0:0:
173,256,253279,1,8,0:3:0:0:
210,213,253362,1,8,0:3:0:0:
265,197,253445,1,8,0:3:0:0:
79,201,253529,2,0,L|26:211,1,50,4|4,0:3|0:3,0:0:0:0:
206,234,253696,2,0,L|265:247,1,50,4|4,0:3|0:3,0:0:0:0:
23,346,253863,5,4,0:0:0:0:
259,341,254196,2,0,L|141:340,1,100,0|0,0:0|0:0,0:0:0:0:
437,237,254529,1,8,0:0:0:0:
299,235,254696,1,0,0:0:0:0:
167,229,254863,1,0,0:0:0:0:
395,213,255029,1,8,0:0:0:0:
126,146,255196,6,0,L|10:135,1,100,4|0,0:0|0:0,0:0:0:0:
286,97,255529,1,2,0:0:0:0:
151,97,255696,1,0,0:0:0:0:
459,42,255863,2,0,L|465:164,1,100,8|0,0:0|0:0,0:0:0:0:
75,210,256196,1,4,0:0:0:0:
465,206,256529,5,4,0:0:0:0:
225,349,256863,2,0,L|218:231,1,100,0|0,0:0|0:0,0:0:0:0:
473,229,257196,1,8,0:0:0:0:
352,231,257363,1,0,0:0:0:0:
131,232,257529,1,0,0:0:0:0:
352,231,257696,1,8,0:0:0:0:
131,232,257863,6,8,L|128:171,1,50,8|8,0:0|0:0,0:0:0:0:
196,160,258029,2,8,L|255:159,1,50,8|8,0:0|0:0,0:0:0:0:
414,150,258196,2,0,L|478:148,1,50,8|8,0:3|0:3,0:0:0:0:
414,150,258363,2,0,L|356:149,1,50,8|8,0:3|0:3,0:0:0:0:
175,238,258530,2,0,L|170:176,1,50,8|8,0:0|0:0,0:0:0:0:
342,154,258697,2,8,L|335:78,1,50
169,52,258864,1,4,0:3:0:0:
218,52,258947,1,4,0:3:0:0:
268,52,259030,1,4,0:3:0:0:
318,52,259113,1,4,0:3:0:0:
145,65,259196,6,0,L|145:95,1,25,2|0,0:0|0:0,0:0:0:0:
417,159,259363,2,0,L|418:186,1,25,2|0,0:0|0:0,0:0:0:0:
417,161,259696,1,4,0:3:0:0:
145,65,259863,6,0,B|1:70|1:70|161:86|161:86|43:90|17:137|-32:201|60:283|136:272|166:199,1,600,4|8,0:0|0:0,0:0:0:0:
406,240,260529,1,4,0:0:0:0:
252,238,260696,1,8,0:0:0:0:
406,240,260863,1,0,0:0:0:0:
406,240,261029,1,0,0:0:0:0:
101,329,261196,1,8,0:0:0:0:
233,330,261363,1,4,0:0:0:0:
471,331,261529,2,0,L|308:329,1,150,0|0,0:0|0:0,0:0:0:0:
127,254,261863,6,0,P|71:209|134:170,1,150,4|0,0:0|0:0,0:0:0:0:
356,163,262196,1,0,0:0:0:0:
356,163,262363,1,0,0:0:0:0:
121,268,262529,2,0,L|342:268,1,200,8|0,0:0|0:0,0:0:0:0:
208,248,263029,1,8,0:0:0:0:
470,184,263196,5,4,0:0:0:0:
213,184,263363,1,8,0:0:0:0:
343,177,263529,2,0,L|346:298,1,100,0|0,0:0|0:0,0:0:0:0:
39,347,263863,1,8,0:0:0:0:
473,347,264196,1,4,0:0:0:0:
39,347,264529,5,4,0:0:0:0:
167,346,264696,1,0,0:0:0:0:
317,346,264863,2,0,L|324:222,1,100,0|0,0:0|0:0,0:0:0:0:
86,248,265196,2,0,P|26:224|103:140,1,200,8|0,0:0|0:0,0:0:0:0:
328,137,265696,1,8,0:0:0:0:
74,191,265863,6,0,L|63:306,1,100,4|0,0:0|0:0,0:0:0:0:
281,347,266196,2,0,L|155:346,1,100,0|0,0:0|0:0,0:0:0:0:
404,248,266529,1,8,0:0:0:0:
286,249,266696,1,0,0:0:0:0:
505,144,266863,1,4,0:0:0:0:
99,312,267196,6,0,P|48:278|119:217,1,150,4|0,0:0|0:0,0:0:0:0:
288,207,267529,2,0,L|167:207,1,100,2|0,0:0|0:0,0:0:0:0:
413,71,267863,2,0,P|466:99|410:157,1,150,8|0,0:0|0:0,0:0:0:0:
174,148,268196,1,0,0:0:0:0:
316,146,268363,1,8,0:0:0:0:
49,66,268529,5,12,0:0:0:0:
296,62,268696,2,0,L|307:140,1,50,8|8,0:0|0:0,0:0:0:0:
115,192,268863,2,0,L|52:191,1,50,8|8,0:0|0:3,0:0:0:0:
65,191,269029,2,0,L|117:192,1,50,8|8,0:3|0:3,0:0:0:0:
322,197,269196,2,8,L|385:197,1,50
219,298,269363,2,8,L|141:296,1,50,8|8,0:3|0:3,0:3:0:0:
357,256,269529,2,0,L|365:185,1,50,4|4,0:3|0:3,0:0:0:0:
175,184,269696,2,0,L|181:113,1,50,4|4,0:3|0:3,0:0:0:0:
435,61,269863,6,0,P|488:90|426:110,1,150,4|0,0:0|0:0,0:0:0:0:
343,115,270196,1,2,0:0:0:0:
432,116,270307,1,2,0:0:0:0:
343,115,270418,1,2,0:0:0:0:
141,231,270529,2,0,L|34:235,1,100,10|0,0:0|0:0,0:0:0:0:
290,152,270863,2,0,L|403:158,1,100,2|8,0:0|0:0,0:0:0:0:
114,73,271196,5,4,0:0:0:0:
247,72,271363,1,8,0:0:0:0:
114,73,271529,1,0,0:0:0:0:
114,73,271696,1,0,0:0:0:0:
397,66,271863,2,0,L|403:188,1,100,10|0,0:0|0:0,0:0:0:0:
181,194,272113,1,4,0:0:0:0:
117,195,272196,1,0,0:0:0:0:
358,197,272363,1,10,0:0:0:0:
81,324,272529,6,0,P|26:291|102:197,1,200,4|0,0:0|0:0,0:0:0:0:
202,193,273029,1,0,0:0:0:0:
445,196,273196,2,0,P|491:161|400:86,1,200,8|0,0:0|0:0,0:0:0:0:
148,79,273696,1,8,0:0:0:0:
412,87,273863,5,4,0:0:0:0:
269,88,274029,1,8,0:0:0:0:
412,87,274196,1,0,0:0:0:0:
412,87,274363,1,0,0:0:0:0:
90,193,274529,1,8,0:0:0:0:
345,188,274696,2,0,P|410:246|328:308,1,200,4|0,0:0|0:0,0:0:0:0:
77,61,275196,6,0,P|24:90|86:110,1,150,4|0,0:0|0:0,0:0:0:0:
169,115,275529,1,2,0:0:0:0:
80,116,275640,1,2,0:0:0:0:
169,115,275751,1,2,0:0:0:0:
371,231,275862,2,0,L|383:113,1,100,10|0,0:0|0:0,0:0:0:0:
138,371,276196,2,0,L|126:253,1,100,2|8,0:0|0:0,0:0:0:0:
386,240,276529,5,6,0:0:0:0:
245,237,276696,1,8,0:0:0:0:
386,240,276863,1,0,0:0:0:0:
386,240,277029,1,0,0:0:0:0:
144,325,277196,2,0,L|15:322,1,100,10|0,0:0|0:0,0:0:0:0:
269,273,277446,1,6,0:0:0:0:
318,271,277530,1,0,0:0:0:0:
81,271,277696,1,10,0:0:0:0:
362,193,277863,6,0,L|157:191,1,200,4|2,0:0|0:0,0:0:0:0:
289,173,278363,1,0,0:0:0:0:
23,90,278529,2,0,L|5:301,1,200,8|0,0:0|0:0,0:0:0:0:
485,317,279196,6,0,L|350:322,2,133.333333333333,8|8|8,0:3|0:3|0:3,0:0:0:0:
27,317,279863,2,0,L|162:322,2,133.333333333333,4|4|4,0:3|0:3|0:3,0:0:0:0:
475,182,280529,5,4,0:0:0:0:
256,192,280613,12,0,287113,0:0:0:0:
