osu file format v14

[General]
AudioFilename: audio.mp3
AudioLeadIn: 0
PreviewTime: 157295
Countdown: 0
SampleSet: Soft
StackLeniency: 0.4
Mode: 0
LetterboxInBreaks: 0
WidescreenStoryboard: 0

[Editor]
DistanceSpacing: 1.2
BeatDivisor: 4
GridSize: 16
TimelineZoom: 1.9

[Metadata]
Title:A Better Place, a Better Time
TitleUnicode:A Better Place, a Better Time
Artist:Streetlight Manifesto
ArtistUnicode:Streetlight Manifesto
Creator:pokeyyyy
Version:everything is gonna be fine
Source:
Tags:band ska jazz trumpet punk rock english male vocals vocalist everything goes numb [poke] xandeez nuts gigarobloxian21 cirnop
BeatmapID:3840712
BeatmapSetID:1867089

[Difficulty]
HPDrainRate:5.5
CircleSize:3.7
OverallDifficulty:8.6
ApproachRate:9.3
SliderMultiplier:1.7
SliderTickRate:1

[Events]
//Background and Video events
0,0,"e.jpg",0,0
//Break Periods
2,71231,83739
2,137529,159881
2,312645,316783
2,339236,347176
//Storyboard Layer 0 (Background)
//Storyboard Layer 1 (Fail)
//Storyboard Layer 2 (Pass)
//Storyboard Layer 3 (Foreground)
//Storyboard Layer 4 (Overlay)
//Storyboard Sound Samples

[TimingPoints]
28679,441.176470588235,4,2,1,40,1,0
36620,-133.333333333333,4,2,1,40,0,0
37061,-166.666666666667,4,2,1,40,0,0
37943,-100,4,2,1,40,0,0
42796,-66.6666666666667,4,2,1,50,0,0
43237,-83.3333333333333,4,2,1,50,0,0
48090,-100,4,2,1,50,0,0
50296,-83.3333333333333,4,2,1,50,0,0
52502,-100,4,2,1,50,0,0
56914,-100,4,2,1,40,0,0
63972,-166.666666666667,4,2,1,40,0,0
71031,416.666666666667,4,2,1,80,1,0
84364,413.793103448276,4,2,1,35,1,0
84364,-333.333333333333,4,2,1,35,0,0
91812,-222.222222222222,4,2,1,35,0,0
95122,-333.333333333333,4,2,1,35,0,0
96364,-333.333333333333,4,2,1,40,0,0
96777,-333.333333333333,4,2,1,45,0,0
97191,-333.333333333333,4,2,1,50,0,0
97605,-100,4,2,1,60,0,0
98019,-66.6666666666667,4,2,1,60,0,0
98432,-100,4,2,1,60,0,0
100915,-83.3333333333333,4,2,1,60,0,0
101329,-100,4,2,1,60,0,0
104639,-83.3333333333333,4,2,1,60,0,0
105053,-100,4,2,1,60,0,0
105467,-83.3333333333333,4,2,1,60,0,0
105881,-100,4,2,1,60,0,0
110846,-100,4,2,1,50,0,0
111674,-133.333333333333,4,2,1,50,0,0
124088,-100,4,2,1,50,0,0
163713,-100,4,2,1,5,0,0
163804,363.636363636364,4,2,1,70,1,0
163985,-66.6666666666667,4,2,1,70,0,0
169622,364.741641337386,4,2,1,70,1,0
169622,-66.6666666666667,4,2,1,70,0,0
173269,-83.3333333333333,4,2,1,70,0,0
174363,-66.6666666666667,4,2,1,70,0,0
175457,363.636363636364,4,2,1,75,1,0
175457,-66.6666666666667,4,2,1,75,0,0
198729,-66.6666666666667,4,2,1,60,0,0
204547,-100,4,2,1,70,0,0
207457,361.44578313253,4,2,1,75,1,0
208902,359.281437125748,4,2,1,75,1,0
209261,-83.3333333333333,4,2,1,75,0,0
210339,363.636363636364,4,2,1,75,1,0
210702,-100,4,2,1,30,0,0
210884,-100,4,2,1,38,0,0
211066,-100,4,2,1,46,0,0
211248,-100,4,2,1,54,0,0
211429,-100,4,2,1,62,0,0
211611,-100,4,2,1,70,0,0
211793,320.475157834015,4,2,1,80,1,0
213074,308.483290488432,4,2,1,80,1,1
213074,-83.3333333333333,4,2,1,80,0,1
213382,-66.6666666666667,4,2,1,80,0,1
214616,-83.3333333333333,4,2,1,80,0,1
221711,312.5,4,2,1,80,1,1
222961,305.343511450382,4,2,1,80,1,0
222961,-133.333333333333,4,2,1,80,0,0
226625,310.880829015544,4,2,1,80,1,0
227557,339.943342776204,4,2,1,80,1,0
227896,308.483290488432,4,2,1,80,1,1
227896,-100,4,2,1,80,0,1
228512,-83.3333333333333,4,2,1,80,0,1
232214,-83.3333333333333,4,2,1,60,0,1
232832,363.636363636364,4,2,1,70,1,0
232832,-66.6666666666667,4,2,1,70,0,0
256104,-66.6666666666667,4,2,1,60,0,0
261922,-100,4,2,1,60,0,0
268104,-100,4,2,1,30,0,0
268286,-100,4,2,1,38,0,0
268468,-100,4,2,1,46,0,0
268650,-100,4,2,1,54,0,0
268831,-100,4,2,1,62,0,0
269013,-100,4,2,1,70,0,0
269195,309.278350515464,4,2,1,80,1,0
270432,-83.3333333333333,4,2,1,80,0,0
270741,-66.6666666666667,4,2,1,80,0,0
271978,-83.3333333333333,4,2,1,80,0,0
275999,-66.6666666666667,4,2,1,80,0,0
277545,-83.3333333333333,4,2,1,80,0,0
280329,-133.333333333333,4,2,1,80,0,0
285277,-100,4,2,1,80,0,0
285741,-83.3333333333333,4,2,1,80,0,0
288988,315.789473684211,4,2,1,75,1,1
290251,345.821325648415,4,2,1,60,1,0
290942,-133.333333333333,4,2,1,60,0,0
294573,-100,4,2,1,60,0,0
295092,-133.333333333333,4,2,1,60,0,0
300279,-100,4,2,1,60,0,0
301490,-133.333333333333,4,2,1,60,0,0
305467,-100,4,2,1,60,0,0
307542,-133.333333333333,4,2,1,60,0,0
309616,-200,4,2,1,60,0,0
310308,-133.333333333333,4,2,1,60,0,0
311000,361.44578313253,4,2,1,65,1,0
317506,-100,4,2,1,70,0,0
318228,363.636363636364,4,2,1,75,1,0
318228,-66.6666666666667,4,2,1,75,0,0
324046,-100,4,2,1,75,0,0
329864,-66.6666666666667,4,2,1,75,0,0
334228,375,4,2,1,75,1,0
334228,-66.6666666666667,4,2,1,75,0,0
335165,-100,4,2,1,75,0,0
335728,363.636363636364,4,2,1,50,1,0
335909,-100,4,2,1,30,0,0
336273,-100,4,2,1,38,0,0
336455,-100,4,2,1,46,0,0
336637,-100,4,2,1,54,0,0
336818,-100,4,2,1,62,0,0
337000,-100,4,2,1,70,0,0
338637,400,4,2,1,50,1,0
338637,-333.333333333333,4,2,1,50,0,0
339037,307.692307692308,4,2,1,5,1,0
339960,324.324324324324,4,2,1,50,1,0
347743,-133.333333333333,4,2,1,50,0,0
348716,-100,4,2,1,50,0,0
349041,-100,4,2,1,50,0,0
349365,285.714285714286,4,2,1,50,1,0
349365,-133.333333333333,4,2,1,50,0,0
350223,285.714285714286,4,2,1,50,1,0
350508,-133.333333333333,4,2,1,50,0,0
353794,-200,4,2,1,50,0,0
357366,279.06976744186,4,2,1,60,1,0
357366,-133.333333333333,4,2,1,60,0,0
358203,285.714285714286,4,2,1,60,1,0
358488,-133.333333333333,4,2,1,60,0,0
376488,-333.333333333333,4,2,1,60,0,0
376560,-333.333333333333,4,2,1,60,0,0
377060,-333.333333333333,4,2,2,45,0,0
377631,-333.333333333333,4,2,1,40,0,0
378203,-333.333333333333,4,2,2,35,0,0
378774,-333.333333333333,4,2,1,30,0,0
379345,-333.333333333333,4,2,2,20,0,0
379917,-333.333333333333,4,2,1,10,0,0
381060,-333.333333333333,4,2,2,5,0,0

[Colours]
Combo1 : 199,175,41
Combo2 : 235,231,73

[HitObjects]
27,139,28678,6,0,P|74:130|122:120,1,85,0|0,1:2|3:2,0:0:0:0:
348,54,29120,1,10,0:0:0:0:
218,19,29340,1,2,3:2:0:0:
188,173,29561,2,0,P|235:164|283:154,1,85,2|0,1:2|3:2,0:0:0:0:
443,45,30002,2,0,P|401:54|360:62,1,85,10|0,0:0|3:2,0:0:0:0:
389,274,30333,5,0,1:0:0:0:
376,261,30443,2,0,P|385:207|420:191,1,85,0|2,1:2|1:2,0:0:0:0:
187,284,30884,1,10,0:0:0:0:
279,383,31105,1,2,3:2:0:0:
468,260,31326,2,0,P|481:300|491:342,1,85,2|0,1:2|1:2,0:0:0:0:
256,220,31767,2,0,P|265:178|278:138,1,85,10|0,0:0|1:2,0:0:0:0:
342,309,32098,5,0,1:0:0:0:
343,323,32208,2,0,P|332:362|294:379,1,85,0|2,1:2|1:2,0:0:0:0:
24,320,32649,1,10,0:0:0:0:
219,243,32870,1,2,3:2:0:0:
12,329,33090,1,2,0:0:0:0:
168,377,33311,1,2,1:2:0:0:
82,226,33531,1,10,0:0:0:0:
82,226,33752,1,2,1:2:0:0:
0,131,33972,5,2,1:2:0:0:
139,60,34193,1,2,1:2:0:0:
219,193,34414,1,10,0:0:0:0:
316,144,34634,2,0,P|310:95|306:53,1,85,2|0,3:2|0:0,0:0:0:0:
79,0,35075,1,2,1:2:0:0:
117,145,35296,1,10,0:0:0:0:
227,40,35517,1,0,1:0:0:0:
227,40,35627,1,0,1:0:0:0:
227,40,35737,1,0,1:0:0:0:
139,60,35958,1,0,1:0:0:0:
440,258,36178,6,0,P|452:196|478:138,1,127.5,10|0,0:0|0:0,0:0:0:0:
341,306,36620,2,0,P|322:263|312:204,1,95.6250036478044,2|0,3:2|0:0,0:0:0:0:
257,384,37061,2,0,P|225:363|199:336,1,76.4999976654053,10|0,0:0|0:0,0:0:0:0:
374,384,37502,5,2,1:2:0:0:
232,241,37722,1,2,1:2:0:0:
96,381,37943,2,0,P|111:337|132:180,1,170,10|0,0:0|0:0,0:0:0:0:
131,215,38605,1,0,1:2:0:0:
0,328,38825,1,10,0:0:0:0:
96,69,39046,1,2,1:2:0:0:
96,69,39156,1,0,1:0:0:0:
96,69,39267,6,0,P|132:83|154:126,1,85,0|0,1:2|1:2,0:0:0:0:
313,52,39708,2,0,P|271:50|238:76,1,85,8|0,0:0|3:2,0:0:0:0:
353,237,40149,2,0,P|347:195|370:160,1,85,0|0,0:0|1:2,0:0:0:0:
512,146,40590,2,0,P|473:130|454:92,1,85,8|0,0:0|1:2,0:0:0:0:
58,143,41031,5,0,1:2:0:0:
0,289,41252,1,0,1:2:0:0:
129,363,41472,1,8,0:0:0:0:
196,226,41693,1,0,3:2:0:0:
456,326,41914,5,0,1:2:0:0:
272,58,42245,1,0,1:2:0:0:
63,296,42575,1,0,1:2:0:0:
263,162,42796,6,0,B|326:149|343:202|324:215|353:268|415:248,1,191.250007295609,4|0,1:2|0:0,0:0:0:0:
421,242,43237,2,0,P|395:212|376:207,1,50.9999984436036,10|0,0:0|0:0,0:0:0:0:
320,253,43458,1,2,3:2:0:0:
483,57,43678,5,2,0:0:0:0:
156,194,43899,1,2,1:2:0:0:
115,123,44120,1,10,0:0:0:0:
478,149,44340,1,2,1:2:0:0:
325,262,44561,6,0,P|316:326|302:376,1,101.999996887207,0|2,1:2|1:2,0:0:0:0:
0,345,45002,2,0,P|12:324|43:313,1,50.9999984436036,10|0,0:0|0:0,0:0:0:0:
123,379,45222,1,2,3:2:0:0:
17,188,45443,5,2,0:0:0:0:
355,62,45664,1,2,1:2:0:0:
327,135,45884,1,10,0:0:0:0:
46,104,46105,1,2,1:2:0:0:
379,328,46325,6,0,P|412:280|460:290,1,101.999996887207,0|2,1:2|1:2,0:0:0:0:
508,340,46767,1,10,0:0:0:0:
235,168,46987,1,2,0:0:0:0:
508,227,47208,1,2,1:2:0:0:
508,227,47428,1,2,1:2:0:0:
167,99,47649,5,10,0:0:0:0:
138,15,47870,1,2,1:2:0:0:
512,80,48090,1,2,1:2:0:0:
465,145,48311,1,2,0:0:0:0:
341,219,48531,6,0,P|351:197|354:161,1,42.5,10|0,0:0|0:0,0:0:0:0:
99,149,48752,1,2,3:2:0:0:
255,269,48973,1,2,0:0:0:0:
45,227,49193,5,2,1:2:0:0:
278,123,49414,1,10,0:0:0:0:
34,34,49634,1,2,1:2:0:0:
190,174,49855,5,0,1:2:0:0:
190,174,50075,1,0,1:2:0:0:
423,356,50296,6,0,B|410:369|410:369|296:342|296:342|290:317,1,152.999995330811,10|0,0:0|0:0,0:0:0:0:
367,91,50737,2,0,B|408:40|457:88|457:88|430:85|408:111,1,152.999995330811,2|0,0:0|0:0,0:0:0:0:
200,295,51178,2,0,P|141:308|40:338,1,152.999995330811,10|0,0:0|0:2,0:0:0:0:
0,216,51620,5,2,1:2:0:0:
355,257,51914,1,2,0:0:0:0:
367,294,52061,1,10,0:0:0:0:
88,144,52281,1,0,3:2:0:0:
285,35,52502,2,0,P|322:61|323:110,1,85,0|2,0:0|1:2,0:0:0:0:
176,383,52943,2,0,P|150:325|139:287,1,85,10|2,0:0|0:0,0:0:0:0:
279,185,53274,1,2,1:2:0:0:
290,175,53384,6,0,P|333:195|342:243,1,85,0|0,1:2|1:2,0:0:0:0:
512,46,53825,2,0,P|469:75|466:124,1,85,8|0,0:0|3:2,0:0:0:0:
274,291,54267,2,0,P|292:351|295:384,1,85,0|0,0:0|1:2,0:0:0:0:
491,213,54708,2,0,P|483:268|483:307,1,85,8|0,0:0|1:2,0:0:0:0:
470,309,55039,1,0,0:0:0:0:
452,315,55149,5,0,1:2:0:0:
268,277,55370,1,0,1:2:0:0:
149,371,55590,1,8,0:0:0:0:
85,313,55811,1,0,3:2:0:0:
102,278,55921,1,0,0:0:0:0:
143,262,56031,1,0,0:0:0:0:
67,113,56252,5,8,0:0:0:0:
121,53,56362,1,8,0:0:0:0:
198,62,56472,1,8,0:0:0:0:
14,353,56693,1,8,0:0:0:0:
303,204,56914,5,0,1:2:0:0:
303,204,57355,1,8,0:0:0:0:
365,153,57575,1,2,1:2:0:0:
365,153,57796,1,2,1:2:0:0:
422,224,58017,1,8,0:0:0:0:
386,250,58127,1,8,0:0:0:0:
357,269,58237,1,10,0:0:0:0:
303,204,58458,1,2,1:2:0:0:
96,33,58678,5,2,1:2:0:0:
96,33,59119,1,8,0:0:0:0:
43,105,59340,1,0,1:2:0:0:
43,105,59451,1,0,0:0:0:0:
43,105,59561,1,0,1:2:0:0:
112,150,59780,1,8,0:0:0:0:
162,85,60002,1,0,1:2:0:0:
380,96,60223,5,2,0:0:0:0:
380,96,60333,1,2,0:0:0:0:
380,96,60443,1,0,1:2:0:0:
380,96,60884,1,10,0:0:0:0:
452,147,61104,1,2,1:2:0:0:
452,147,61325,1,2,1:2:0:0:
501,79,61546,1,8,0:0:0:0:
460,51,61656,1,10,0:0:0:0:
423,22,61767,1,8,0:0:0:0:
380,96,61987,1,2,1:2:0:0:
132,265,62208,5,0,1:2:0:0:
132,265,62649,1,8,0:0:0:0:
185,337,62869,1,0,1:2:0:0:
185,337,62979,1,0,0:0:0:0:
185,337,63089,1,2,1:2:0:0:
66,317,63310,1,8,0:0:0:0:
116,382,63532,1,0,1:2:0:0:
411,59,63972,6,0,P|441:59|408:68,1,101.999996887207,0|2,1:2|0:0,0:0:0:0:
426,71,64634,1,2,1:2:0:0:
378,156,64855,2,0,P|386:186|412:212,2,50.9999984436036,10|2|2,0:0|0:0|0:0,0:0:0:0:
378,156,65517,1,2,1:2:0:0:
452,274,65737,6,0,P|415:287|351:273,1,101.999996887207,2|2,1:2|0:0,0:0:0:0:
479,195,66399,1,2,1:2:0:0:
406,338,66620,1,8,0:0:0:0:
406,338,66840,1,2,1:2:0:0:
352,274,67061,2,0,P|327:300|327:330,1,50.9999984436036,2|2,0:0|1:2,0:0:0:0:
242,349,67502,6,0,P|217:308|224:244,1,101.999996887207,2|2,1:2|0:0,0:0:0:0:
219,255,68164,1,0,1:2:0:0:
77,148,68384,1,10,0:0:0:0:
129,206,68605,2,0,P|180:188|196:136,1,101.999996887207,2|0,0:0|1:2,0:0:0:0:
79,323,69267,5,2,1:2:0:0:
126,22,69487,1,8,0:0:0:0:
48,34,69598,1,8,0:0:0:0:
15,104,69708,1,8,0:0:0:0:
15,104,69928,1,0,1:2:0:0:
456,227,70149,5,0,1:2:0:0:
442,172,70259,1,0,1:2:0:0:
407,139,70370,1,0,1:2:0:0:
349,131,70480,1,8,0:0:0:0:
296,162,70590,1,8,0:0:0:0:
230,159,70700,1,0,1:2:0:0:
185,114,70811,1,0,1:2:0:0:
193,34,70921,1,0,1:2:0:0:
270,8,71031,5,4,1:2:0:0:
47,204,84364,6,0,P|100:201|136:235,1,101.999996887207,0|2,3:2|3:2,0:0:0:0:
134,231,85812,2,0,P|127:259|111:363,1,127.499996109009,2|0,3:2|3:2,0:0:0:0:
111,356,87467,1,2,0:0:0:0:
222,329,87674,6,0,P|214:302|209:278,1,50.9999984436036,2|2,3:2|0:0,0:0:0:0:
268,228,88501,2,0,P|295:234|318:242,1,50.9999984436036,2|2,3:2|0:0,0:0:0:0:
332,318,89329,2,0,P|312:338|294:354,1,50.9999984436036,2|2,3:2|0:0,0:0:0:0:
295,353,90157,1,2,0:0:0:0:
450,218,90570,5,2,3:2:0:0:
368,127,90984,5,2,3:2:0:0:
50,104,91812,6,0,P|86:47|174:37,2,152.999995330811,2|2|2,3:2|0:0|3:2,0:0:0:0:
50,104,93881,1,2,0:0:0:0:
51,222,94295,6,0,B|108:203|80:172|142:159,1,114.749996498108,2|2,3:2|3:2,0:0:0:0:
201,212,95122,2,0,P|186:239|179:265,1,50.9999984436036,2|2,3:2|0:0,0:0:0:0:
63,328,95950,6,0,P|79:354|100:358,1,50.9999984436036,0|2,3:2|0:0,0:0:0:0:
198,359,96777,2,0,L|192:333,1,25.4999992218018,2|0,3:2|0:0,0:0:0:0:
275,347,97191,2,0,L|269:321,1,25.4999992218018,2|0,3:2|0:0,0:0:0:0:
356,217,97605,6,0,B|418:201|418:201|459:265,1,127.5,6|0,1:2|0:0,0:0:0:0:
421,325,98019,2,0,B|413:308|413:308|471:118,1,191.250007295609,10|0,0:0|0:0,0:0:0:0:
298,16,98432,2,0,L|242:35,1,42.5,2|0,1:2|0:0,0:0:0:0:
492,240,98639,2,0,L|436:259,1,42.5,0|0,1:2|0:0,0:0:0:0:
443,23,98846,5,10,0:0:0:0:
311,283,99053,1,0,1:2:0:0:
124,55,99260,2,0,P|171:58|186:106,1,85,2|0,1:2|0:0,0:0:0:0:
108,202,99674,1,8,0:0:0:0:
108,202,99881,1,0,1:2:0:0:
29,85,100088,6,0,L|44:144,1,42.5,2|0,1:2|0:0,0:0:0:0:
285,245,100295,2,0,L|300:304,1,42.5,2|0,1:2|0:0,0:0:0:0:
0,200,100501,2,0,L|15:259,1,42.5,10|0,0:0|0:0,0:0:0:0:
330,126,100708,2,0,L|345:185,1,42.5,2|0,1:2|0:0,0:0:0:0:
153,354,100915,6,0,B|134:348|134:348|93:199,1,152.999995330811,0|0,1:2|0:0,0:0:0:0:
389,365,101329,2,0,B|429:349|429:349|455:383,1,85,10|0,0:0|1:2,0:0:0:0:
475,71,101743,6,0,B|481:135|481:135|411:162,1,127.5,2|0,1:2|0:0,0:0:0:0:
197,265,102157,2,0,L|261:286,1,42.5,10|0,0:0|0:0,0:0:0:0:
105,33,102364,1,0,1:2:0:0:
419,145,102570,6,0,B|478:161|478:161|483:196,1,85,2|0,1:2|1:2,0:0:0:0:
352,384,102984,2,0,P|339:321|322:253,1,127.5,8|0,0:0|0:0,0:0:0:0:
512,296,103398,6,0,L|457:279,1,42.5,2|0,1:2|0:0,0:0:0:0:
316,87,103605,1,10,0:0:0:0:
371,37,103708,1,10,0:0:0:0:
448,56,103812,1,10,0:0:0:0:
250,172,104019,2,0,L|195:155,1,42.5,2|0,1:2|0:0,0:0:0:0:
512,150,104226,6,0,B|446:165|446:165|440:182,1,85,6|0,1:2|0:0,0:0:0:0:
118,231,104639,6,0,B|106:188|106:188|-22:167,1,152.999995330811,10|0,0:0|0:0,0:0:0:0:
23,384,105053,2,0,B|6:342|6:342|36:384,1,85,2|0,1:2|1:2,0:0:0:0:
213,128,105467,6,0,B|201:85|201:85|73:64,1,152.999995330811,10|0,0:0|0:0,0:0:0:0:
127,371,105881,2,0,B|110:328|110:328|140:370,1,85,2|0,1:2|0:0,0:0:0:0:
293,19,106295,6,0,P|303:65|310:111,1,85,8|0,0:0|1:2,0:0:0:0:
34,136,106708,1,2,1:2:0:0:
173,384,106915,2,0,B|170:375|170:375|203:244,1,127.5,2|0,1:2|0:0,0:0:0:0:
66,315,107329,1,2,1:2:0:0:
423,323,107536,6,0,B|472:285|472:285|450:210,1,127.5,2|0,1:2|0:0,0:0:0:0:
401,157,107950,1,8,0:2:0:0:
157,270,108157,2,0,L|236:250,1,42.5,2|0,1:2|0:0,0:0:0:0:
385,46,108364,6,0,B|324:35|324:35|298:94,1,127.5,2|0,1:2|0:0,0:0:0:0:
321,293,108777,1,8,0:0:0:0:
321,293,108984,1,2,1:2:0:0:
94,160,109191,6,0,L|30:138,1,42.5,2|0,1:2|0:0,0:0:0:0:
230,32,109398,1,2,1:2:0:0:
84,340,109605,6,0,L|20:362,1,42.5,10|0,0:0|0:0,0:0:0:0:
3,36,109812,1,2,1:2:0:0:
183,261,110019,6,0,L|119:239,1,42.5,2|0,1:2|0:0,0:0:0:0:
252,112,110226,1,10,0:0:0:0:
316,71,110329,1,10,0:0:0:0:
389,78,110432,1,10,0:0:0:0:
197,360,110639,1,2,1:2:0:0:
40,115,110846,5,6,1:2:0:0:
112,35,111053,5,2,0:0:0:0:
112,35,111157,1,2,0:0:0:0:
112,35,111260,2,0,B|160:51|137:79|202:83,1,85,2|0,3:2|0:0,0:0:0:0:
333,93,111674,2,0,P|301:111|290:145,1,63.7500024318696,2|2,3:2|0:0,0:0:0:0:
484,15,112088,2,0,P|452:-3|417:3,1,63.7500024318696,2|2,3:2|1:2,0:0:0:0:
390,159,112398,1,0,1:0:0:0:
402,166,112501,6,0,P|414:207|419:245,1,63.7500024318696,0|2,3:2|0:0,0:0:0:0:
482,366,112915,2,0,P|496:319|513:290,1,63.7500024318696,2|2,3:2|0:0,0:0:0:0:
295,241,113329,2,0,P|314:275|320:302,1,63.7500024318696,2|2,3:2|1:2,0:0:0:0:
429,235,113743,1,2,3:2:0:0:
342,384,113950,1,2,1:2:0:0:
217,270,114157,5,0,3:2:0:0:
329,377,114364,1,0,0:0:0:0:
173,382,114570,2,0,P|144:369|129:342,1,63.7500024318696,2|2,3:2|0:0,0:0:0:0:
184,120,114984,2,0,P|207:157|290:173,1,127.500004863739,2|2,3:2|3:2,0:0:0:0:
20,28,115605,1,0,1:2:0:0:
28,34,115708,1,0,1:0:0:0:
33,42,115812,2,0,P|12:80|40:160,1,127.500004863739,2|2,3:2|3:2,0:0:0:0:
35,156,116432,1,0,0:0:0:0:
231,25,116639,5,2,3:2:0:0:
102,225,116846,1,2,1:2:0:0:
312,235,117053,1,2,3:2:0:0:
272,153,117260,5,2,1:2:0:0:
242,166,117364,1,2,1:2:0:0:
230,189,117467,1,0,3:2:0:0:
188,336,117674,5,2,0:0:0:0:
188,336,117777,1,2,0:0:0:0:
188,336,117881,2,0,P|142:339|102:346,1,63.7500024318696,2|2,3:2|0:0,0:0:0:0:
332,384,118295,2,0,P|375:377|413:374,1,63.7500024318696,2|2,3:2|0:0,0:0:0:0:
500,283,118708,1,2,3:2:0:0:
437,140,118915,1,2,1:2:0:0:
440,129,119019,1,0,1:2:0:0:
447,124,119122,6,0,P|494:136|504:169,1,63.7500024318696,0|2,3:2|0:0,0:0:0:0:
347,61,119536,2,0,P|373:25|406:17,1,63.7500024318696,2|2,3:2|0:0,0:0:0:0:
265,169,119950,1,2,3:2:0:0:
96,62,120157,1,2,0:0:0:0:
216,91,120364,1,2,3:2:0:0:
96,74,120570,1,2,1:2:0:0:
23,300,120777,6,0,P|22:268|14:238,1,63.7500024318696,0|0,3:2|0:0,0:0:0:0:
114,352,121191,6,0,P|113:320|104:289,1,63.7500024318696,0|2,3:2|0:0,0:0:0:0:
198,239,121605,6,0,P|197:207|189:177,1,63.7500024318696,2|0,3:2|0:0,0:0:0:0:
308,361,122019,6,0,P|307:329|298:298,1,63.7500024318696,0|2,3:2|1:2,0:0:0:0:
414,212,122329,5,0,1:0:0:0:
423,203,122432,2,0,P|408:141|386:81,2,127.500004863739,2|0|2,3:2|3:2|1:2,0:0:0:0:
429,295,124088,6,0,B|358:305|404:368|304:380,1,127.5,6|0,1:2|0:0,0:0:0:0:
323,368,124501,2,0,P|304:323|275:283,1,85,10|2,0:0|0:0,0:0:0:0:
20,315,124915,1,2,3:0:0:0:
215,369,125122,1,2,1:2:0:0:
334,188,125329,1,10,0:0:0:0:
46,229,125536,6,0,P|59:178|164:157,1,170,2|2,1:2|0:0,0:0:0:0:
260,10,126157,1,10,0:0:0:0:
12,83,126364,1,2,0:0:0:0:
293,113,126570,2,0,P|268:158|257:201,1,85,2|0,3:0|1:2,0:0:0:0:
120,93,126984,1,10,0:0:0:0:
380,14,127191,1,2,1:2:0:0:
493,227,127398,6,0,P|468:293|451:364,1,127.5,2|0,1:2|0:0,0:0:0:0:
350,375,127812,2,0,P|311:359|291:315,1,85,8|0,0:0|0:0,0:0:0:0:
63,141,128226,2,0,P|24:180|14:256,1,127.5,2|0,3:0|0:0,0:0:0:0:
122,349,128639,2,0,P|182:334|216:331,1,85,8|0,0:0|1:2,0:0:0:0:
385,109,129053,5,2,1:2:0:0:
166,240,129260,1,2,0:0:0:0:
0,57,129467,2,0,P|41:48|82:37,1,85,10|0,0:0|0:0,0:0:0:0:
224,111,129881,1,0,3:0:0:0:
20,260,130088,1,2,1:2:0:0:
305,217,130295,1,10,0:0:0:0:
61,128,130501,1,0,1:2:0:0:
253,323,130708,6,0,P|325:313|417:301,1,127.5,0|0,1:2|0:0,0:0:0:0:
453,340,131122,2,0,P|489:306|484:264,1,85,10|0,0:0|0:0,0:0:0:0:
291,56,131536,2,0,P|301:105|308:155,1,85,0|2,3:0|1:2,0:0:0:0:
512,189,131950,2,0,P|498:125|480:30,1,127.5,10|2,0:0|0:0,0:0:0:0:
443,1,132364,6,0,P|396:19|383:64,1,85,0|2,1:2|0:0,0:0:0:0:
178,30,132777,1,10,0:0:0:0:
263,209,132984,1,2,0:0:0:0:
59,187,133191,2,0,P|74:143|84:97,1,85,2|0,3:2|1:2,0:0:0:0:
213,316,133605,2,0,P|191:243|174:174,1,127.5,10|0,0:0|0:0,0:0:0:0:
112,264,134019,6,0,P|92:321|86:362,1,85,2|0,1:2|0:0,0:0:0:0:
330,239,134432,2,0,B|393:264|354:301|444:326,1,127.5,10|0,0:0|0:0,0:0:0:0:
490,369,134846,1,0,3:0:0:0:
490,369,135053,1,2,1:2:0:0:
213,307,135260,1,10,0:0:0:0:
482,195,135467,1,2,1:2:0:0:
258,98,135674,6,0,P|264:124|273:166,1,42.5,2|0,1:2|0:0,0:0:0:0:
481,80,135881,1,8,0:0:0:0:
448,11,135984,1,8,0:0:0:0:
374,9,136088,1,10,0:0:0:0:
330,214,136295,1,0,1:2:0:0:
217,23,136501,5,0,1:2:0:0:
168,18,136605,1,0,1:2:0:0:
119,50,136708,1,10,0:0:0:0:
88,121,136812,1,8,0:0:0:0:
112,192,136915,2,0,L|184:176,1,42.5,10|0,0:0|1:2,0:0:0:0:
42,366,137122,2,0,L|0:371,1,42.5,10|8,0:0|0:0,0:0:0:0:
385,144,137329,5,2,1:2:0:0:
256,192,162157,12,0,163708,0:0:0:0:
406,265,163804,5,0,1:2:0:0:
273,230,163985,2,0,P|289:198|337:178,1,63.7500024318696,14|0,0:2|0:0,0:0:0:0:
501,153,164167,2,0,P|465:118|427:116,1,63.7500024318696,2|0,0:0|1:2,0:0:0:0:
199,306,164349,2,0,P|189:274|192:226,1,63.7500024318696,10|0,0:0|0:0,0:0:0:0:
459,23,164531,6,0,P|394:41|362:115,1,127.500004863739,2|8,1:1|0:0,0:0:0:0:
391,165,164804,1,2,0:0:0:0:
168,68,164985,1,0,1:2:0:0:
171,57,165076,2,0,P|146:26|103:20,1,63.7500024318696,10|0,0:1|0:0,0:0:0:0:
46,124,165258,5,0,1:2:0:0:
231,118,165440,1,14,0:0:0:0:
222,162,165531,1,2,0:0:0:0:
181,199,165622,1,2,0:1:0:0:
21,245,165804,2,0,P|58:264|96:263,1,63.7500024318696,10|0,0:0|0:0,0:0:0:0:
287,10,165985,6,0,P|348:50|361:135,1,127.500004863739,2|8,1:1|0:0,0:0:0:0:
317,159,166258,1,2,0:0:0:0:
434,337,166440,1,0,1:2:0:0:
444,326,166531,2,0,P|423:291|383:282,1,63.7500024318696,10|0,0:1|0:0,0:0:0:0:
304,347,166713,1,0,1:2:0:0:
173,352,166894,6,0,P|180:329|234:301,1,63.7500024318696,14|0,0:0|0:0,0:0:0:0:
460,211,167076,2,0,P|415:198|388:204,1,63.7500024318696,2|0,0:0|1:2,0:0:0:0:
85,384,167258,2,0,P|80:345|99:298,1,63.7500024318696,10|0,0:0|0:0,0:0:0:0:
301,264,167440,6,0,P|260:202|191:189,1,127.500004863739,2|12,1:1|0:0,0:0:0:0:
175,118,167713,2,0,P|136:135|114:175,1,63.7500024318696,2|0,0:0|0:0,0:0:0:0:
135,242,167894,1,0,1:2:0:0:
140,250,167985,1,10,0:0:0:0:
24,191,168167,6,0,P|22:125|84:70,1,127.500004863739,2|12,1:1|0:0,0:0:0:0:
79,3,168440,2,0,P|117:11|142:35,1,63.7500024318696,2|0,0:0|0:0,0:0:0:0:
145,242,168622,1,0,1:2:0:0:
140,250,168713,1,10,0:0:0:0:
296,62,168894,5,10,0:0:0:0:
350,45,168985,1,8,0:0:0:0:
387,37,169076,1,8,0:0:0:0:
422,28,169167,1,0,1:2:0:0:
441,22,169258,1,2,1:2:0:0:
435,37,169349,1,8,0:0:0:0:
430,54,169440,1,8,0:0:0:0:
424,69,169531,1,8,0:0:0:0:
377,137,169622,6,0,P|426:191|486:179,1,127.500004863739,6|8,1:2|0:0,0:0:0:0:
507,114,169895,1,2,0:0:0:0:
215,173,170077,1,0,1:2:0:0:
211,171,170169,2,0,P|231:146|292:141,1,63.7500024318696,10|0,0:0|0:0,0:0:0:0:
409,222,170351,6,0,P|362:292|294:292,1,127.500004863739,2|8,1:2|0:0,0:0:0:0:
296,228,170625,1,2,0:0:0:0:
459,371,170807,1,0,1:2:0:0:
461,355,170898,2,0,P|438:324|398:312,1,63.7500024318696,10|0,0:0|0:0,0:0:0:0:
220,271,171080,6,0,P|174:345|211:392,1,127.500004863739,6|8,1:2|0:0,0:0:0:0:
268,365,171354,1,2,0:0:0:0:
39,177,171536,1,0,1:2:0:0:
52,170,171628,2,0,P|79:182|93:216,1,63.7500024318696,10|0,0:0|0:0,0:0:0:0:
187,373,171810,6,0,P|124:384|72:324,1,127.500004863739,2|8,1:2|0:0,0:0:0:0:
130,287,172084,1,2,0:0:0:0:
154,91,172266,1,0,1:2:0:0:
147,76,172357,2,0,P|116:70|77:87,1,63.7500024318696,10|0,0:0|0:0,0:0:0:0:
188,172,172539,6,0,B|377:130|377:130|392:57,1,255.000009727478,6|0,1:2|0:0,0:0:0:0:
308,26,172995,1,0,1:2:0:0:
310,42,173087,1,10,0:0:0:0:
434,256,173269,6,0,L|406:144,1,101.999996887207,6|8,1:2|0:0,0:0:0:0:
477,46,173634,2,0,L|468:125,1,50.9999984436036,2|0,0:0|1:2,0:0:0:0:
343,228,173816,1,8,0:0:0:0:
506,334,173998,6,0,P|470:369|421:361,1,101.999996887207,6|8,1:2|0:0,0:0:0:0:
259,197,174363,2,0,P|186:221|168:326,1,191.250007295609,2|0,0:0|0:0,0:0:0:0:
238,366,174728,1,2,1:2:0:0:
314,309,175457,6,0,B|285:155|285:155|314:106,1,191.250007295609,6|0,1:2|0:0,0:0:0:0:
227,63,175820,2,0,B|319:33|319:33|367:74,1,127.500004863739,2|8,0:0|0:0,0:0:0:0:
252,238,176184,2,0,B|223:252|223:252|174:224,1,63.7500024318696,2|0,1:2|0:0,0:0:0:0:
159,166,176366,1,10,0:0:0:0:
165,151,176457,1,2,0:0:0:0:
386,261,176638,1,0,1:2:0:0:
390,278,176729,1,10,0:0:0:0:
132,322,176911,6,0,L|151:394,1,63.7500024318696,2|0,1:1|0:0,0:0:0:0:
16,293,177093,2,0,L|0:232,1,63.7500024318696,10|0,0:0|0:0,0:0:0:0:
195,236,177275,2,0,L|221:324,1,63.7500024318696,2|0,0:0|1:2,0:0:0:0:
64,174,177457,2,0,L|48:113,1,63.7500024318696,10|0,0:0|0:0,0:0:0:0:
107,245,177638,5,2,1:2:0:0:
279,63,177820,1,10,0:0:0:0:
476,180,178002,1,2,0:0:0:0:
474,221,178093,1,0,1:2:0:0:
429,243,178184,1,10,0:0:0:0:
199,143,178366,6,0,P|266:163|289:243,1,127.500004863739,6|8,1:2|0:0,0:0:0:0:
410,36,178729,1,2,0:0:0:0:
390,43,178820,1,0,1:2:0:0:
374,63,178911,2,0,P|400:113|421:121,1,63.7500024318696,10|0,0:0|0:0,0:0:0:0:
198,341,179093,6,0,P|202:259|302:212,1,191.250007295609,2|0,1:1|0:0,0:0:0:0:
424,263,179457,2,0,P|379:288|318:282,1,63.7500024318696,2|0,0:0|1:2,0:0:0:0:
288,226,179638,1,10,0:0:0:0:
120,376,179820,6,0,P|40:356|11:251,1,191.250007295609,6|0,1:2|0:0,0:0:0:0:
180,241,180184,2,0,P|145:242|112:281,1,63.7500024318696,2|0,0:0|1:2,0:0:0:0:
276,127,180366,6,0,P|228:63|167:54,1,127.500004863739,10|8,0:0|0:0,0:0:0:0:
155,80,180638,1,8,0:0:0:0:
107,89,180729,1,10,0:0:0:0:
66,71,180820,1,0,1:2:0:0:
42,26,180911,1,6,1:3:0:0:
72,42,181002,1,4,1:3:0:0:
99,81,181093,1,8,1:3:0:0:
102,122,181184,1,8,1:3:0:0:
69,195,181275,6,0,B|173:221|173:221|192:273,1,127.500004863739,6|8,1:2|0:0,0:0:0:0:
357,255,181547,2,0,B|349:273|349:273|242:288,1,127.500004863739,2|0,0:0|1:2,0:0:0:0:
301,199,181820,2,0,B|324:179|324:179|357:181,1,63.7500024318696,10|0,0:0|0:0,0:0:0:0:
416,330,182002,2,0,B|394:351|394:351|361:349,1,63.7500024318696,2|0,1:2|0:0,0:0:0:0:
274,373,182184,1,10,0:0:0:0:
265,384,182275,1,2,0:2:0:0:
455,225,182457,1,2,0:0:0:0:
462,241,182548,1,10,0:0:0:0:
393,109,182729,5,6,1:1:0:0:
385,98,182820,2,0,L|401:14,1,63.7500024318696,2|8,0:0|0:0,0:0:0:0:
178,95,183002,2,0,L|143:233,1,127.500004863739,2|0,0:0|1:2,0:0:0:0:
231,320,183275,2,0,L|213:251,1,63.7500024318696,10|0,0:0|0:0,0:0:0:0:
291,161,183457,5,2,1:2:0:0:
97,30,183638,1,10,0:0:0:0:
2,265,183820,1,2,0:0:0:0:
36,294,183911,1,0,1:2:0:0:
83,298,184002,1,10,0:0:0:0:
178,95,184184,6,0,P|102:85|65:170,1,127.500004863739,6|8,1:2|0:0,0:0:0:0:
311,249,184547,1,2,0:0:0:0:
290,237,184638,1,0,1:2:0:0:
281,219,184729,2,0,P|281:179|317:148,1,63.7500024318696,10|0,0:0|0:0,0:0:0:0:
505,25,184911,6,0,P|472:103|370:107,1,191.250007295609,6|0,1:1|0:0,0:0:0:0:
245,29,185275,2,0,P|278:34|307:72,1,63.7500024318696,2|0,0:0|1:2,0:0:0:0:
368,120,185457,1,10,0:0:0:0:
366,338,185638,6,0,P|414:286|406:223,1,127.500004863739,6|8,1:2|0:0,0:0:0:0:
209,302,186002,2,0,P|244:316|256:354,1,63.7500024318696,2|0,0:0|1:2,0:0:0:0:
56,298,186184,2,0,P|78:253|123:236,1,63.7500024318696,10|0,0:0|0:0,0:0:0:0:
275,92,186366,5,0,1:2:0:0:
224,68,186457,1,0,1:2:0:0:
173,44,186547,1,2,1:2:0:0:
126,21,186638,1,0,1:2:0:0:
86,2,186729,1,10,0:0:0:0:
89,32,186820,1,8,0:0:0:0:
93,69,186911,1,8,0:0:0:0:
96,101,187002,1,8,0:0:0:0:
152,157,187093,6,0,P|178:181|181:228,1,63.7500024318696,6|2,1:2|0:0,0:0:0:0:
407,69,187275,2,0,P|315:93|285:184,1,191.250007295609,8|0,0:2|1:2,0:0:0:0:
339,229,187638,1,10,0:0:0:0:
219,354,187820,5,2,1:2:0:0:
193,351,187911,1,0,0:0:0:0:
177,330,188002,1,10,0:0:0:0:
258,273,188184,1,0,0:0:0:0:
425,354,188366,2,0,L|359:348,1,63.7500024318696,10|0,0:0|0:0,0:0:0:0:
142,248,188547,6,0,L|75:263,1,63.7500024318696,2|0,1:2|0:0,0:0:0:0:
199,48,188729,2,0,P|113:62|92:162,1,191.250007295609,10|0,0:0|1:2,0:0:0:0:
167,170,189093,1,10,0:0:0:0:
36,357,189275,5,2,1:2:0:0:
14,348,189366,1,2,0:0:0:0:
2,334,189457,1,8,0:0:0:0:
70,282,189638,1,2,0:0:0:0:
231,364,189820,1,10,0:0:0:0:
463,145,190002,6,0,B|430:126|430:126|261:164,1,191.250007295609,6|0,1:2|0:0,0:0:0:0:
307,235,190366,2,0,B|327:215|327:215|348:109,1,127.500004863739,2|8,0:0|0:0,0:0:0:0:
216,28,190729,6,0,B|182:23|182:23|157:57,1,63.7500024318696,2|0,1:1|0:0,0:0:0:0:
76,174,190911,1,8,0:0:0:0:
106,202,191002,1,0,0:0:0:0:
147,195,191093,1,2,0:0:0:0:
79,85,191275,1,8,0:0:0:0:
208,282,191457,6,0,B|232:249|232:249|406:273,1,191.250007295609,6|0,1:2|0:0,0:0:0:0:
409,341,191820,1,2,0:0:0:0:
262,210,192002,2,0,L|251:121,1,63.7500024318696,10|0,0:0|0:0,0:0:0:0:
158,356,192184,5,8,0:0:0:0:
111,354,192275,1,8,0:0:0:0:
66,326,192366,1,10,0:0:0:0:
53,281,192457,1,0,1:2:0:0:
66,233,192547,2,0,L|139:217,1,63.7500024318696,6|4,1:3|1:3,0:0:0:0:
271,41,192729,5,8,1:3:0:0:
232,6,192820,1,10,1:3:0:0:
176,13,192911,2,0,B|133:27|133:27|94:16,1,63.7500024318696,6|0,1:2|0:0,0:0:0:0:
262,215,193093,2,0,B|228:184|228:184|218:145,1,63.7500024318696,10|0,0:0|0:0,0:0:0:0:
453,30,193275,2,0,B|436:24|436:24|393:39,1,63.7500024318696,2|0,0:0|1:2,0:0:0:0:
408,286,193457,2,0,B|395:299|395:299|386:344,1,63.7500024318696,10|0,0:0|0:0,0:0:0:0:
504,182,193638,5,2,1:2:0:0:
492,140,193729,1,0,0:0:0:0:
448,120,193820,1,10,0:0:0:0:
328,156,194002,1,0,1:0:0:0:
205,88,194184,1,10,0:0:0:0:
0,183,194366,6,0,L|93:156,1,63.7500024318696,6|0,1:1|0:0,0:0:0:0:
234,281,194547,2,0,L|173:299,1,63.7500024318696,10|0,0:0|0:0,0:0:0:0:
69,77,194729,2,0,L|162:50,1,63.7500024318696,2|0,0:0|1:2,0:0:0:0:
148,228,194911,2,0,L|86:245,1,63.7500024318696,10|0,0:0|0:0,0:0:0:0:
276,156,195093,5,2,1:2:0:0:
247,134,195184,1,2,0:0:0:0:
211,143,195275,1,8,0:0:0:0:
430,102,195457,1,0,1:0:0:0:
414,52,195548,1,0,1:2:0:0:
374,31,195638,1,10,0:0:0:0:
331,360,195820,6,0,P|364:278|440:270,1,127.500004863739,6|8,1:2|0:0,0:0:0:0:
124,273,196184,1,2,0:0:0:0:
152,254,196275,1,0,1:2:0:0:
186,256,196366,2,0,P|210:278|223:313,1,63.7500024318696,8|0,0:0|0:0,0:0:0:0:
276,152,196547,6,0,P|203:81|111:88,1,191.250007295609,6|0,1:1|0:0,0:0:0:0:
40,214,196911,2,0,P|76:190|87:146,1,63.7500024318696,2|0,0:0|1:2,0:0:0:0:
108,82,197093,1,8,0:0:0:0:
348,285,197275,6,0,B|366:223|366:223|415:194|415:194|437:98,1,191.250007295609,6|0,1:1|0:0,0:0:0:0:
314,8,197638,2,0,B|325:24|325:24|405:39,1,63.7500024318696,2|0,0:0|1:2,0:0:0:0:
469,375,197820,2,0,L|452:310,1,63.7500024318696,10|0,0:1|0:0,0:0:0:0:
258,90,198002,2,0,L|280:169,1,63.7500024318696,8|0,0:0|0:0,0:0:0:0:
176,348,198184,5,10,0:0:0:0:
109,377,198275,1,8,0:0:0:0:
39,358,198366,1,10,0:1:0:0:
4,292,198457,1,8,0:0:0:0:
23,220,198547,1,8,0:0:0:0:
90,182,198638,1,8,0:0:0:0:
166,196,198729,5,6,1:2:0:0:
105,279,199093,5,0,1:2:0:0:
152,340,199638,5,2,1:2:0:0:
223,308,200002,5,2,1:2:0:0:
289,352,200184,5,0,1:2:0:0:
359,316,200366,5,2,0:2:0:0:
359,316,200457,1,2,0:2:0:0:
359,316,200547,1,0,1:2:0:0:
419,368,200911,5,2,0:0:0:0:
483,319,201093,5,2,1:2:0:0:
423,265,201457,5,0,1:2:0:0:
465,100,201638,5,2,1:2:0:0:
407,44,202002,5,0,1:2:0:0:
346,98,202547,5,2,1:2:0:0:
400,160,202911,5,2,1:2:0:0:
336,210,203093,5,0,1:2:0:0:
281,149,203275,5,2,0:2:0:0:
281,149,203366,1,2,0:2:0:0:
281,149,203457,1,0,1:2:0:0:
208,184,203820,5,2,0:0:0:0:
154,70,204093,1,2,1:2:0:0:
198,177,204366,1,2,1:2:0:0:
61,384,204547,6,0,L|-4:361,1,42.5,6|0,1:0|1:0,0:0:0:0:
2,226,204729,1,0,1:0:0:0:
2,226,204820,2,0,L|54:181,1,42.5,2|8,1:2|0:0,0:0:0:0:
167,256,205002,1,8,0:0:0:0:
167,256,205093,2,0,L|179:323,1,42.5,10|8,0:0|0:0,0:0:0:0:
75,284,205275,5,6,1:0:0:0:
185,70,205457,1,8,0:0:0:0:
226,76,205547,1,10,0:0:0:0:
268,82,205638,2,0,L|259:157,1,42.5,8|0,0:0|1:0,0:0:0:0:
345,95,205820,2,0,L|336:170,1,42.5,0|0,1:0|1:0,0:0:0:0:
271,314,206002,6,0,L|244:258,1,42.5,6|0,1:0|1:0,0:0:0:0:
307,207,206184,1,8,0:0:0:0:
307,207,206275,2,0,L|381:222,1,42.5,10|8,0:0|0:0,0:0:0:0:
384,290,206457,1,0,1:0:0:0:
384,290,206548,2,0,L|334:346,1,42.5,2|0,1:2|1:0,0:0:0:0:
511,140,206729,5,6,1:0:0:0:
498,223,206911,1,8,0:0:0:0:
498,223,207002,1,10,0:0:0:0:
498,223,207093,1,8,0:0:0:0:
432,168,207275,1,2,1:2:0:0:
240,264,207457,5,6,1:2:0:0:
73,54,207637,5,8,0:0:0:0:
101,28,207728,1,8,0:0:0:0:
148,21,207818,1,8,0:0:0:0:
68,165,207999,5,2,1:2:0:0:
31,153,208090,1,0,1:2:0:0:
1,116,208180,1,2,1:2:0:0:
166,113,208360,5,8,0:0:0:0:
174,151,208451,1,8,0:0:0:0:
157,196,208541,1,2,1:2:0:0:
103,110,208722,5,8,0:0:0:0:
103,110,208812,1,8,0:0:0:0:
103,110,208902,1,2,1:2:0:0:
233,60,209081,1,0,1:2:0:0:
413,168,209261,6,0,P|406:201|399:238,1,50.9999984436036,2|0,1:2|0:0,0:0:0:0:
293,141,209440,2,0,P|288:166|282:190,1,50.9999984436036,0|0,1:2|0:0,0:0:0:0:
364,79,209620,1,2,1:2:0:0:
327,297,209800,5,8,0:0:0:0:
285,311,209890,1,8,0:0:0:0:
248,325,209979,1,10,0:0:0:0:
200,341,210069,1,0,1:2:0:0:
163,353,210159,1,0,1:2:0:0:
120,364,210249,1,0,1:2:0:0:
76,378,210339,5,2,1:2:0:0:
76,378,210702,5,8,0:0:0:0:
40,302,210884,1,10,0:0:0:0:
184,101,211066,5,10,0:0:0:0:
130,275,211248,1,8,0:0:0:0:
7,145,211429,5,8,0:0:0:0:
280,29,211611,1,10,0:0:0:0:
418,330,211793,5,14,1:2:0:0:
418,330,211953,2,0,L|405:263,2,42.5,8|8|8,0:0|0:0|0:0,0:0:0:0:
473,230,212273,1,8,0:0:0:0:
329,298,212433,5,0,1:2:0:0:
329,298,212593,2,0,L|316:231,2,42.5,8|8|8,0:0|0:0|0:0,0:0:0:0:
389,208,212914,1,8,0:0:0:0:
217,131,213074,6,0,B|141:145|182:202|97:222,1,152.999995330811,4|0,1:2|0:0,0:0:0:0:
52,113,213382,2,0,B|103:127|103:127|169:318,1,255.000009727478,10|2,0:1|1:1,0:0:0:0:
101,220,213845,1,0,1:2:0:0:
267,65,213999,2,0,P|291:88|297:134,1,63.7500024318696,10|0,0:0|0:0,0:0:0:0:
256,201,214153,1,2,0:0:0:0:
154,65,214307,6,0,B|181:71|181:71|342:-3,1,191.250007295609,0|0,1:2|0:0,0:0:0:0:
377,69,214616,2,0,B|397:58|397:58|501:108,1,101.999996887207,10|0,0:0|0:0,0:0:0:0:
256,208,214924,1,0,1:2:0:0:
393,163,215079,1,0,1:2:0:0:
474,314,215233,2,0,B|401:341|401:341|374:327,1,101.999996887207,8|0,0:0|0:0,0:0:0:0:
496,214,215541,5,2,1:1:0:0:
290,335,215696,1,2,0:0:0:0:
172,170,215850,1,10,0:0:0:0:
256,197,216004,1,2,0:0:0:0:
65,333,216158,5,2,1:1:0:0:
115,92,216313,1,2,1:2:0:0:
174,303,216467,1,10,0:0:0:0:
268,32,216775,5,10,0:1:0:0:
311,21,216852,1,8,0:0:0:0:
356,35,216929,1,8,0:0:0:0:
383,68,217006,1,8,0:0:0:0:
388,110,217084,1,8,0:0:0:0:
303,114,217238,1,8,0:0:0:0:
512,230,217392,5,2,1:2:0:0:
495,254,217469,1,0,1:2:0:0:
457,273,217547,1,0,1:2:0:0:
413,268,217624,1,0,1:2:0:0:
367,242,217701,1,8,0:0:0:0:
328,224,217778,1,0,1:2:0:0:
288,230,217855,1,8,0:0:0:0:
255,253,217932,1,0,1:2:0:0:
245,287,218009,6,0,P|263:334|278:396,1,101.999996887207,6|0,1:2|0:0,0:0:0:0:
434,181,218318,5,10,0:0:0:0:
293,118,218472,1,2,0:0:0:0:
157,220,218626,2,0,P|98:193|91:150,1,101.999996887207,2|0,1:2|1:2,0:0:0:0:
187,50,218935,5,10,0:0:0:0:
187,50,219089,1,2,0:0:0:0:
268,254,219243,6,0,P|206:263|110:308,1,152.999995330811,2|0,1:1|0:0,0:0:0:0:
87,370,219552,5,10,0:0:0:0:
87,370,219706,1,2,0:0:0:0:
175,134,219860,5,2,1:2:0:0:
283,264,220014,1,2,1:2:0:0:
438,174,220169,2,0,P|423:138|406:58,1,101.999996887207,10|0,0:0|0:0,0:0:0:0:
314,351,220477,6,0,P|375:326|381:232,1,152.999995330811,0|0,1:2|0:0,0:0:0:0:
331,192,220786,1,10,0:1:0:0:
182,240,220940,1,2,0:0:0:0:
304,77,221094,5,2,1:2:0:0:
88,10,221248,1,2,1:2:0:0:
235,160,221403,1,10,0:1:0:0:
85,354,221711,5,10,0:1:0:0:
44,335,221789,1,8,0:0:0:0:
16,303,221867,1,8,0:0:0:0:
13,258,221945,1,8,0:0:0:0:
32,221,222023,1,8,0:0:0:0:
222,248,222179,5,0,1:2:0:0:
227,256,222257,1,0,1:2:0:0:
231,264,222336,1,10,0:0:0:0:
264,288,222414,1,8,0:0:0:0:
305,295,222492,1,8,0:0:0:0:
348,275,222570,1,8,0:0:0:0:
367,239,222648,1,0,1:2:0:0:
391,203,222726,1,0,1:2:0:0:
423,180,222804,1,0,1:2:0:0:
475,184,222882,1,0,1:2:0:0:
508,215,222961,6,0,P|489:271|476:346,1,127.500004863739,6|2,1:2|1:2,0:0:0:0:
476,338,223419,1,2,1:2:0:0:
294,192,223571,6,0,P|282:138|253:57,1,127.500004863739,10|2,0:0|0:0,0:0:0:0:
377,54,224029,2,0,P|349:22|302:13,1,63.7500024318696,10|0,0:0|0:0,0:0:0:0:
248,60,224335,1,8,0:0:0:0:
165,15,224487,2,0,P|120:37|111:67,1,63.7500024318696,2|0,1:2|0:0,0:0:0:0:
96,188,224793,6,0,P|45:155|30:76,1,127.500004863739,8|0,0:0|1:2,0:0:0:0:
162,117,225251,1,8,0:0:0:0:
63,287,225403,6,0,P|106:267|139:263,1,63.7500024318696,2|8,1:2|0:0,0:0:0:0:
225,320,225709,2,0,P|175:336|155:336,1,63.7500024318696,2|0,0:0|0:0,0:0:0:0:
290,160,226014,2,0,P|334:171|368:188,1,63.7500024318696,10|0,0:0|0:0,0:0:0:0:
411,283,226319,2,0,P|373:277|340:256,1,63.7500024318696,2|8,1:2|0:0,0:0:0:0:
432,134,226625,5,2,1:2:0:0:
349,22,226780,1,8,0:0:0:0:
221,79,226935,1,2,1:2:0:0:
202,342,227246,5,8,0:0:0:0:
210,336,227324,1,8,0:0:0:0:
214,327,227402,1,8,0:0:0:0:
215,318,227479,1,8,0:0:0:0:
212,310,227557,1,10,0:0:0:0:
397,342,227896,6,0,P|365:237|350:162,1,170,6|8,1:2|0:0,0:0:0:0:
352,178,228512,6,0,B|433:151|385:106|469:78,1,152.999995330811,2|0,1:2|0:0,0:0:0:0:
508,18,228821,2,0,P|457:-2|407:22,1,101.999996887207,8|0,0:0|0:0,0:0:0:0:
270,222,229129,6,0,P|210:206|200:89,1,152.999995330811,2|0,1:2|0:0,0:0:0:0:
244,79,229438,2,0,P|308:67|349:53,1,101.999996887207,8|0,0:0|0:0,0:0:0:0:
100,9,229746,6,0,P|40:26|27:78,1,101.999996887207,2|0,1:2|1:2,0:0:0:0:
111,302,230055,2,0,P|48:287|20:235,1,101.999996887207,10|0,0:0|0:0,0:0:0:0:
120,166,230363,2,0,P|194:180|279:212,1,152.999995330811,2|0,1:2|0:0,0:0:0:0:
313,270,230672,5,8,0:0:0:0:
190,345,230826,1,2,0:0:0:0:
420,282,230980,2,0,P|408:335|363:360,1,101.999996887207,2|0,1:2|1:2,0:0:0:0:
370,70,231289,2,0,B|294:91|294:91|285:118,1,101.999996887207,10|0,0:0|0:0,0:0:0:0:
25,359,231597,5,10,0:0:0:0:
2,310,231674,1,8,0:0:0:0:
15,265,231752,1,8,0:0:0:0:
58,238,231829,1,8,0:0:0:0:
106,239,231906,1,2,1:2:0:0:
153,264,231983,1,0,1:2:0:0:
212,249,232060,1,8,0:0:0:0:
230,206,232137,1,8,0:0:0:0:
210,153,232214,1,10,0:1:0:0:
511,384,232832,6,0,B|355:351|355:351|343:308,1,191.250007295609,6|0,1:2|0:0,0:0:0:0:
250,338,233195,2,0,B|288:251|288:251|351:231,1,127.500004863739,2|10,0:0|0:0,0:0:0:0:
456,177,233559,5,2,1:2:0:0:
469,182,233650,2,0,B|479:212|479:212|446:262,1,63.7500024318696,2|8,0:0|0:0,0:0:0:0:
354,155,233832,2,0,B|324:100|324:100|365:49,1,127.500004863739,2|0,1:2|1:2,0:0:0:0:
444,33,234104,1,10,0:0:0:0:
203,221,234286,6,0,L|119:206,1,63.7500024318696,2|2,1:1|0:0,0:0:0:0:
45,34,234468,2,0,L|107:45,1,63.7500024318696,8|2,0:0|0:0,0:0:0:0:
73,252,234650,2,0,L|11:241,1,63.7500024318696,0|0,0:0|1:2,0:0:0:0:
181,0,234832,2,0,L|244:11,1,63.7500024318696,10|0,0:0|0:0,0:0:0:0:
121,127,235013,5,2,1:2:0:0:
234,331,235195,1,10,0:0:0:0:
461,238,235377,1,2,0:0:0:0:
428,206,235468,1,0,1:2:0:0:
376,209,235559,1,10,0:0:0:0:
158,251,235741,6,0,P|176:181|224:160,1,127.500004863739,6|8,1:2|0:0,0:0:0:0:
412,370,236104,1,2,0:0:0:0:
427,362,236195,1,0,1:2:0:0:
434,350,236286,2,0,P|399:309|365:308,1,63.7500024318696,10|0,0:0|0:0,0:0:0:0:
161,360,236468,6,0,P|251:357|281:266,1,191.250007295609,2|0,1:1|0:0,0:0:0:0:
163,192,236832,2,0,P|163:217|188:262,1,63.7500024318696,2|0,0:0|1:2,0:0:0:0:
275,262,237013,1,10,0:0:0:0:
414,65,237195,6,0,P|357:124|303:111,1,127.500004863739,6|8,1:2|0:0,0:0:0:0:
178,39,237559,2,0,P|215:44|233:75,1,63.7500024318696,2|0,0:0|1:2,0:0:0:0:
59,305,237741,5,10,0:0:0:0:
20,282,237832,1,0,0:0:0:0:
6,231,237922,1,8,0:0:0:0:
32,189,238013,1,8,0:0:0:0:
70,168,238104,1,10,0:0:0:0:
115,180,238195,1,0,1:2:0:0:
145,215,238286,1,6,1:3:0:0:
178,251,238377,1,4,1:3:0:0:
223,259,238468,1,8,1:3:0:0:
264,236,238559,1,8,1:3:0:0:
284,191,238650,6,0,B|277:143|277:143|245:123,1,63.7500024318696,6|0,1:2|0:0,0:0:0:0:
412,32,238832,2,0,B|366:14|366:14|333:31,1,63.7500024318696,10|0,0:0|0:0,0:0:0:0:
470,172,239013,2,0,B|431:202|431:202|430:239,1,63.7500024318696,2|0,0:0|1:2,0:0:0:0:
372,115,239195,1,10,0:0:0:0:
395,379,239377,6,0,B|366:363|366:363|346:251,1,127.500004863739,2|10,1:2|0:0,0:0:0:0:
174,133,239650,2,0,B|148:275|148:275|89:293,1,191.250007295609,2|10,0:0|0:0,0:0:0:0:
276,384,240104,6,0,L|262:297,1,63.7500024318696,6|0,1:1|0:0,0:0:0:0:
28,179,240286,2,0,L|42:266,1,63.7500024318696,10|0,0:0|0:0,0:0:0:0:
192,283,240468,2,0,L|180:209,1,63.7500024318696,2|0,0:0|1:2,0:0:0:0:
1,320,240650,2,0,L|13:394,1,63.7500024318696,10|0,0:0|0:0,0:0:0:0:
105,302,240832,5,2,1:2:0:0:
227,117,241013,1,10,0:0:0:0:
416,248,241195,1,2,0:0:0:0:
398,285,241286,1,0,1:2:0:0:
353,295,241377,1,10,0:0:0:0:
488,102,241559,6,0,P|430:26|335:42,1,191.250007295609,6|0,1:2|0:0,0:0:0:0:
283,204,241922,1,2,0:0:0:0:
300,201,242013,1,0,1:2:0:0:
316,192,242104,2,0,P|330:154|322:115,1,63.7500024318696,10|0,0:0|0:0,0:0:0:0:
59,111,242286,6,0,P|89:61|183:57,1,127.500004863739,6|8,1:1|0:0,0:0:0:0:
170,190,242650,2,0,P|152:168|150:123,1,63.7500024318696,2|0,0:0|1:2,0:0:0:0:
164,54,242832,1,10,0:0:0:0:
71,230,243013,6,0,P|103:275|193:294,1,127.500004863739,6|8,1:2|0:0,0:0:0:0:
265,65,243377,2,0,P|242:81|236:119,1,63.7500024318696,2|0,0:0|1:2,0:0:0:0:
297,279,243559,1,10,0:0:0:0:
351,62,243741,5,0,1:2:0:0:
391,42,243832,1,0,1:2:0:0:
435,54,243922,1,2,1:2:0:0:
462,98,244013,1,0,1:2:0:0:
447,142,244104,1,10,0:0:0:0:
412,180,244195,1,8,0:0:0:0:
417,232,244286,1,8,0:0:0:0:
460,263,244377,1,8,0:0:0:0:
512,247,244468,5,6,1:2:0:0:
337,149,244650,1,8,0:2:0:0:
333,160,244741,2,0,B|245:177|245:177|216:144,1,127.500004863739,2|0,0:0|1:2,0:0:0:0:
158,50,245013,6,0,B|190:39|190:39|224:72,1,63.7500024318696,10|0,0:0|0:0,0:0:0:0:
190,237,245195,2,0,B|158:248|158:248|124:215,1,63.7500024318696,2|0,1:2|0:0,0:0:0:0:
96,158,245377,1,10,0:0:0:0:
99,140,245468,1,2,0:0:0:0:
287,262,245650,1,0,1:2:0:0:
289,280,245741,1,10,0:0:0:0:
6,350,245922,6,0,B|23:376|23:376|142:361,1,127.500004863739,2|10,1:2|0:0,0:0:0:0:
190,331,246195,2,0,L|276:359,1,63.7500024318696,2|0,0:0|0:0,0:0:0:0:
51,263,246468,1,10,0:0:0:0:
296,98,246650,6,0,L|315:165,1,63.7500024318696,2|0,1:2|0:0,0:0:0:0:
117,152,246832,1,8,0:0:0:0:
273,12,247013,1,2,0:0:0:0:
482,72,247195,1,10,0:0:0:0:
236,213,247377,6,0,P|271:265|356:264,1,127.500004863739,6|8,1:2|0:0,0:0:0:0:
455,177,247741,1,2,0:0:0:0:
453,167,247832,1,0,1:2:0:0:
447,161,247922,2,0,P|412:181|406:214,1,63.7500024318696,10|0,0:0|0:0,0:0:0:0:
211,338,248104,6,0,P|124:327|90:220,1,191.250007295609,2|0,1:1|0:0,0:0:0:0:
85,108,248468,2,0,P|117:123|134:163,1,63.7500024318696,2|0,0:0|1:2,0:0:0:0:
78,229,248650,1,10,0:0:0:0:
259,177,248832,6,0,P|313:90|293:34,1,127.500004863739,6|8,1:2|0:0,0:0:0:0:
168,50,249195,2,0,P|187:76|225:84,1,63.7500024318696,2|0,0:0|1:2,0:0:0:0:
393,57,249377,2,0,P|410:31|410:0,1,63.7500024318696,10|0,0:0|0:0,0:0:0:0:
245,274,249559,5,8,0:0:0:0:
268,261,249650,1,8,0:0:0:0:
274,238,249741,2,0,L|253:152,1,63.7500024318696,10|0,0:0|1:2,0:0:0:0:
462,219,249922,1,6,1:3:0:0:
486,257,250013,1,4,1:3:0:0:
482,308,250104,1,8,1:3:0:0:
460,348,250195,1,10,1:3:0:0:
381,365,250286,6,0,B|287:351|287:351|265:375,1,127.500004863739,6|10,1:2|0:0,0:0:0:0:
209,315,250559,2,0,B|190:345|190:345|73:367,1,127.500004863739,2|0,0:0|1:2,0:0:0:0:
10,294,250832,2,0,B|29:267|29:267|77:278,1,63.7500024318696,10|0,0:0|0:0,0:0:0:0:
243,193,251013,6,0,B|224:166|224:166|176:177,1,63.7500024318696,2|0,1:2|0:0,0:0:0:0:
143,257,251195,1,10,0:0:0:0:
136,66,251377,1,2,0:0:0:0:
95,81,251468,1,0,1:2:0:0:
73,117,251559,1,10,0:0:0:0:
379,158,251741,6,0,L|470:139,1,63.7500024318696,6|0,1:2|0:0,0:0:0:0:
278,17,251922,2,0,L|215:30,1,63.7500024318696,10|0,0:0|0:0,0:0:0:0:
325,258,252104,2,0,L|416:239,1,63.7500024318696,2|0,0:0|1:2,0:0:0:0:
465,44,252286,2,0,L|402:57,1,63.7500024318696,10|0,0:0|0:0,0:0:0:0:
300,121,252468,5,2,1:2:0:0:
336,342,252650,1,10,0:0:0:0:
110,368,252832,1,2,0:0:0:0:
135,335,252922,1,0,1:2:0:0:
177,327,253013,1,10,0:0:0:0:
0,123,253195,6,0,P|14:207|132:233,1,191.250007295609,6|0,1:2|0:0,0:0:0:0:
214,128,253559,2,0,P|183:132|156:166,1,63.7500024318696,0|0,1:0|1:2,0:0:0:0:
120,250,253741,1,8,0:0:0:0:
366,17,253922,6,0,P|447:57|455:174,1,191.250007295609,6|0,1:1|0:0,0:0:0:0:
418,289,254286,1,0,1:0:0:0:
382,290,254377,1,0,1:2:0:0:
362,271,254468,2,0,P|356:236|380:204,1,63.7500024318696,8|0,0:0|0:0,0:0:0:0:
230,350,254650,6,0,P|237:277|180:210,1,127.500004863739,4|8,1:2|0:0,0:0:0:0:
47,295,255013,2,0,P|83:296|111:266,1,63.7500024318696,0|0,1:0|1:2,0:0:0:0:
119,196,255195,1,8,0:0:0:0:
24,27,255377,6,0,L|45:110,1,63.7500024318696,8|0,0:0|0:0,0:0:0:0:
193,141,255559,1,10,0:0:0:0:
207,98,255650,1,8,0:0:0:0:
242,64,255741,1,10,0:0:0:0:
297,50,255832,1,8,0:0:0:0:
341,62,255922,1,8,0:0:0:0:
378,98,256013,1,8,0:0:0:0:
391,148,256104,5,6,1:2:0:0:
321,185,256468,5,0,1:2:0:0:
356,259,257013,5,2,1:2:0:0:
430,240,257377,5,2,1:2:0:0:
463,311,257559,5,0,1:2:0:0:
386,349,257741,5,2,0:2:0:0:
386,349,257832,1,2,0:2:0:0:
386,349,257922,1,0,1:2:0:0:
356,259,258286,5,2,0:0:0:0:
280,285,258468,5,2,1:2:0:0:
241,215,258832,5,0,1:2:0:0:
25,276,259013,5,2,1:2:0:0:
74,339,259377,5,0,1:2:0:0:
147,303,259922,5,2,1:2:0:0:
102,236,260286,5,2,1:2:0:0:
158,176,260468,5,0,1:2:0:0:
111,112,260650,5,2,0:2:0:0:
111,112,260741,1,2,0:2:0:0:
111,112,260832,1,0,1:2:0:0:
179,72,261195,5,2,0:0:0:0:
298,129,261468,1,2,1:2:0:0:
186,66,261741,1,2,1:2:0:0:
451,0,261922,6,0,L|516:23,1,42.5,6|0,1:0|1:0,0:0:0:0:
510,158,262104,1,0,1:0:0:0:
510,158,262195,2,0,L|458:203,1,42.5,2|8,1:2|0:0,0:0:0:0:
345,128,262377,1,8,0:0:0:0:
345,128,262468,2,0,L|333:61,1,42.5,10|8,0:0|0:0,0:0:0:0:
437,100,262650,5,6,1:0:0:0:
327,314,262832,1,8,0:0:0:0:
286,308,262922,1,10,0:0:0:0:
244,302,263013,2,0,L|253:227,1,42.5,8|0,0:0|1:0,0:0:0:0:
167,289,263195,2,0,L|176:214,1,42.5,0|0,1:0|1:0,0:0:0:0:
241,70,263377,6,0,L|268:126,1,42.5,6|0,1:0|1:0,0:0:0:0:
205,177,263559,1,8,0:0:0:0:
205,177,263650,2,0,L|131:162,1,42.5,10|8,0:0|0:0,0:0:0:0:
128,94,263832,1,0,1:0:0:0:
128,94,263923,2,0,L|177:37,1,42.5,2|0,1:2|1:0,0:0:0:0:
1,244,264104,5,6,1:0:0:0:
14,161,264286,1,8,0:0:0:0:
14,161,264377,1,10,0:0:0:0:
14,161,264468,1,8,0:0:0:0:
80,216,264650,1,2,1:2:0:0:
272,120,264832,5,6,1:2:0:0:
439,330,265013,5,8,0:0:0:0:
411,356,265104,1,8,0:0:0:0:
364,363,265195,1,8,0:0:0:0:
444,219,265377,5,2,1:2:0:0:
481,231,265468,1,0,1:2:0:0:
511,268,265559,1,2,1:2:0:0:
346,271,265741,5,8,0:0:0:0:
338,233,265832,1,8,0:0:0:0:
355,188,265922,1,2,1:2:0:0:
409,274,266104,5,8,0:0:0:0:
409,274,266195,1,8,0:0:0:0:
409,274,266286,1,2,1:2:0:0:
355,99,266468,1,0,1:2:0:0:
512,130,266650,2,0,P|491:52|477:23,1,85,2|0,1:2|1:2,0:0:0:0:
285,236,267013,5,2,1:2:0:0:
285,281,267104,1,0,1:0:0:0:
251,315,267195,1,8,0:0:0:0:
203,325,267286,1,8,0:0:0:0:
162,301,267377,1,10,0:0:0:0:
120,275,267468,1,0,1:2:0:0:
68,278,267559,1,0,1:2:0:0:
31,317,267650,1,0,1:2:0:0:
33,364,267741,5,2,1:2:0:0:
33,364,268104,5,8,0:0:0:0:
87,202,268286,1,10,0:0:0:0:
272,371,268468,5,10,0:0:0:0:
237,141,268650,1,8,0:0:0:0:
391,370,268832,5,8,0:0:0:0:
428,61,269013,1,10,0:0:0:0:
132,16,269195,5,14,1:2:0:0:
132,16,269349,2,0,L|148:65,2,42.5,8|8|8,0:0|0:0|0:0,0:0:0:0:
61,54,269658,1,8,0:0:0:0:
224,101,269813,5,0,1:2:0:0:
224,101,269967,2,0,L|240:150,2,42.5,8|8|8,0:0|0:0|0:0,0:0:0:0:
153,139,270276,1,8,0:0:0:0:
362,273,270432,6,0,P|385:158|400:106,1,152.999995330811,4|0,1:2|0:0,0:0:0:0:
469,87,270741,2,0,B|461:132|461:132|260:229,1,255.000009727478,10|2,0:1|1:1,0:0:0:0:
394,123,271205,1,0,1:2:0:0:
363,362,271359,2,0,P|402:347|420:311,1,63.7500024318696,10|0,0:0|0:0,0:0:0:0:
443,246,271514,1,2,0:0:0:0:
351,356,271669,6,0,B|327:318|327:318|164:287,1,191.250007295609,0|0,1:2|0:0,0:0:0:0:
101,305,271978,2,0,B|91:328|91:328|1:354,1,101.999996887207,10|0,0:0|0:0,0:0:0:0:
220,200,272287,1,0,1:2:0:0:
34,154,272442,1,0,1:2:0:0:
112,13,272597,2,0,B|142:22|142:22|163:119,1,101.999996887207,8|0,0:0|0:0,0:0:0:0:
32,165,272906,5,2,1:1:0:0:
239,42,273060,1,2,0:0:0:0:
371,212,273215,1,10,0:0:0:0:
289,246,273370,1,2,0:0:0:0:
452,293,273524,5,2,1:1:0:0:
219,192,273679,1,2,1:2:0:0:
475,169,273834,1,10,0:0:0:0:
97,354,274143,5,10,0:1:0:0:
128,326,274220,1,8,0:0:0:0:
136,287,274298,1,8,0:0:0:0:
124,244,274375,1,8,0:0:0:0:
86,212,274452,1,8,0:0:0:0:
21,57,274607,5,0,1:2:0:0:
50,34,274684,1,0,1:2:0:0:
87,28,274762,1,2,1:2:0:0:
128,43,274839,1,0,1:2:0:0:
159,70,274916,1,0,1:2:0:0:
186,118,274993,1,0,1:2:0:0:
235,138,275071,1,8,0:0:0:0:
285,128,275148,1,0,1:2:0:0:
329,103,275225,1,8,0:0:0:0:
344,52,275303,1,0,1:2:0:0:
333,8,275380,6,0,P|266:30|225:40,1,101.999996887207,6|0,1:2|0:0,0:0:0:0:
370,207,275689,1,10,0:0:0:0:
454,70,275844,1,2,0:0:0:0:
360,221,275999,6,0,B|374:302|374:302|424:331,1,127.500004863739,2|0,1:2|1:2,0:0:0:0:
506,143,276308,1,10,0:0:0:0:
506,143,276463,1,2,0:0:0:0:
277,296,276617,6,0,B|133:271|133:271|111:228,1,191.250007295609,2|0,1:1|0:0,0:0:0:0:
185,195,276926,1,10,0:0:0:0:
185,195,277081,1,2,0:0:0:0:
26,153,277236,5,2,1:2:0:0:
137,306,277390,1,2,1:2:0:0:
298,184,277545,2,0,P|281:117|276:71,1,101.999996887207,10|0,0:0|0:0,0:0:0:0:
60,1,277854,6,0,P|143:22|165:95,1,152.999995330811,0|0,1:2|0:0,0:0:0:0:
114,137,278164,1,10,0:1:0:0:
294,194,278318,1,2,0:0:0:0:
57,342,278473,5,2,1:2:0:0:
207,162,278627,1,2,1:2:0:0:
200,384,278782,1,10,0:1:0:0:
488,21,279091,5,10,0:1:0:0:
432,14,279168,1,8,0:0:0:0:
389,32,279246,1,8,0:0:0:0:
366,73,279323,1,8,0:0:0:0:
373,113,279401,2,0,L|394:172,3,50.9999984436036,10|0|0|0,0:0|0:0|1:2|1:2,0:0:0:0:
318,355,279710,5,10,0:0:0:0:
274,381,279787,1,8,0:0:0:0:
224,382,279865,1,8,0:0:0:0:
182,344,279942,1,8,0:0:0:0:
161,298,280020,1,0,1:2:0:0:
124,266,280097,1,0,1:2:0:0:
85,248,280174,1,0,1:2:0:0:
38,264,280252,1,0,1:2:0:0:
12,303,280329,6,0,P|47:236|34:181,1,127.500004863739,6|2,1:2|1:2,0:0:0:0:
37,187,280792,1,2,1:2:0:0:
170,20,280947,6,0,P|229:40|248:103,1,127.500004863739,10|2,0:0|0:0,0:0:0:0:
125,165,281411,2,0,P|166:152|195:150,1,63.7500024318696,10|0,0:0|0:0,0:0:0:0:
260,104,281720,1,8,0:0:0:0:
393,190,281875,2,0,P|346:172|322:165,1,63.7500024318696,2|0,1:2|0:0,0:0:0:0:
235,328,282184,6,0,P|244:261|257:216,1,95.6250036478044,8|0,0:0|0:0,0:0:0:0:
258,227,282493,1,0,1:2:0:0:
34,58,282803,6,0,P|63:44|95:41,1,63.7500024318696,2|8,1:2|0:0,0:0:0:0:
165,101,283112,2,0,P|118:131|92:133,1,63.7500024318696,2|0,0:0|0:0,0:0:0:0:
298,14,283421,2,0,P|345:23|368:40,1,63.7500024318696,10|0,0:0|0:0,0:0:0:0:
404,135,283731,2,0,P|365:127|333:100,1,63.7500024318696,2|8,1:2|0:0,0:0:0:0:
499,48,284040,5,2,1:2:0:0:
500,192,284195,1,8,0:0:0:0:
369,245,284349,1,2,1:2:0:0:
206,106,284658,5,8,0:0:0:0:
210,97,284736,1,8,0:0:0:0:
218,91,284814,1,8,0:0:0:0:
227,89,284891,1,8,0:0:0:0:
236,91,284969,1,10,0:0:0:0:
328,340,285277,6,0,B|246:345|274:262|167:283,1,170,6|8,1:2|0:0,0:0:0:0:
177,281,285896,2,0,B|137:343|137:343|43:310,1,152.999995330811,2|0,1:2|0:0,0:0:0:0:
50,239,286205,2,0,L|60:190,1,50.9999984436036,8|0,0:0|0:0,0:0:0:0:
211,369,286359,1,0,0:0:0:0:
138,81,286514,6,0,L|179:290,1,203.999993774414,2|8,1:2|0:0,0:0:0:0:
214,209,286978,1,0,0:0:0:0:
17,77,287133,2,0,P|32:41|92:17,1,101.999996887207,2|0,1:2|1:2,0:0:0:0:
350,117,287442,2,0,P|307:142|258:131,1,101.999996887207,10|0,0:0|0:0,0:0:0:0:
416,261,287751,6,0,P|475:202|475:109,1,152.999995330811,2|0,1:2|0:0,0:0:0:0:
431,75,288060,1,8,0:0:0:0:
311,210,288215,1,2,0:0:0:0:
193,13,288370,2,0,P|251:24|280:58,1,101.999996887207,2|0,1:2|1:2,0:0:0:0:
340,314,288679,2,0,B|321:336|321:336|227:327,1,101.999996887207,10|0,0:0|0:0,0:0:0:0:
5,279,288988,5,0,1:2:0:0:
0,232,289066,1,0,1:2:0:0:
22,192,289145,1,8,0:0:0:0:
66,177,289224,1,8,0:0:0:0:
112,196,289303,1,10,0:0:0:0:
149,231,289382,1,0,1:2:0:0:
195,245,289461,1,8,0:0:0:0:
233,226,289540,1,0,1:2:0:0:
253,198,289619,5,10,0:1:0:0:
253,151,289698,1,8,0:0:0:0:
231,119,289777,1,8,0:0:0:0:
202,111,289856,1,8,0:0:0:0:
168,117,289935,2,0,L|120:141,1,42.5,2|0,1:2|1:2,0:0:0:0:
94,355,290093,2,0,L|132:335,1,42.5,0|0,1:2|1:2,0:0:0:0:
80,275,290251,5,2,1:2:0:0:
80,275,290942,6,0,B|110:242|110:242|271:280,1,191.250007295609,6|10,1:2|0:0,0:0:0:0:
315,324,291634,2,0,B|339:301|339:301|322:222,1,95.6250036478044,2|0,1:2|0:0,0:0:0:0:
324,229,291980,2,0,L|306:145,1,63.7500024318696,2|2,1:2|1:2,0:0:0:0:
157,90,292325,6,0,B|188:51|188:51|243:77,2,95.6250036478044,10|2|2,0:0|0:0|0:0,0:0:0:0:
206,148,293017,6,0,P|132:125|66:113,1,127.500004863739,6|0,1:2|0:0,0:0:0:0:
82,115,293536,1,2,0:0:0:0:
12,300,293709,6,0,P|71:293|101:225,1,127.500004863739,10|0,0:0|0:0,0:0:0:0:
36,191,294227,1,8,0:0:0:0:
162,305,294400,5,0,1:2:0:0:
162,305,294487,1,0,1:2:0:0:
162,305,294573,2,0,L|228:294,1,42.5,2|0,1:2|1:2,0:0:0:0:
272,341,294746,2,0,L|338:330,1,42.5,2|0,1:2|1:2,0:0:0:0:
383,375,294919,2,0,L|449:364,1,42.5,10|8,0:0|0:0,0:0:0:0:
282,177,295092,6,0,B|325:160|325:160|363:195,2,95.6250036478044,10|10|2,0:0|0:0|1:2,0:0:0:0:
310,252,295784,5,0,1:2:0:0:
310,252,295957,1,0,1:2:0:0:
418,86,296302,5,0,1:2:0:0:
418,86,296475,2,0,P|357:35|287:66,1,159.375006079674,6|0,1:2|0:0,0:0:0:0:
231,115,296994,5,8,0:0:0:0:
231,115,297167,2,0,P|195:77|191:49,1,63.7500024318696,2|8,1:2|0:0,0:0:0:0:
126,25,297513,2,0,P|97:51|90:93,1,63.7500024318696,0|0,1:2|0:0,0:0:0:0:
211,200,297859,1,8,0:0:0:0:
211,200,298031,2,0,P|149:214|90:157,1,127.500004863739,6|0,1:2|0:0,0:0:0:0:
21,187,298550,5,0,1:2:0:0:
21,187,298723,1,0,1:2:0:0:
0,265,298896,6,0,P|29:275|42:320,1,63.7500024318696,2|0,0:0|0:0,0:0:0:0:
163,362,299242,6,0,P|151:319|148:293,1,63.7500024318696,6|0,1:2|0:0,0:0:0:0:
243,348,299588,2,0,P|231:305|228:279,1,63.7500024318696,2|8,0:0|0:0,0:0:0:0:
329,207,299933,5,2,1:2:0:0:
329,207,300020,1,0,1:2:0:0:
329,207,300106,1,2,1:2:0:0:
329,207,300193,1,0,1:2:0:0:
329,207,300279,2,0,L|317:273,1,42.5,2|0,1:2|1:2,0:0:0:0:
416,153,300452,2,0,L|404:219,1,42.5,0|0,1:2|1:2,0:0:0:0:
267,38,300625,5,10,0:0:0:0:
267,38,300712,1,8,0:0:0:0:
267,38,300798,2,0,L|255:104,1,42.5,8|8,0:0|0:0,0:0:0:0:
356,48,300971,1,2,1:2:0:0:
357,37,301057,1,0,1:2:0:0:
360,27,301144,1,0,1:2:0:0:
362,18,301230,1,0,1:2:0:0:
365,6,301317,1,0,1:2:0:0:
338,122,301490,5,2,1:2:0:0:
338,122,302008,6,0,B|307:94|307:94|148:143,1,191.250007295609,6|10,1:2|0:0,0:0:0:0:
127,207,302700,2,0,B|94:187|94:187|78:123,1,95.6250036478044,2|0,1:2|0:0,0:0:0:0:
78,122,303046,2,0,L|60:53,1,63.7500024318696,2|2,0:0|1:2,0:0:0:0:
246,209,303392,6,0,B|256:256|256:256|215:293,2,95.6250036478044,10|2|2,0:0|0:0|1:2,0:0:0:0:
161,245,304083,6,0,P|184:314|206:389,1,127.500004863739,6|0,1:2|1:2,0:0:0:0:
199,366,304602,1,2,1:2:0:0:
456,246,304775,6,0,P|363:272|356:338,1,159.375006079674,10|0,0:0|0:0,0:0:0:0:
402,384,305294,1,8,0:0:0:0:
335,229,305467,5,0,1:2:0:0:
335,229,305553,1,0,1:2:0:0:
335,229,305640,2,0,L|343:152,1,42.5,10|0,0:0|1:2,0:0:0:0:
406,144,305812,2,0,L|414:67,1,42.5,10|0,0:0|1:2,0:0:0:0:
477,61,305985,2,0,L|485:-16,1,42.5,2|0,1:2|1:2,0:0:0:0:
281,89,306158,6,0,B|317:70|317:70|316:16,1,85,10|0,0:0|1:2,0:0:0:0:
236,25,306418,1,2,1:2:0:0:
225,18,306504,1,8,0:0:0:0:
45,118,306677,5,10,0:0:0:0:
91,112,306763,1,8,0:0:0:0:
116,71,306850,1,0,1:2:0:0:
47,39,307023,1,0,1:2:0:0:
205,163,307369,5,0,1:2:0:0:
205,163,307542,2,0,P|188:218|173:331,1,159.375006079674,6|0,1:2|0:0,0:0:0:0:
99,353,308060,5,8,0:0:0:0:
99,353,308233,2,0,P|84:315|65:283,1,63.7500024318696,2|8,1:2|0:0,0:0:0:0:
81,217,308579,2,0,P|49:191|16:173,1,63.7500024318696,0|0,1:2|0:0,0:0:0:0:
187,322,308925,5,10,0:0:0:0:
187,322,309098,2,0,P|241:297|312:275,1,127.500004863739,4|0,1:2|0:0,0:0:0:0:
399,326,309616,6,0,P|392:359|390:384,1,42.5,0|0,1:2|0:0,0:0:0:0:
478,341,309962,2,0,P|471:374|469:399,1,42.5,0|0,1:2|0:0,0:0:0:0:
321,117,310308,6,0,P|402:135|428:194,1,127.500004863739,6|0,1:2|0:0,0:0:0:0:
384,240,310827,1,8,0:0:0:0:
174,133,311000,5,10,0:0:0:0:
174,133,311090,1,8,0:0:0:0:
174,133,311180,1,8,0:0:0:0:
174,133,311271,1,8,0:0:0:0:
174,133,311361,2,0,L|159:69,1,42.5,0|0,1:2|1:2,0:0:0:0:
101,201,311542,2,0,L|86:137,1,42.5,0|0,1:2|1:2,0:0:0:0:
289,281,311722,1,10,0:0:0:0:
289,281,311813,1,0,1:2:0:0:
289,281,311903,2,0,L|278:223,1,42.5,2|0,1:2|1:2,0:0:0:0:
218,384,312084,2,0,L|203:300,1,85,2|0,1:2|1:2,0:0:0:0:
190,219,312445,5,6,1:2:0:0:
53,275,317506,5,8,0:0:0:0:
99,244,317596,1,8,0:0:0:0:
153,247,317686,1,10,0:0:0:0:
190,280,317777,1,8,0:0:0:0:
204,327,317867,1,10,0:0:0:0:
239,370,317957,1,8,0:0:0:0:
298,384,318048,1,8,0:0:0:0:
353,370,318138,1,8,0:0:0:0:
381,326,318228,6,0,B|351:187|351:187|290:163,1,191.250007295609,6|0,1:2|0:0,0:0:0:0:
283,252,318591,2,0,B|312:269|312:269|350:248,1,63.7500024318696,2|0,0:0|1:2,0:0:0:0:
255,99,318773,1,10,0:0:0:0:
440,33,318955,6,0,B|460:55|460:55|436:156,1,127.500004863739,2|10,1:2|0:0,0:0:0:0:
426,157,319228,1,2,0:0:0:0:
201,270,319409,1,0,1:2:0:0:
193,252,319500,1,10,0:0:0:0:
67,110,319682,5,2,1:1:0:0:
80,101,319773,2,0,L|96:27,1,63.7500024318696,2|8,0:0|0:0,0:0:0:0:
2,202,319955,2,0,B|33:223|33:223|156:180,1,127.500004863739,2|0,0:0|1:2,0:0:0:0:
173,138,320228,2,0,L|236:155,1,63.7500024318696,10|0,0:0|0:0,0:0:0:0:
127,286,320409,5,2,1:2:0:0:
233,72,320591,1,10,0:0:0:0:
417,179,320773,1,2,0:0:0:0:
404,217,320864,1,0,1:2:0:0:
367,227,320955,1,10,0:0:0:0:
273,315,321137,6,0,P|324:364|445:357,1,191.250007295609,6|0,1:2|0:0,0:0:0:0:
200,254,321500,1,2,0:0:0:0:
183,237,321591,1,0,1:2:0:0:
160,235,321682,2,0,P|131:266|130:311,1,63.7500024318696,8|0,0:0|0:0,0:0:0:0:
49,111,321864,6,0,P|120:96|183:140,1,127.500004863739,0|8,1:0|0:0,0:0:0:0:
312,219,322137,1,0,1:0:0:0:
299,225,322228,2,0,P|275:218|249:187,1,63.7500024318696,0|0,1:0|0:0,0:0:0:0:
282,116,322409,1,10,0:0:0:0:
384,296,322591,6,0,P|441:246|439:132,1,191.250007295609,6|0,1:2|0:0,0:0:0:0:
402,31,322955,2,0,P|372:52|369:99,1,63.7500024318696,2|0,1:2|1:2,0:0:0:0:
482,269,323137,5,10,0:0:0:0:
166,119,323318,1,8,0:0:0:0:
37,354,323500,5,10,0:0:0:0:
87,354,323591,1,0,1:2:0:0:
125,322,323682,1,6,1:3:0:0:
125,273,323773,1,4,1:3:0:0:
94,234,323864,1,8,1:3:0:0:
49,227,323955,1,10,1:3:0:0:
15,255,324046,6,0,P|91:230|201:206,1,170,6|0,1:2|0:0,0:0:0:0:
245,253,324591,1,2,1:2:0:0:
146,112,324773,2,0,P|192:48|259:48,1,127.5,10|2,0:0|0:0,0:0:0:0:
292,100,325137,1,0,0:0:0:0:
292,100,325318,1,10,0:0:0:0:
446,21,325500,6,0,P|406:31|379:78,1,85,6|10,1:1|0:0,0:0:0:0:
306,188,325864,2,0,P|375:170|415:164,1,85,0|2,1:0|1:2,0:0:0:0:
499,263,326228,2,0,P|458:271|415:246,1,85,2|2,1:2|0:0,0:0:0:0:
490,138,326591,1,0,0:0:0:0:
490,138,326773,1,2,0:0:0:0:
232,231,326955,6,0,P|247:299|254:361,1,127.5,6|0,1:2|0:0,0:0:0:0:
247,369,327318,1,2,0:0:0:0:
247,369,327500,1,0,1:2:0:0:
340,268,327682,2,0,P|344:321|353:365,1,85,8|0,0:0|0:0,0:0:0:0:
161,266,328046,1,0,0:0:0:0:
161,266,328228,1,10,0:0:0:0:
270,148,328409,5,6,1:2:0:0:
56,50,328591,1,8,0:0:0:0:
85,25,328682,1,8,0:0:0:0:
121,22,328773,1,2,0:0:0:0:
154,39,328864,1,0,1:2:0:0:
164,73,328955,2,0,L|154:128,1,42.5,10|0,0:0|0:0,0:0:0:0:
377,110,329137,6,0,L|367:165,3,42.5,0|0|2|0,1:2|1:2|1:2|1:2,0:0:0:0:
284,20,329500,1,10,0:0:0:0:
281,32,329591,1,8,0:0:0:0:
279,42,329682,2,0,L|265:98,1,42.5,8|8,0:0|0:0,0:0:0:0:
405,240,329864,6,0,B|423:244|423:244|472:217,1,63.7500024318696,6|0,1:2|0:0,0:0:0:0:
264,310,330046,2,0,B|269:327|269:327|317:356,1,63.7500024318696,10|0,0:2|0:0,0:0:0:0:
175,138,330228,2,0,B|136:161|136:161|130:179,1,63.7500024318696,2|0,0:0|1:2,0:0:0:0:
318,241,330409,2,0,B|279:217|279:217|260:221,1,63.7500024318696,10|0,0:0|0:0,0:0:0:0:
0,382,330591,6,0,B|31:363|31:363|42:259,1,127.500004863739,2|10,1:2|0:0,0:0:0:0:
35,261,330864,1,2,0:0:0:0:
208,370,331046,1,0,1:2:0:0:
200,383,331137,1,10,0:0:0:0:
358,137,331318,6,0,L|368:61,1,63.7500024318696,2|0,1:1|0:0,0:0:0:0:
491,261,331500,2,0,L|483:325,1,63.7500024318696,10|0,0:0|0:0,0:0:0:0:
273,228,331682,2,0,L|283:152,1,63.7500024318696,2|0,0:0|1:2,0:0:0:0:
468,111,331864,2,0,L|459:174,1,63.7500024318696,10|0,0:0|0:0,0:0:0:0:
382,228,332046,5,2,1:2:0:0:
217,74,332228,1,8,0:0:0:0:
83,241,332409,1,0,0:0:0:0:
111,268,332500,1,0,1:2:0:0:
153,269,332591,1,10,0:0:0:0:
24,131,332773,6,0,P|66:63|120:59,1,127.500004863739,6|8,1:2|0:0,0:0:0:0:
263,182,333137,1,2,0:0:0:0:
238,196,333228,1,0,1:2:0:0:
212,196,333318,2,0,P|187:177|177:133,1,63.7500024318696,8|0,0:0|0:0,0:0:0:0:
329,297,333500,6,0,P|406:216|390:121,1,191.250007295609,0|0,1:2|0:0,0:0:0:0:
289,47,333864,2,0,P|294:88|319:114,1,63.7500024318696,0|0,1:0|1:2,0:0:0:0:
397,132,334046,1,8,0:0:0:0:
216,320,334228,6,0,B|147:307|147:307|119:260|119:260|41:241,1,191.250007295609,6|0,1:2|0:0,0:0:0:0:
12,384,334603,2,0,B|22:366|22:366|8:305,1,63.7500024318696,2|0,1:2|1:2,0:0:0:0:
168,168,334790,1,10,0:0:0:0:
341,312,334978,1,8,0:0:0:0:
466,49,335165,5,10,0:0:0:0:
418,32,335259,1,0,1:2:0:0:
379,45,335353,1,2,1:1:0:0:
357,85,335446,1,0,1:1:0:0:
362,122,335540,1,0,1:1:0:0:
400,149,335634,1,0,1:1:0:0:
451,157,335728,5,4,1:2:0:0:
451,157,335909,1,0,1:2:0:0:
330,201,336091,5,0,1:2:0:0:
438,247,336273,1,0,1:2:0:0:
211,314,336455,5,8,1:2:0:0:
357,291,336637,1,8,1:2:0:0:
127,380,336818,5,8,1:2:0:0:
324,188,337000,1,8,1:2:0:0:
57,46,337182,5,8,0:0:0:0:
20,93,337273,1,8,0:0:0:0:
22,147,337364,1,8,0:0:0:0:
72,179,337455,1,8,0:0:0:0:
122,172,337546,1,8,0:0:0:0:
180,157,337637,1,8,0:0:0:0:
231,181,337728,1,8,0:0:0:0:
239,239,337818,1,8,0:0:0:0:
209,292,337909,5,8,0:0:0:0:
421,47,338152,5,8,0:0:0:0:
352,364,338394,5,8,0:0:0:0:
336,193,338637,6,0,P|355:190|336:198,1,50.9999984436036,8|0,1:2|0:0,0:0:0:0:
69,334,347743,5,8,0:0:0:0:
69,334,347824,1,8,0:0:0:0:
69,334,347905,2,0,P|116:322|176:316,2,95.6250036478044,8|8|8,0:0|0:0|0:0,0:0:0:0:
204,238,348554,5,8,3:0:0:0:
204,238,348635,1,8,3:0:0:0:
204,238,348716,2,0,B|190:199|219:179|219:179|228:213|196:250,1,127.5,8|0,3:0|0:0,0:0:0:0:
357,370,349041,6,0,P|348:314|275:292,1,127.5,0|0,1:2|0:0,0:0:0:0:
276,278,349365,2,0,P|302:247|345:241,1,63.7500024318696,2|2,0:0|1:2,0:0:0:0:
422,287,349650,2,0,P|433:220|383:171,1,127.500004863739,10|2,0:0|0:0,0:0:0:0:
448,54,350079,6,0,P|382:81|317:93,1,127.500004863739,10|2,0:0|0:0,0:0:0:0:
257,157,350508,2,0,P|215:143|202:116,1,63.7500024318696,0|0,1:2|0:0,0:0:0:0:
267,37,350794,5,8,0:0:0:0:
56,120,350937,1,0,0:0:0:0:
56,120,351008,1,0,0:0:0:0:
56,120,351080,1,2,1:2:0:0:
87,47,351223,1,2,1:2:0:0:
200,254,351365,6,0,P|168:259|139:272,1,63.7500024318696,2|0,1:2|0:0,0:0:0:0:
116,361,351651,2,0,P|148:358|177:344,1,63.7500024318696,2|0,0:0|1:2,0:0:0:0:
35,243,351937,2,0,P|21:271|13:302,1,63.7500024318696,10|0,0:0|1:2,0:0:0:0:
262,378,352223,2,0,P|272:348|279:317,1,63.7500024318696,2|0,0:0|0:0,0:0:0:0:
163,310,352508,5,2,0:0:0:0:
163,310,352794,1,2,1:2:0:0:
365,210,353080,5,8,0:0:0:0:
426,274,353223,1,2,0:0:0:0:
426,274,353294,1,0,0:0:0:0:
426,274,353365,1,2,1:2:0:0:
503,256,353508,1,0,1:2:0:0:
383,344,353651,5,2,1:2:0:0:
383,344,353794,2,0,P|339:350|327:354,1,42.5
267,378,354080,2,0,P|227:363|214:310,1,85,0|0,1:2|1:2,0:0:0:0:
259,262,354508,1,0,0:0:0:0:
175,156,354794,5,2,0:0:0:0:
175,156,354937,2,0,P|146:163|131:181,1,42.5,0|0,0:0|1:2,0:0:0:0:
57,177,355223,2,0,P|66:215|120:247,1,85
81,100,355651,1,0,1:2:0:0:
81,100,355794,1,0,1:2:0:0:
155,70,355937,5,2,1:2:0:0:
155,70,356080,2,0,P|185:65|203:77,1,42.5
270,41,356365,2,0,P|300:84|292:123,1,85,0|0,1:2|1:2,0:0:0:0:
254,178,356794,1,0,0:0:0:0:
85,300,357080,5,2,0:0:0:0:
85,300,357366,6,0,P|123:277|125:207,1,95.6250036478044,2|0,1:2|0:0,0:0:0:0:
171,160,357645,2,0,P|142:133|99:131,1,63.7500024318696,2|8,1:2|0:0,0:0:0:0:
119,128,357854,1,8,0:0:0:0:
119,128,357924,1,10,0:0:0:0:
58,202,358063,1,0,1:2:0:0:
243,96,358203,6,0,P|330:113|375:120,1,127.5,6|0,1:2|0:0,0:0:0:0:
374,112,358488,2,0,P|366:65|360:37,1,63.7500024318696,10|2,0:0|0:0,0:0:0:0:
454,97,358774,2,0,P|446:50|440:22,1,63.7500024318696,2|2,1:2|1:2,0:0:0:0:
297,197,359060,5,10,0:0:0:0:
297,197,359203,2,0,P|329:245|398:237,1,127.500004863739,2|2,0:0|0:0,0:0:0:0:
507,279,359631,2,0,P|498:334|474:347,1,63.7500024318696,10|2,0:0|0:0,0:0:0:0:
411,332,359917,1,2,1:2:0:0:
411,332,360060,1,2,1:2:0:0:
476,198,360203,1,10,0:0:0:0:
322,271,360488,6,0,P|272:279|239:290,1,63.7500024318696,2|2,1:2|0:0,0:0:0:0:
211,352,360774,2,0,P|167:345|152:313,1,63.7500024318696,10|0,0:0|0:0,0:0:0:0:
80,307,361060,2,0,P|81:263|111:234,1,63.7500024318696,2|0,1:2|1:2,0:0:0:0:
58,180,361345,2,0,P|89:153|131:157,1,63.7500024318696,10|0,0:0|0:0,0:0:0:0:
184,227,361631,5,2,1:2:0:0:
184,227,361774,1,2,0:0:0:0:
190,91,361917,2,0,P|144:64|113:64,1,63.7500024318696,10|2,0:0|0:0,0:0:0:0:
184,227,362203,1,2,1:2:0:0:
184,227,362346,1,2,1:2:0:0:
260,31,362488,2,0,P|282:76|274:125,1,95.6250036478044,10|0,0:0|0:0,0:0:0:0:
267,129,362774,5,0,1:2:0:0:
386,235,363060,2,0,P|440:216|472:213,1,63.7500024318696,10|2,0:0|0:0,0:0:0:0:
347,342,363345,2,0,P|321:300|285:220,1,127.500004863739,2|10,1:2|0:0,0:0:0:0:
288,229,363774,5,0,0:0:0:0:
230,313,363917,2,0,P|225:349|216:378,1,63.7500024318696,2|0,1:2|0:0,0:0:0:0:
139,180,364203,6,0,P|143:217|156:254,1,63.7500024318696,10|0,0:0|0:0,0:0:0:0:
70,109,364488,2,0,P|54:172|24:240,1,127.500004863739,2|8,1:2|0:0,0:0:0:0:
29,229,364917,1,2,0:0:0:0:
216,131,365060,6,0,P|198:97|166:82,1,63.7500024318696,2|2,1:2|0:0,0:0:0:0:
190,3,365345,2,0,P|151:1|122:21,1,63.7500024318696,10|2,0:0|0:0,0:0:0:0:
89,97,365631,1,2,1:2:0:0:
89,97,365774,1,2,1:2:0:0:
263,48,365917,1,10,0:0:0:0:
263,48,366060,1,2,0:0:0:0:
356,171,366203,6,0,P|343:213|333:240,2,63.7500024318696,2|2|10,1:2|0:0|0:0,0:0:0:0:
356,171,366631,1,2,0:0:0:0:
420,326,366774,1,0,1:2:0:0:
322,367,366917,1,10,0:0:0:0:
322,367,366988,1,8,0:0:0:0:
322,367,367060,1,8,0:0:0:0:
228,278,367203,1,10,0:0:0:0:
74,351,367345,5,6,1:2:0:0:
17,292,367917,5,6,1:2:0:0:
72,235,368488,5,6,1:2:0:0:
28,167,368774,1,6,1:2:0:0:
91,112,369060,5,6,1:2:0:0:
144,188,369203,1,8,0:0:0:0:
144,188,369274,1,8,0:0:0:0:
144,188,369345,1,10,0:0:0:0:
207,131,369488,1,2,1:2:0:0:
160,59,369631,5,6,1:2:0:0:
230,12,370203,5,6,1:2:0:0:
287,80,370774,5,6,1:2:0:0:
358,33,371060,1,6,1:2:0:0:
413,99,371345,5,6,1:2:0:0:
348,153,371488,1,8,0:0:0:0:
348,153,371560,1,8,0:0:0:0:
348,153,371631,1,10,0:0:0:0:
400,220,371774,1,10,0:0:0:0:
302,362,371917,6,0,P|249:359|189:236,1,191.250007295609,6|0,1:2|1:2,0:0:0:0:
158,142,372488,2,0,P|98:157|65:219,1,127.500004863739,10|0,0:0|0:0,0:0:0:0:
93,284,372917,1,8,0:0:0:0:
68,131,373060,6,0,P|46:104|10:97,1,63.7500024318696,0|0,3:2|0:0,0:0:0:0:
65,25,373345,2,0,P|23:16|-14:27,1,63.7500024318696,2|0,1:2|0:0,0:0:0:0:
164,129,373631,2,0,P|224:112|294:105,1,127.500004863739,10|2,0:0|0:0,0:0:0:0:
296,111,374060,1,0,0:0:0:0:
295,110,374203,6,0,B|403:94|340:26|475:15,1,191.250007295609,6|0,1:2|0:0,0:0:0:0:
225,43,374774,2,0,P|173:68|152:132,1,127.500004863739,10|0,0:0|0:0,0:0:0:0:
151,130,375345,6,0,P|202:145|229:157,1,63.7500024318696,0|0,1:2|0:0,0:0:0:0:
319,228,375631,2,0,P|366:215|401:202,1,63.7500024318696,0|0,1:2|0:0,0:0:0:0:
460,143,375917,5,2,1:2:0:0:
32,278,376488,6,0,B|19:387|19:387|260:294|260:294|68:103|68:103|329:39|329:39|303:152,1,1019.99996887207,6|0,1:2|0:0,0:0:0:0:
