osu file format v14

[General]
AudioFilename: audio.mp3
AudioLeadIn: 0
PreviewTime: 31704
Countdown: 0
SampleSet: Soft
StackLeniency: 0.7
Mode: 3
LetterboxInBreaks: 0
SpecialStyle: 0
WidescreenStoryboard: 1

[Editor]
DistanceSpacing: 2
BeatDivisor: 4
GridSize: 16
TimelineZoom: 5.499997

[Metadata]
Title:Adamantite
TitleUnicode:Adamantite
Artist:Street vs. Sin:cK
ArtistUnicode:Street vs. Sin:cK
Creator:Superboygamer
Version:Hard
Source:
Tags:Drumstep Electronic Instrumental Drum N Bass Piano LN dnb Hybrid featured artist fa
BeatmapID:3771597
BeatmapSetID:1836849

[Difficulty]
HPDrainRate:7
CircleSize:4
OverallDifficulty:7
ApproachRate:5
SliderMultiplier:1.4
SliderTickRate:1

[Events]
//Background and Video events
0,0,"387631911.jpg",0,0
//Break Periods
//Storyboard Layer 0 (Background)
//Storyboard Layer 1 (Fail)
//Storyboard Layer 2 (Pass)
//Storyboard Layer 3 (Foreground)
//Storyboard Layer 4 (Overlay)
//Storyboard Sound Samples

[TimingPoints]
162,342.857142857143,4,2,1,35,1,0
33076,-100,4,2,1,35,0,1
52276,-100,4,2,1,35,0,0
76962,-100,4,2,1,35,0,1
98904,-100,4,2,1,35,0,0

[HitObjects]
192,192,162,5,0,0:0:0:0:
64,192,162,1,0,0:0:0:0:
64,192,847,1,0,0:0:0:0:
448,192,847,1,0,0:0:0:0:
192,192,1876,1,0,0:0:0:0:
320,192,1876,1,0,0:0:0:0:
64,192,2219,1,0,0:0:0:0:
448,192,2219,1,0,0:0:0:0:
64,192,2733,1,0,0:0:0:0:
448,192,2819,1,0,0:0:0:0:
192,192,2904,1,0,0:0:0:0:
320,192,2904,1,0,0:0:0:0:
64,192,3590,1,0,0:0:0:0:
448,192,3590,1,0,0:0:0:0:
320,192,4619,1,0,0:0:0:0:
192,192,4619,1,0,0:0:0:0:
64,192,4962,1,0,0:0:0:0:
448,192,4962,1,0,0:0:0:0:
192,192,5647,1,0,0:0:0:0:
64,192,5647,1,0,0:0:0:0:
320,192,5990,1,0,0:0:0:0:
64,192,6333,1,0,0:0:0:0:
448,192,6333,1,0,0:0:0:0:
192,192,6676,1,0,0:0:0:0:
320,192,6847,1,0,0:0:0:0:
448,192,7019,1,0,0:0:0:0:
192,192,7362,1,0,0:0:0:0:
320,192,7362,1,0,0:0:0:0:
64,192,7704,1,0,0:0:0:0:
448,192,7704,1,0,0:0:0:0:
192,192,8047,1,0,0:0:0:0:
64,192,8219,1,0,0:0:0:0:
192,192,8390,1,0,0:0:0:0:
320,192,8390,1,0,0:0:0:0:
448,192,8733,1,0,0:0:0:0:
64,192,9076,1,0,0:0:0:0:
448,192,9076,1,0,0:0:0:0:
320,192,9419,1,0,0:0:0:0:
192,192,9590,1,0,0:0:0:0:
64,192,9762,1,0,0:0:0:0:
320,192,10104,1,0,0:0:0:0:
192,192,10104,1,0,0:0:0:0:
64,192,10447,1,0,0:0:0:0:
448,192,10447,1,0,0:0:0:0:
192,192,10619,1,0,0:0:0:0:
320,192,10619,1,0,0:0:0:0:
64,192,10790,1,0,0:0:0:0:
448,192,10790,1,0,0:0:0:0:
192,192,10962,1,0,0:0:0:0:
320,192,10962,1,0,0:0:0:0:
448,192,11133,1,0,0:0:0:0:
64,192,11133,128,0,11219:0:0:0:0:
192,192,11476,1,0,0:0:0:0:
320,192,11647,1,0,0:0:0:0:
64,192,11990,1,0,0:0:0:0:
448,192,12333,1,0,0:0:0:0:
320,192,12676,1,0,0:0:0:0:
192,192,13019,1,0,0:0:0:0:
64,192,13362,1,0,0:0:0:0:
320,192,13704,1,0,0:0:0:0:
448,192,13876,128,0,13962:0:0:0:0:
192,192,14219,1,0,0:0:0:0:
320,192,14390,1,0,0:0:0:0:
64,192,14733,1,0,0:0:0:0:
448,192,15076,1,0,0:0:0:0:
320,192,15419,1,0,0:0:0:0:
192,192,15762,1,0,0:0:0:0:
64,192,16104,1,0,0:0:0:0:
192,192,16276,1,0,0:0:0:0:
320,192,16447,1,0,0:0:0:0:
64,192,16619,128,0,16704:0:0:0:0:
448,192,16619,128,0,16704:0:0:0:0:
192,192,16962,1,0,0:0:0:0:
320,192,17133,1,0,0:0:0:0:
64,192,17476,1,0,0:0:0:0:
448,192,17819,1,0,0:0:0:0:
320,192,18162,1,0,0:0:0:0:
192,192,18504,1,0,0:0:0:0:
64,192,18847,1,0,0:0:0:0:
320,192,19190,1,0,0:0:0:0:
448,192,19362,128,0,19447:0:0:0:0:
192,192,19704,1,0,0:0:0:0:
320,192,19876,1,0,0:0:0:0:
64,192,20219,5,0,0:0:0:0:
448,192,20562,1,0,0:0:0:0:
320,192,20904,1,0,0:0:0:0:
64,192,21247,1,0,0:0:0:0:
192,192,21247,1,0,0:0:0:0:
320,192,21333,1,0,0:0:0:0:
64,192,21419,1,0,0:0:0:0:
448,192,21419,128,0,21762:0:0:0:0:
320,192,21590,128,0,21762:0:0:0:0:
192,192,21590,1,0,0:0:0:0:
64,192,21762,1,0,0:0:0:0:
192,192,21847,1,0,0:0:0:0:
448,192,21933,128,0,22104:0:0:0:0:
320,192,21933,128,0,22104:0:0:0:0:
192,192,22104,1,0,0:0:0:0:
64,192,22104,128,0,22190:0:0:0:0:
64,192,22447,1,0,0:0:0:0:
448,192,22447,1,0,0:0:0:0:
192,192,22619,1,0,0:0:0:0:
448,192,22790,1,0,0:0:0:0:
320,192,22790,1,0,0:0:0:0:
64,192,22962,1,0,0:0:0:0:
192,192,23133,1,0,0:0:0:0:
320,192,23133,1,0,0:0:0:0:
448,192,23304,1,0,0:0:0:0:
320,192,23476,1,0,0:0:0:0:
448,192,23476,1,0,0:0:0:0:
64,192,23647,1,0,0:0:0:0:
192,192,23819,1,0,0:0:0:0:
64,192,23819,1,0,0:0:0:0:
320,192,23990,1,0,0:0:0:0:
320,192,24162,1,0,0:0:0:0:
448,192,24162,1,0,0:0:0:0:
192,192,24333,1,0,0:0:0:0:
192,192,24504,1,0,0:0:0:0:
64,192,24504,1,0,0:0:0:0:
320,192,24676,1,0,0:0:0:0:
64,192,24847,1,0,0:0:0:0:
448,192,24847,128,0,24933:0:0:0:0:
320,192,25190,1,0,0:0:0:0:
448,192,25190,1,0,0:0:0:0:
192,192,25362,1,0,0:0:0:0:
64,192,25533,1,0,0:0:0:0:
320,192,25533,1,0,0:0:0:0:
192,192,25704,1,0,0:0:0:0:
320,192,25876,1,0,0:0:0:0:
448,192,25876,1,0,0:0:0:0:
192,192,26047,1,0,0:0:0:0:
192,192,26219,1,0,0:0:0:0:
64,192,26219,1,0,0:0:0:0:
320,192,26390,1,0,0:0:0:0:
320,192,26562,1,0,0:0:0:0:
448,192,26562,1,0,0:0:0:0:
64,192,26733,1,0,0:0:0:0:
192,192,26904,1,0,0:0:0:0:
64,192,26904,1,0,0:0:0:0:
448,192,27076,1,0,0:0:0:0:
64,192,27247,1,0,0:0:0:0:
320,192,27247,1,0,0:0:0:0:
192,192,27419,1,0,0:0:0:0:
64,192,27590,128,0,27676:0:0:0:0:
448,192,27590,128,0,27676:0:0:0:0:
64,192,27762,1,0,0:0:0:0:
320,192,27933,1,0,0:0:0:0:
448,192,27933,1,0,0:0:0:0:
448,192,28104,1,0,0:0:0:0:
192,192,28276,1,0,0:0:0:0:
64,192,28276,1,0,0:0:0:0:
192,192,28447,1,0,0:0:0:0:
320,192,28619,1,0,0:0:0:0:
448,192,28619,1,0,0:0:0:0:
320,192,28790,1,0,0:0:0:0:
64,192,28962,1,0,0:0:0:0:
192,192,28962,1,0,0:0:0:0:
320,192,29047,1,0,0:0:0:0:
448,192,29133,1,0,0:0:0:0:
192,192,29219,1,0,0:0:0:0:
64,192,29304,1,0,0:0:0:0:
320,192,29304,1,0,0:0:0:0:
448,192,29390,1,0,0:0:0:0:
192,192,29476,1,0,0:0:0:0:
320,192,29562,1,0,0:0:0:0:
64,192,29647,1,0,0:0:0:0:
192,192,29647,1,0,0:0:0:0:
448,192,29733,1,0,0:0:0:0:
320,192,29819,1,0,0:0:0:0:
192,192,29904,1,0,0:0:0:0:
64,192,29990,1,0,0:0:0:0:
320,192,29990,1,0,0:0:0:0:
448,192,30076,1,0,0:0:0:0:
192,192,30162,1,0,0:0:0:0:
64,192,30247,1,0,0:0:0:0:
448,192,30333,128,0,30504:0:0:0:0:
320,192,30333,1,0,0:0:0:0:
64,192,30504,128,0,30676:0:0:0:0:
320,192,30676,1,0,0:0:0:0:
448,192,30847,1,0,0:0:0:0:
64,192,31190,1,0,0:0:0:0:
448,192,31533,1,0,0:0:0:0:
192,192,31704,1,0,0:0:0:0:
64,192,31704,1,0,0:0:0:0:
448,192,31790,1,0,0:0:0:0:
320,192,31876,1,0,0:0:0:0:
448,192,31962,1,0,0:0:0:0:
192,192,32047,1,0,0:0:0:0:
320,192,32133,1,0,0:0:0:0:
64,192,32219,1,0,0:0:0:0:
192,192,32304,1,0,0:0:0:0:
64,192,32390,1,0,0:0:0:0:
448,192,32476,1,0,0:0:0:0:
320,192,32562,1,0,0:0:0:0:
192,192,32562,1,0,0:0:0:0:
64,192,32647,1,0,0:0:0:0:
448,192,32733,128,0,33076:0:0:0:0:
320,192,32733,1,0,0:0:0:0:
64,192,33076,128,0,33419:0:0:0:0:
320,192,33076,1,0,0:0:0:0:
192,192,33247,128,0,33419:0:0:0:0:
448,192,33419,1,0,0:0:0:0:
192,192,33504,1,0,0:0:0:0:
320,192,33590,1,0,0:0:0:0:
64,192,33676,1,0,0:0:0:0:
448,192,33762,128,0,34104:0:0:0:0:
320,192,33762,128,0,34104:0:0:0:0:
192,192,34104,1,0,0:0:0:0:
320,192,34190,1,0,0:0:0:0:
192,192,34276,1,0,0:0:0:0:
320,192,34362,1,0,0:0:0:0:
64,192,34447,128,0,34704:0:0:0:0:
192,192,34533,128,0,34704:0:0:0:0:
448,192,34704,128,0,34962:0:0:0:0:
320,192,34790,128,0,34962:0:0:0:0:
64,192,34962,1,0,0:0:0:0:
192,192,34962,1,0,0:0:0:0:
64,192,35133,1,0,0:0:0:0:
448,192,35133,128,0,35304:0:0:0:0:
192,192,35304,1,0,0:0:0:0:
320,192,35390,1,0,0:0:0:0:
64,192,35476,1,0,0:0:0:0:
320,192,35562,1,0,0:0:0:0:
192,192,35647,1,0,0:0:0:0:
448,192,35733,1,0,0:0:0:0:
64,192,35819,128,0,36162:0:0:0:0:
320,192,35819,1,0,0:0:0:0:
320,192,36162,1,0,0:0:0:0:
448,192,36247,1,0,0:0:0:0:
192,192,36333,1,0,0:0:0:0:
64,192,36419,1,0,0:0:0:0:
320,192,36504,128,0,36847:0:0:0:0:
448,192,36504,128,0,36847:0:0:0:0:
64,192,36847,1,0,0:0:0:0:
192,192,36933,1,0,0:0:0:0:
64,192,37019,1,0,0:0:0:0:
192,192,37104,1,0,0:0:0:0:
320,192,37190,1,0,0:0:0:0:
448,192,37190,128,0,37533:0:0:0:0:
64,192,37362,128,0,37704:0:0:0:0:
192,192,37533,128,0,37704:0:0:0:0:
320,192,37704,1,0,0:0:0:0:
448,192,37704,1,0,0:0:0:0:
192,192,37790,1,0,0:0:0:0:
64,192,37876,1,0,0:0:0:0:
448,192,37876,1,0,0:0:0:0:
192,192,38047,1,0,0:0:0:0:
64,192,38047,1,0,0:0:0:0:
320,192,38133,1,0,0:0:0:0:
448,192,38219,1,0,0:0:0:0:
64,192,38219,1,0,0:0:0:0:
192,192,38390,128,0,38562:0:0:0:0:
320,192,38390,128,0,38562:0:0:0:0:
64,192,38562,1,0,0:0:0:0:
448,192,38562,128,0,38904:0:0:0:0:
320,192,38733,128,0,38904:0:0:0:0:
64,192,38904,1,0,0:0:0:0:
192,192,38990,1,0,0:0:0:0:
448,192,39076,1,0,0:0:0:0:
320,192,39162,1,0,0:0:0:0:
64,192,39247,128,0,39590:0:0:0:0:
192,192,39247,128,0,39590:0:0:0:0:
448,192,39590,128,0,39676:0:0:0:0:
320,192,39590,128,0,39676:0:0:0:0:
448,192,39762,128,0,39847:0:0:0:0:
320,192,39762,128,0,39847:0:0:0:0:
448,192,39933,1,0,0:0:0:0:
192,192,39933,128,0,40190:0:0:0:0:
64,192,40019,128,0,40190:0:0:0:0:
320,192,40190,128,0,40447:0:0:0:0:
448,192,40276,128,0,40447:0:0:0:0:
192,192,40447,1,0,0:0:0:0:
64,192,40447,1,0,0:0:0:0:
64,192,40619,1,0,0:0:0:0:
448,192,40619,1,0,0:0:0:0:
320,192,40704,1,0,0:0:0:0:
192,192,40790,1,0,0:0:0:0:
64,192,40876,1,0,0:0:0:0:
320,192,40962,1,0,0:0:0:0:
448,192,41047,1,0,0:0:0:0:
320,192,41133,1,0,0:0:0:0:
448,192,41219,1,0,0:0:0:0:
192,192,41304,1,0,0:0:0:0:
64,192,41304,128,0,41647:0:0:0:0:
320,192,41647,1,0,0:0:0:0:
448,192,41733,1,0,0:0:0:0:
192,192,41819,1,0,0:0:0:0:
64,192,41904,1,0,0:0:0:0:
320,192,41990,128,0,42333:0:0:0:0:
448,192,41990,128,0,42333:0:0:0:0:
64,192,42333,1,0,0:0:0:0:
192,192,42419,1,0,0:0:0:0:
448,192,42504,1,0,0:0:0:0:
320,192,42590,1,0,0:0:0:0:
64,192,42676,128,0,43019:0:0:0:0:
192,192,42676,128,0,42847:0:0:0:0:
448,192,42847,128,0,43190:0:0:0:0:
192,192,43190,1,0,0:0:0:0:
64,192,43190,1,0,0:0:0:0:
320,192,43276,1,0,0:0:0:0:
448,192,43362,1,0,0:0:0:0:
64,192,43362,1,0,0:0:0:0:
320,192,43533,1,0,0:0:0:0:
448,192,43533,1,0,0:0:0:0:
192,192,43619,1,0,0:0:0:0:
64,192,43704,1,0,0:0:0:0:
448,192,43704,1,0,0:0:0:0:
192,192,43876,128,0,44047:0:0:0:0:
320,192,43876,128,0,44047:0:0:0:0:
448,192,44047,1,0,0:0:0:0:
64,192,44047,128,0,44390:0:0:0:0:
192,192,44219,128,0,44390:0:0:0:0:
448,192,44390,1,0,0:0:0:0:
192,192,44476,1,0,0:0:0:0:
320,192,44562,1,0,0:0:0:0:
64,192,44647,1,0,0:0:0:0:
448,192,44733,128,0,45076:0:0:0:0:
320,192,44733,128,0,45076:0:0:0:0:
192,192,45076,1,0,0:0:0:0:
320,192,45162,1,0,0:0:0:0:
192,192,45247,1,0,0:0:0:0:
320,192,45333,1,0,0:0:0:0:
64,192,45419,128,0,45676:0:0:0:0:
192,192,45504,128,0,45676:0:0:0:0:
448,192,45676,128,0,45933:0:0:0:0:
320,192,45762,128,0,45933:0:0:0:0:
64,192,45933,1,0,0:0:0:0:
192,192,45933,1,0,0:0:0:0:
64,192,46104,1,0,0:0:0:0:
448,192,46104,128,0,46276:0:0:0:0:
192,192,46276,1,0,0:0:0:0:
320,192,46362,1,0,0:0:0:0:
64,192,46447,1,0,0:0:0:0:
320,192,46533,1,0,0:0:0:0:
192,192,46619,1,0,0:0:0:0:
448,192,46704,1,0,0:0:0:0:
64,192,46790,128,0,47133:0:0:0:0:
320,192,46790,1,0,0:0:0:0:
320,192,47133,1,0,0:0:0:0:
448,192,47219,1,0,0:0:0:0:
192,192,47304,1,0,0:0:0:0:
64,192,47390,1,0,0:0:0:0:
320,192,47476,128,0,47819:0:0:0:0:
448,192,47476,128,0,47819:0:0:0:0:
64,192,47819,1,0,0:0:0:0:
192,192,47904,1,0,0:0:0:0:
64,192,47990,1,0,0:0:0:0:
192,192,48076,1,0,0:0:0:0:
320,192,48162,1,0,0:0:0:0:
448,192,48162,128,0,48504:0:0:0:0:
64,192,48333,128,0,48676:0:0:0:0:
192,192,48504,128,0,48676:0:0:0:0:
320,192,48676,1,0,0:0:0:0:
448,192,48676,1,0,0:0:0:0:
192,192,48762,1,0,0:0:0:0:
64,192,48847,1,0,0:0:0:0:
448,192,48847,1,0,0:0:0:0:
64,192,49019,1,0,0:0:0:0:
448,192,49019,1,0,0:0:0:0:
320,192,49104,1,0,0:0:0:0:
192,192,49104,1,0,0:0:0:0:
448,192,49190,1,0,0:0:0:0:
64,192,49276,1,0,0:0:0:0:
192,192,49362,128,0,49533:0:0:0:0:
320,192,49362,128,0,49533:0:0:0:0:
64,192,49533,1,0,0:0:0:0:
448,192,49533,128,0,49876:0:0:0:0:
320,192,49704,128,0,49876:0:0:0:0:
64,192,49876,1,0,0:0:0:0:
192,192,49962,1,0,0:0:0:0:
448,192,50047,1,0,0:0:0:0:
320,192,50133,1,0,0:0:0:0:
64,192,50219,128,0,50562:0:0:0:0:
192,192,50219,128,0,50562:0:0:0:0:
448,192,50562,128,0,50647:0:0:0:0:
320,192,50562,128,0,50647:0:0:0:0:
448,192,50733,128,0,50819:0:0:0:0:
320,192,50733,128,0,50819:0:0:0:0:
448,192,50904,1,0,0:0:0:0:
192,192,50904,128,0,51162:0:0:0:0:
64,192,50990,128,0,51162:0:0:0:0:
320,192,51162,128,0,51419:0:0:0:0:
448,192,51247,128,0,51419:0:0:0:0:
192,192,51419,1,0,0:0:0:0:
64,192,51419,1,0,0:0:0:0:
64,192,51590,1,0,0:0:0:0:
448,192,51590,1,0,0:0:0:0:
192,192,51762,1,0,0:0:0:0:
320,192,51762,1,0,0:0:0:0:
64,192,51933,1,0,0:0:0:0:
448,192,51933,1,0,0:0:0:0:
192,192,52104,128,0,52276:0:0:0:0:
320,192,52104,128,0,52276:0:0:0:0:
64,192,52276,128,0,52362:0:0:0:0:
448,192,52276,128,0,52362:0:0:0:0:
64,192,53819,128,0,54504:0:0:0:0:
320,192,54504,1,0,0:0:0:0:
448,192,54504,1,0,0:0:0:0:
192,192,54590,1,0,0:0:0:0:
64,192,54676,1,0,0:0:0:0:
448,192,54676,128,0,55019:0:0:0:0:
192,192,55019,1,0,0:0:0:0:
64,192,55019,1,0,0:0:0:0:
320,192,55126,1,0,0:0:0:0:
448,192,55233,1,0,0:0:0:0:
192,192,56412,1,0,0:0:0:0:
448,192,56454,1,0,0:0:0:0:
64,192,58562,1,0,0:0:0:0:
192,192,58819,1,0,0:0:0:0:
320,192,59076,1,0,0:0:0:0:
64,192,59333,1,0,0:0:0:0:
448,192,59590,1,0,0:0:0:0:
320,192,59819,1,0,0:0:0:0:
192,192,60097,1,0,0:0:0:0:
448,192,60419,1,0,0:0:0:0:
320,192,60697,1,0,0:0:0:0:
192,192,60804,1,0,0:0:0:0:
64,192,60912,1,0,0:0:0:0:
448,192,61647,1,0,0:0:0:0:
320,192,61876,1,0,0:0:0:0:
192,192,62104,1,0,0:0:0:0:
64,192,62333,1,0,0:0:0:0:
192,192,62583,1,0,0:0:0:0:
320,192,62797,1,0,0:0:0:0:
448,192,62883,1,0,0:0:0:0:
192,192,64219,128,0,64362:0:0:0:0:
448,192,64362,1,0,0:0:0:0:
448,192,65562,5,0,0:0:0:0:
320,192,65904,1,0,0:0:0:0:
192,192,65990,5,0,0:0:0:0:
64,192,65990,1,0,0:0:0:0:
448,192,66219,1,0,0:0:0:0:
64,192,66333,1,0,0:0:0:0:
320,192,66333,1,0,0:0:0:0:
192,192,66447,1,0,0:0:0:0:
64,192,66676,1,0,0:0:0:0:
448,192,66676,1,0,0:0:0:0:
320,192,66904,1,0,0:0:0:0:
192,192,67019,1,0,0:0:0:0:
448,192,67019,1,0,0:0:0:0:
64,192,67133,1,0,0:0:0:0:
320,192,67362,1,0,0:0:0:0:
448,192,67362,1,0,0:0:0:0:
64,192,67590,1,0,0:0:0:0:
192,192,67704,1,0,0:0:0:0:
448,192,67704,1,0,0:0:0:0:
320,192,67819,1,0,0:0:0:0:
64,192,68047,1,0,0:0:0:0:
448,192,68047,1,0,0:0:0:0:
192,192,68276,1,0,0:0:0:0:
64,192,68390,1,0,0:0:0:0:
320,192,68390,1,0,0:0:0:0:
448,192,68504,1,0,0:0:0:0:
192,192,68733,1,0,0:0:0:0:
64,192,68733,1,0,0:0:0:0:
448,192,68962,1,0,0:0:0:0:
320,192,69076,1,0,0:0:0:0:
192,192,69076,1,0,0:0:0:0:
64,192,69190,1,0,0:0:0:0:
320,192,69419,1,0,0:0:0:0:
448,192,69419,1,0,0:0:0:0:
64,192,69647,1,0,0:0:0:0:
192,192,69762,1,0,0:0:0:0:
320,192,69762,1,0,0:0:0:0:
448,192,69876,1,0,0:0:0:0:
192,192,70104,1,0,0:0:0:0:
64,192,70104,1,0,0:0:0:0:
320,192,70333,1,0,0:0:0:0:
448,192,70447,1,0,0:0:0:0:
64,192,70447,1,0,0:0:0:0:
192,192,70562,1,0,0:0:0:0:
320,192,70790,1,0,0:0:0:0:
448,192,70790,1,0,0:0:0:0:
192,192,71019,1,0,0:0:0:0:
64,192,71133,1,0,0:0:0:0:
448,192,71133,1,0,0:0:0:0:
320,192,71247,1,0,0:0:0:0:
192,192,71390,1,0,0:0:0:0:
64,192,71476,1,0,0:0:0:0:
448,192,71476,1,0,0:0:0:0:
64,192,71647,1,0,0:0:0:0:
320,192,71819,1,0,0:0:0:0:
448,192,71819,1,0,0:0:0:0:
448,192,71990,1,0,0:0:0:0:
192,192,72162,1,0,0:0:0:0:
64,192,72162,1,0,0:0:0:0:
192,192,72333,1,0,0:0:0:0:
320,192,72504,1,0,0:0:0:0:
448,192,72504,1,0,0:0:0:0:
320,192,72676,1,0,0:0:0:0:
64,192,72847,1,0,0:0:0:0:
192,192,72847,1,0,0:0:0:0:
320,192,72933,1,0,0:0:0:0:
448,192,73019,1,0,0:0:0:0:
64,192,73104,1,0,0:0:0:0:
192,192,73190,1,0,0:0:0:0:
320,192,73190,1,0,0:0:0:0:
448,192,73276,1,0,0:0:0:0:
64,192,73362,1,0,0:0:0:0:
192,192,73447,1,0,0:0:0:0:
64,192,73533,1,0,0:0:0:0:
320,192,73533,1,0,0:0:0:0:
448,192,73619,1,0,0:0:0:0:
192,192,73704,1,0,0:0:0:0:
320,192,73790,1,0,0:0:0:0:
192,192,73876,1,0,0:0:0:0:
64,192,73876,1,0,0:0:0:0:
320,192,73962,1,0,0:0:0:0:
448,192,74047,1,0,0:0:0:0:
192,192,74133,1,0,0:0:0:0:
64,192,74219,1,0,0:0:0:0:
320,192,74219,1,0,0:0:0:0:
448,192,74390,1,0,0:0:0:0:
192,192,74754,1,0,0:0:0:0:
64,192,75304,1,0,0:0:0:0:
320,192,75590,1,0,0:0:0:0:
448,192,75590,1,0,0:0:0:0:
192,192,75676,1,0,0:0:0:0:
64,192,75762,1,0,0:0:0:0:
320,192,75847,1,0,0:0:0:0:
192,192,75933,1,0,0:0:0:0:
448,192,76019,1,0,0:0:0:0:
320,192,76104,1,0,0:0:0:0:
448,192,76190,1,0,0:0:0:0:
64,192,76276,1,0,0:0:0:0:
192,192,76362,1,0,0:0:0:0:
448,192,76447,1,0,0:0:0:0:
320,192,76447,1,0,0:0:0:0:
192,192,76533,1,0,0:0:0:0:
448,192,76619,1,0,0:0:0:0:
64,192,76619,1,0,0:0:0:0:
320,192,76790,128,0,76962:0:0:0:0:
448,192,76962,1,0,0:0:0:0:
64,192,76962,128,0,77647:0:0:0:0:
192,192,76962,1,0,0:0:0:0:
320,192,77304,1,0,0:0:0:0:
448,192,77304,1,0,0:0:0:0:
192,192,77476,1,0,0:0:0:0:
448,192,77647,1,0,0:0:0:0:
320,192,77819,1,0,0:0:0:0:
192,192,77819,1,0,0:0:0:0:
320,192,77990,1,0,0:0:0:0:
64,192,77990,128,0,78162:0:0:0:0:
192,192,78162,128,0,78333:0:0:0:0:
320,192,78333,1,0,0:0:0:0:
448,192,78333,128,0,79019:0:0:0:0:
192,192,78676,1,0,0:0:0:0:
64,192,78676,1,0,0:0:0:0:
320,192,78847,1,0,0:0:0:0:
64,192,79019,128,0,79704:0:0:0:0:
320,192,79190,1,0,0:0:0:0:
448,192,79190,1,0,0:0:0:0:
192,192,79362,1,0,0:0:0:0:
448,192,79362,1,0,0:0:0:0:
320,192,79533,1,0,0:0:0:0:
192,192,79704,128,0,80219:0:0:0:0:
448,192,79704,1,0,0:0:0:0:
64,192,80047,1,0,0:0:0:0:
448,192,80047,1,0,0:0:0:0:
320,192,80219,128,0,80733:0:0:0:0:
448,192,80390,1,0,0:0:0:0:
192,192,80562,1,0,0:0:0:0:
64,192,80562,1,0,0:0:0:0:
64,192,80733,1,0,0:0:0:0:
448,192,80733,128,0,81762:0:0:0:0:
192,192,80904,1,0,0:0:0:0:
320,192,81076,1,0,0:0:0:0:
64,192,81419,1,0,0:0:0:0:
192,192,81419,1,0,0:0:0:0:
320,192,81590,1,0,0:0:0:0:
64,192,81762,128,0,81847:0:0:0:0:
192,192,81933,128,0,82019:0:0:0:0:
448,192,81933,1,0,0:0:0:0:
320,192,82104,128,0,82190:0:0:0:0:
64,192,82104,1,0,0:0:0:0:
448,192,82276,128,0,82362:0:0:0:0:
192,192,82447,1,0,0:0:0:0:
64,192,82447,128,0,83304:0:0:0:0:
320,192,82790,1,0,0:0:0:0:
448,192,82790,1,0,0:0:0:0:
192,192,82962,1,0,0:0:0:0:
448,192,83133,1,0,0:0:0:0:
320,192,83304,1,0,0:0:0:0:
192,192,83304,1,0,0:0:0:0:
448,192,83476,128,0,83647:0:0:0:0:
192,192,83476,1,0,0:0:0:0:
64,192,83647,128,0,83819:0:0:0:0:
448,192,83819,1,0,0:0:0:0:
320,192,83819,128,0,84333:0:0:0:0:
64,192,84162,1,0,0:0:0:0:
192,192,84162,1,0,0:0:0:0:
448,192,84333,128,0,84847:0:0:0:0:
64,192,84504,1,0,0:0:0:0:
192,192,84676,1,0,0:0:0:0:
320,192,84676,1,0,0:0:0:0:
64,192,84847,1,0,0:0:0:0:
320,192,84847,128,0,85019:0:0:0:0:
192,192,85019,1,0,0:0:0:0:
320,192,85190,128,0,85704:0:0:0:0:
448,192,85190,1,0,0:0:0:0:
192,192,85533,1,0,0:0:0:0:
64,192,85533,1,0,0:0:0:0:
64,192,85704,128,0,86219:0:0:0:0:
448,192,85876,1,0,0:0:0:0:
192,192,86047,1,0,0:0:0:0:
320,192,86047,1,0,0:0:0:0:
192,192,86219,1,0,0:0:0:0:
448,192,86219,128,0,87076:0:0:0:0:
64,192,86390,1,0,0:0:0:0:
320,192,86562,1,0,0:0:0:0:
192,192,86562,1,0,0:0:0:0:
192,192,86904,1,0,0:0:0:0:
64,192,86904,1,0,0:0:0:0:
320,192,87076,1,0,0:0:0:0:
64,192,87247,128,0,87419:0:0:0:0:
448,192,87419,128,0,87504:0:0:0:0:
192,192,87419,1,0,0:0:0:0:
320,192,87590,128,0,87676:0:0:0:0:
64,192,87590,1,0,0:0:0:0:
192,192,87762,128,0,87933:0:0:0:0:
320,192,87933,1,0,0:0:0:0:
448,192,87933,128,0,88962:0:0:0:0:
192,192,88276,1,0,0:0:0:0:
64,192,88276,1,0,0:0:0:0:
320,192,88447,1,0,0:0:0:0:
64,192,88619,1,0,0:0:0:0:
192,192,88790,1,0,0:0:0:0:
320,192,88790,1,0,0:0:0:0:
320,192,88962,1,0,0:0:0:0:
64,192,88962,1,0,0:0:0:0:
448,192,89133,128,0,89219:0:0:0:0:
192,192,89219,128,0,89304:0:0:0:0:
448,192,89304,1,0,0:0:0:0:
64,192,89304,128,0,89819:0:0:0:0:
448,192,89647,1,0,0:0:0:0:
320,192,89647,1,0,0:0:0:0:
192,192,89819,128,0,90333:0:0:0:0:
64,192,89990,1,0,0:0:0:0:
320,192,90162,1,0,0:0:0:0:
448,192,90162,1,0,0:0:0:0:
448,192,90333,1,0,0:0:0:0:
64,192,90333,128,0,90676:0:0:0:0:
320,192,90504,1,0,0:0:0:0:
448,192,90676,128,0,91876:0:0:0:0:
192,192,90676,1,0,0:0:0:0:
320,192,91019,1,0,0:0:0:0:
64,192,91019,1,0,0:0:0:0:
192,192,91190,1,0,0:0:0:0:
320,192,91362,1,0,0:0:0:0:
64,192,91533,1,0,0:0:0:0:
192,192,91533,1,0,0:0:0:0:
64,192,91704,1,0,0:0:0:0:
320,192,91704,1,0,0:0:0:0:
320,192,91876,128,0,91962:0:0:0:0:
192,192,91962,128,0,92047:0:0:0:0:
64,192,92047,128,0,92562:0:0:0:0:
448,192,92047,1,0,0:0:0:0:
320,192,92390,1,0,0:0:0:0:
192,192,92390,1,0,0:0:0:0:
448,192,92562,128,0,92904:0:0:0:0:
64,192,92733,1,0,0:0:0:0:
192,192,92904,1,0,0:0:0:0:
320,192,92904,1,0,0:0:0:0:
192,192,93076,128,0,94019:0:0:0:0:
448,192,93076,1,0,0:0:0:0:
64,192,93247,1,0,0:0:0:0:
320,192,93419,1,0,0:0:0:0:
448,192,93419,1,0,0:0:0:0:
64,192,93762,1,0,0:0:0:0:
320,192,93762,1,0,0:0:0:0:
448,192,93933,1,0,0:0:0:0:
320,192,94019,128,0,94447:0:0:0:0:
64,192,94104,1,0,0:0:0:0:
192,192,94276,1,0,0:0:0:0:
448,192,94276,1,0,0:0:0:0:
64,192,94447,128,0,96162:0:0:0:0:
192,192,94447,1,0,0:0:0:0:
320,192,94619,1,0,0:0:0:0:
192,192,94790,1,0,0:0:0:0:
448,192,94790,1,0,0:0:0:0:
320,192,95133,1,0,0:0:0:0:
448,192,95133,1,0,0:0:0:0:
192,192,95304,1,0,0:0:0:0:
448,192,95476,1,0,0:0:0:0:
320,192,95647,1,0,0:0:0:0:
192,192,95647,1,0,0:0:0:0:
192,192,95819,1,0,0:0:0:0:
448,192,95819,1,0,0:0:0:0:
320,192,95990,1,0,0:0:0:0:
448,192,96162,1,0,0:0:0:0:
192,192,96162,1,0,0:0:0:0:
320,192,96504,1,0,0:0:0:0:
64,192,96504,1,0,0:0:0:0:
192,192,96676,1,0,0:0:0:0:
320,192,96847,1,0,0:0:0:0:
192,192,97019,1,0,0:0:0:0:
64,192,97019,1,0,0:0:0:0:
320,192,97190,1,0,0:0:0:0:
448,192,97190,128,0,97276:0:0:0:0:
64,192,97362,128,0,97447:0:0:0:0:
192,192,97362,1,0,0:0:0:0:
64,192,97533,1,0,0:0:0:0:
448,192,97533,128,0,98390:0:0:0:0:
192,192,97704,1,0,0:0:0:0:
320,192,97704,1,0,0:0:0:0:
64,192,97876,1,0,0:0:0:0:
320,192,97876,1,0,0:0:0:0:
192,192,98047,1,0,0:0:0:0:
64,192,98047,1,0,0:0:0:0:
64,192,98390,1,0,0:0:0:0:
320,192,98390,1,0,0:0:0:0:
192,192,98476,1,0,0:0:0:0:
448,192,98562,1,0,0:0:0:0:
320,192,98562,1,0,0:0:0:0:
64,192,98647,1,0,0:0:0:0:
192,192,98733,1,0,0:0:0:0:
320,192,98819,1,0,0:0:0:0:
448,192,98904,1,0,0:0:0:0:
64,192,98904,128,0,101647:0:0:0:0:
192,192,101476,1,0,0:0:0:0:
320,192,101562,1,0,0:0:0:0:
448,192,101647,1,0,0:0:0:0:
320,192,101819,1,0,0:0:0:0:
64,192,101990,1,0,0:0:0:0:
192,192,102162,1,0,0:0:0:0:
320,192,102504,1,0,0:0:0:0:
448,192,102847,1,0,0:0:0:0:
320,192,103190,1,0,0:0:0:0:
192,192,103533,1,0,0:0:0:0:
64,192,103876,1,0,0:0:0:0:
192,192,104047,1,0,0:0:0:0:
320,192,104219,1,0,0:0:0:0:
64,192,104390,1,0,0:0:0:0:
448,192,104390,1,0,0:0:0:0:
320,192,104562,1,0,0:0:0:0:
64,192,104733,1,0,0:0:0:0:
192,192,104904,1,0,0:0:0:0:
320,192,105247,1,0,0:0:0:0:
448,192,105590,1,0,0:0:0:0:
320,192,105933,1,0,0:0:0:0:
192,192,106276,1,0,0:0:0:0:
64,192,106619,1,0,0:0:0:0:
320,192,106962,1,0,0:0:0:0:
448,192,107133,1,0,0:0:0:0:
320,192,107304,1,0,0:0:0:0:
64,192,107476,1,0,0:0:0:0:
192,192,107647,1,0,0:0:0:0:
320,192,107990,1,0,0:0:0:0:
448,192,108333,1,0,0:0:0:0:
320,192,108676,1,0,0:0:0:0:
192,192,109019,1,0,0:0:0:0:
64,192,109190,128,0,109876:0:0:0:0:
448,192,109362,1,0,0:0:0:0:
320,192,109533,1,0,0:0:0:0:
192,192,109704,1,0,0:0:0:0:
320,192,109876,1,0,0:0:0:0:
