osu file format v14

[General]
AudioFilename: audio.mp3
AudioLeadIn: 0
PreviewTime: 55013
Countdown: 0
SampleSet: Normal
StackLeniency: 0.7
Mode: 1
LetterboxInBreaks: 0
WidescreenStoryboard: 0

[Editor]
Bookmarks: 156,5641,11127,16613,22098,27584,33070,38556,44041,49527,55013,60498,65984,71470,76956,98898,104384,109698
DistanceSpacing: 2
BeatDivisor: 4
GridSize: 32
TimelineZoom: 1.9

[Metadata]
Title:Adamantite
TitleUnicode:Adamantite
Artist:Street vs. Sin:cK
ArtistUnicode:Street vs. Sin:cK
Creator:eiri-
Version:Muzukashii
Source:osu!
Tags:Ayyri Trynna Featured Artist FA HiroK Electronic Instrumental Drumstep Drum and Bass DnB SincK
BeatmapID:2526806
BeatmapSetID:1212678

[Difficulty]
HPDrainRate:5
CircleSize:2
OverallDifficulty:5
ApproachRate:10
SliderMultiplier:1.4
SliderTickRate:1

[Events]
//Background and Video events
0,0,"Adamantite.jpg",0,0
//Break Periods
//Storyboard Layer 0 (Background)
//Storyboard Layer 1 (Fail)
//Storyboard Layer 2 (Pass)
//Storyboard Layer 3 (Foreground)
//Storyboard Layer 4 (Overlay)
//Storyboard Sound Samples

[TimingPoints]
156,342.857142857143,4,1,0,80,1,0
198,-100,4,1,0,60,0,0
5598,-100,4,1,0,80,0,0
5684,-100,4,1,0,60,0,0
31656,-100,4,1,0,70,0,0
33027,-100,4,1,0,80,0,0
54970,-100,4,1,0,60,0,0
56170,-100,4,1,0,50,0,0
65941,-100,4,1,0,60,0,0
75541,-100,4,1,0,70,0,0
76955,-100,4,1,0,80,0,0
76956,-100,4,1,0,80,0,1
98898,-100,4,1,0,80,0,0
99198,-100,4,1,0,50,0,0

[HitObjects]
256,192,156,1,4,0:0:0:0:
256,192,841,1,8,0:0:0:0:
256,192,1870,1,0,0:0:0:0:
256,192,2213,1,8,0:0:0:0:
256,192,2898,1,0,0:0:0:0:
256,192,3584,1,8,0:0:0:0:
256,192,4613,1,0,0:0:0:0:
256,192,4956,1,8,0:0:0:0:
256,192,5641,1,4,0:0:0:0:
256,192,6327,1,8,0:0:0:0:
256,192,7356,1,0,0:0:0:0:
256,192,7698,1,8,0:0:0:0:
256,192,8384,1,0,0:0:0:0:
256,192,9070,1,8,0:0:0:0:
256,192,10098,1,0,0:0:0:0:
256,192,10441,1,8,0:0:0:0:
256,192,10613,1,0,0:0:0:0:
256,192,10784,1,8,0:0:0:0:
256,192,11127,1,8,0:0:0:0:
256,192,11641,1,0,0:0:0:0:
256,192,11984,1,0,0:0:0:0:
256,192,12327,1,8,0:0:0:0:
256,192,12670,1,0,0:0:0:0:
256,192,13013,1,8,0:0:0:0:
256,192,13356,1,0,0:0:0:0:
256,192,13698,1,0,0:0:0:0:
256,192,13870,1,8,0:0:0:0:
256,192,14384,1,0,0:0:0:0:
256,192,14727,1,0,0:0:0:0:
256,192,15070,1,8,0:0:0:0:
256,192,15413,1,0,0:0:0:0:
256,192,15756,1,8,0:0:0:0:
256,192,16098,1,0,0:0:0:0:
256,192,16270,1,8,0:0:0:0:
256,192,16613,1,8,0:0:0:0:
256,192,17127,1,0,0:0:0:0:
256,192,17470,1,0,0:0:0:0:
256,192,17813,1,8,0:0:0:0:
256,192,18156,1,0,0:0:0:0:
256,192,18498,1,8,0:0:0:0:
256,192,18841,1,0,0:0:0:0:
256,192,19184,1,0,0:0:0:0:
256,192,19356,1,8,0:0:0:0:
256,192,19870,1,0,0:0:0:0:
256,192,20213,1,8,0:0:0:0:
256,192,20556,1,0,0:0:0:0:
256,192,20898,1,8,0:0:0:0:
256,192,21241,1,0,0:0:0:0:
256,192,21413,1,12,0:0:0:0:
256,192,21584,1,0,0:0:0:0:
256,192,21756,1,0,0:0:0:0:
256,192,21841,1,0,0:0:0:0:
256,192,21927,1,0,0:0:0:0:
256,192,22098,1,8,0:0:0:0:
256,192,22441,1,0,0:0:0:0:
256,192,22784,1,0,0:0:0:0:
256,192,23127,1,0,0:0:0:0:
256,192,23470,1,0,0:0:0:0:
256,192,23813,1,0,0:0:0:0:
256,192,24156,1,0,0:0:0:0:
256,192,24498,1,0,0:0:0:0:
256,192,24841,1,8,0:0:0:0:
256,192,25184,1,0,0:0:0:0:
256,192,25527,1,0,0:0:0:0:
256,192,25870,1,0,0:0:0:0:
256,192,26213,1,0,0:0:0:0:
256,192,26556,1,0,0:0:0:0:
256,192,26898,1,0,0:0:0:0:
256,192,27241,1,0,0:0:0:0:
256,192,27584,1,8,0:0:0:0:
256,192,27756,1,0,0:0:0:0:
256,192,27927,1,0,0:0:0:0:
256,192,28098,1,0,0:0:0:0:
256,192,28270,1,0,0:0:0:0:
256,192,28613,1,0,0:0:0:0:
256,192,28784,1,0,0:0:0:0:
256,192,28956,1,0,0:0:0:0:
256,192,29041,1,0,0:0:0:0:
256,192,29127,1,0,0:0:0:0:
256,192,29298,1,0,0:0:0:0:
256,192,29470,1,0,0:0:0:0:
256,192,29641,1,0,0:0:0:0:
256,192,29727,1,0,0:0:0:0:
256,192,29813,1,0,0:0:0:0:
256,192,29984,1,8,0:0:0:0:
256,192,30070,1,8,0:0:0:0:
256,192,30156,1,8,0:0:0:0:
256,192,30327,1,0,0:0:0:0:
256,192,31013,1,8,0:0:0:0:
256,192,31184,1,8,0:0:0:0:
256,192,31356,1,8,0:0:0:0:
256,192,31527,1,8,0:0:0:0:
256,192,31698,1,8,0:0:0:0:
256,192,32041,1,8,0:0:0:0:
256,192,32213,1,8,0:0:0:0:
256,192,32298,1,8,0:0:0:0:
256,192,32384,1,8,0:0:0:0:
256,192,32556,1,0,0:0:0:0:
256,192,32727,1,12,0:0:0:0:
256,192,33070,1,4,0:0:0:0:
256,192,33413,1,0,0:0:0:0:
256,192,33584,1,0,0:0:0:0:
256,192,33756,1,8,0:0:0:0:
256,192,34098,1,8,0:0:0:0:
256,192,34184,1,8,0:0:0:0:
256,192,34270,1,8,0:0:0:0:
256,192,34441,1,0,0:0:0:0:
256,192,34698,1,0,0:0:0:0:
256,192,34956,1,0,0:0:0:0:
256,192,35127,1,8,0:0:0:0:
256,192,35470,1,0,0:0:0:0:
256,192,35641,1,8,0:0:0:0:
256,192,35813,1,0,0:0:0:0:
256,192,36156,1,0,0:0:0:0:
256,192,36241,1,0,0:0:0:0:
256,192,36327,1,0,0:0:0:0:
256,192,36498,1,8,0:0:0:0:
256,192,36841,1,0,0:0:0:0:
256,192,37013,1,0,0:0:0:0:
256,192,37184,1,8,0:0:0:0:
256,192,37698,1,0,0:0:0:0:
256,192,37870,1,8,0:0:0:0:
256,192,38041,1,0,0:0:0:0:
256,192,38213,1,8,0:0:0:0:
256,192,38298,1,8,0:0:0:0:
256,192,38384,1,8,0:0:0:0:
256,192,38556,1,0,0:0:0:0:
256,192,38898,1,0,0:0:0:0:
256,192,39070,1,0,0:0:0:0:
256,192,39241,1,8,0:0:0:0:
256,192,39584,1,8,0:0:0:0:
256,192,39756,1,8,0:0:0:0:
256,192,39927,1,0,0:0:0:0:
256,192,40184,1,0,0:0:0:0:
256,192,40441,1,0,0:0:0:0:
256,192,40613,1,8,0:0:0:0:
256,192,40956,1,0,0:0:0:0:
256,192,41127,1,8,0:0:0:0:
256,192,41298,1,0,0:0:0:0:
256,192,41641,1,0,0:0:0:0:
256,192,41727,1,0,0:0:0:0:
256,192,41813,1,0,0:0:0:0:
256,192,41984,1,8,0:0:0:0:
256,192,42327,1,0,0:0:0:0:
256,192,42498,1,0,0:0:0:0:
256,192,42670,1,8,0:0:0:0:
256,192,43184,1,0,0:0:0:0:
256,192,43356,1,8,0:0:0:0:
256,192,43527,1,0,0:0:0:0:
256,192,43698,1,8,0:0:0:0:
256,192,43784,1,8,0:0:0:0:
256,192,43870,1,8,0:0:0:0:
256,192,44041,1,4,0:0:0:0:
256,192,44384,1,0,0:0:0:0:
256,192,44556,1,0,0:0:0:0:
256,192,44727,1,8,0:0:0:0:
256,192,45070,1,8,0:0:0:0:
256,192,45156,1,8,0:0:0:0:
256,192,45241,1,8,0:0:0:0:
256,192,45413,1,0,0:0:0:0:
256,192,45670,1,0,0:0:0:0:
256,192,45927,1,0,0:0:0:0:
256,192,46098,1,8,0:0:0:0:
256,192,46441,1,0,0:0:0:0:
256,192,46613,1,8,0:0:0:0:
256,192,46784,1,0,0:0:0:0:
256,192,47127,1,0,0:0:0:0:
256,192,47213,1,0,0:0:0:0:
256,192,47298,1,0,0:0:0:0:
256,192,47470,1,8,0:0:0:0:
256,192,47813,1,0,0:0:0:0:
256,192,47984,1,0,0:0:0:0:
256,192,48156,1,8,0:0:0:0:
256,192,48670,1,0,0:0:0:0:
256,192,48841,1,8,0:0:0:0:
256,192,49013,1,0,0:0:0:0:
256,192,49184,1,8,0:0:0:0:
256,192,49270,1,8,0:0:0:0:
256,192,49356,1,8,0:0:0:0:
256,192,49527,1,0,0:0:0:0:
256,192,49870,1,0,0:0:0:0:
256,192,50041,1,0,0:0:0:0:
256,192,50213,1,8,0:0:0:0:
256,192,50556,1,8,0:0:0:0:
256,192,50727,1,8,0:0:0:0:
256,192,50898,1,0,0:0:0:0:
256,192,51156,1,0,0:0:0:0:
256,192,51413,1,0,0:0:0:0:
256,192,51584,1,8,0:0:0:0:
256,192,51756,1,0,0:0:0:0:
256,192,51927,1,8,0:0:0:0:
256,192,52270,1,12,0:0:0:0:
256,192,54498,1,0,0:0:0:0:
256,192,54670,1,8,0:0:0:0:
256,192,55013,1,12,0:0:0:0:
256,192,56191,1,8,0:0:0:0:
256,192,57348,1,8,0:0:0:0:
256,192,58506,1,8,0:0:0:0:
256,192,59706,1,8,0:0:0:0:
256,192,60863,1,8,0:0:0:0:
256,192,62041,1,8,0:0:0:0:
256,192,63198,1,8,0:0:0:0:
256,192,64356,1,8,0:0:0:0:
256,192,65491,1,8,0:0:0:0:
256,192,65984,1,4,0:0:0:0:
256,192,66156,1,8,0:0:0:0:
256,192,66327,1,8,0:0:0:0:
256,192,66670,1,0,0:0:0:0:
256,192,67013,1,8,0:0:0:0:
256,192,67184,1,8,0:0:0:0:
256,192,67356,1,0,0:0:0:0:
256,192,67527,1,8,0:0:0:0:
256,192,67698,1,8,0:0:0:0:
256,192,68041,1,0,0:0:0:0:
256,192,68384,1,8,0:0:0:0:
256,192,68727,1,0,0:0:0:0:
256,192,68898,1,8,0:0:0:0:
256,192,69070,1,8,0:0:0:0:
256,192,69413,1,0,0:0:0:0:
256,192,69756,1,8,0:0:0:0:
256,192,69927,1,8,0:0:0:0:
256,192,70098,1,0,0:0:0:0:
256,192,70270,1,8,0:0:0:0:
256,192,70441,1,8,0:0:0:0:
256,192,70784,1,0,0:0:0:0:
256,192,71127,1,0,0:0:0:0:
256,192,71298,1,8,0:0:0:0:
256,192,71470,1,0,0:0:0:0:
256,192,71641,1,0,0:0:0:0:
256,192,71813,1,0,0:0:0:0:
256,192,71984,1,0,0:0:0:0:
256,192,72156,1,0,0:0:0:0:
256,192,72498,1,0,0:0:0:0:
256,192,72670,1,0,0:0:0:0:
256,192,72841,1,0,0:0:0:0:
256,192,72927,1,0,0:0:0:0:
256,192,73013,1,0,0:0:0:0:
256,192,73184,1,0,0:0:0:0:
256,192,73356,1,0,0:0:0:0:
256,192,73527,1,0,0:0:0:0:
256,192,73613,1,0,0:0:0:0:
256,192,73698,1,0,0:0:0:0:
256,192,73870,1,8,0:0:0:0:
256,192,73956,1,8,0:0:0:0:
256,192,74041,1,8,0:0:0:0:
256,192,74213,1,0,0:0:0:0:
256,192,75584,1,8,0:0:0:0:
256,192,75927,1,0,0:0:0:0:
256,192,76098,1,8,0:0:0:0:
256,192,76184,1,8,0:0:0:0:
256,192,76270,1,8,0:0:0:0:
256,192,76441,1,0,0:0:0:0:
256,192,76613,1,12,0:0:0:0:
256,192,76956,1,4,0:0:0:0:
256,192,77127,1,0,0:0:0:0:
256,192,77298,1,8,0:0:0:0:
256,192,77470,1,0,0:0:0:0:
256,192,77813,1,0,0:0:0:0:
256,192,77984,1,8,0:0:0:0:
256,192,78327,1,0,0:0:0:0:
256,192,78498,1,0,0:0:0:0:
256,192,78670,1,8,0:0:0:0:
256,192,78841,1,0,0:0:0:0:
256,192,79184,1,0,0:0:0:0:
256,192,79356,1,8,0:0:0:0:
256,192,79698,1,0,0:0:0:0:
256,192,79870,1,0,0:0:0:0:
256,192,80041,1,8,0:0:0:0:
256,192,80213,1,0,0:0:0:0:
256,192,80298,1,0,0:0:0:0:
256,192,80384,1,0,0:0:0:0:
256,192,80556,1,0,0:0:0:0:
256,192,80727,1,8,0:0:0:0:
256,192,81070,1,0,0:0:0:0:
256,192,81413,1,8,0:0:0:0:
256,192,81756,1,8,0:0:0:0:
256,192,81927,1,0,0:0:0:0:
256,192,82098,1,8,0:0:0:0:
256,192,82184,1,8,0:0:0:0:
256,192,82270,1,8,0:0:0:0:
256,192,82441,1,0,0:0:0:0:
256,192,82784,1,8,0:0:0:0:
256,192,83298,1,0,0:0:0:0:
256,192,83470,1,8,0:0:0:0:
256,192,83641,1,0,0:0:0:0:
256,192,83813,1,0,0:0:0:0:
256,192,83898,1,0,0:0:0:0:
256,192,83984,1,0,0:0:0:0:
256,192,84156,1,8,0:0:0:0:
256,192,84327,1,0,0:0:0:0:
256,192,84670,1,0,0:0:0:0:
256,192,84841,1,8,0:0:0:0:
256,192,85184,1,0,0:0:0:0:
256,192,85527,1,8,0:0:0:0:
256,192,85698,1,0,0:0:0:0:
256,192,86041,1,0,0:0:0:0:
256,192,86213,1,8,0:0:0:0:
256,192,86298,1,8,0:0:0:0:
256,192,86384,1,8,0:0:0:0:
256,192,86556,1,0,0:0:0:0:
256,192,86727,1,0,0:0:0:0:
256,192,86898,1,8,0:0:0:0:
256,192,87241,1,8,0:0:0:0:
256,192,87413,1,0,0:0:0:0:
256,192,87584,1,8,0:0:0:0:
256,192,87756,1,8,0:0:0:0:
256,192,87927,1,0,0:0:0:0:
256,192,88270,1,8,0:0:0:0:
256,192,88784,1,0,0:0:0:0:
256,192,88956,1,8,0:0:0:0:
256,192,89127,1,0,0:0:0:0:
256,192,89213,1,0,0:0:0:0:
256,192,89298,1,0,0:0:0:0:
256,192,89470,1,0,0:0:0:0:
256,192,89641,1,8,0:0:0:0:
256,192,89813,1,0,0:0:0:0:
256,192,90156,1,0,0:0:0:0:
256,192,90327,1,8,0:0:0:0:
256,192,90670,1,0,0:0:0:0:
256,192,91013,1,8,0:0:0:0:
256,192,91184,1,0,0:0:0:0:
256,192,91527,1,0,0:0:0:0:
256,192,91698,1,8,0:0:0:0:
256,192,91870,1,0,0:0:0:0:
256,192,91956,1,0,0:0:0:0:
256,192,92041,1,0,0:0:0:0:
256,192,92213,1,0,0:0:0:0:
256,192,92384,1,8,0:0:0:0:
256,192,92556,1,0,0:0:0:0:
256,192,92898,1,0,0:0:0:0:
256,192,93070,1,8,0:0:0:0:
256,192,93413,1,0,0:0:0:0:
256,192,93584,1,0,0:0:0:0:
256,192,93756,1,8,0:0:0:0:
256,192,93927,1,0,0:0:0:0:
256,192,94270,1,0,0:0:0:0:
256,192,94441,1,8,0:0:0:0:
256,192,94527,1,8,0:0:0:0:
256,192,94613,1,8,0:0:0:0:
256,192,94784,1,0,0:0:0:0:
256,192,95127,1,8,0:0:0:0:
256,192,95641,1,0,0:0:0:0:
256,192,95813,1,8,0:0:0:0:
256,192,96156,1,0,0:0:0:0:
256,192,96498,1,8,0:0:0:0:
256,192,96670,1,0,0:0:0:0:
256,192,97013,1,0,0:0:0:0:
256,192,97184,1,8,0:0:0:0:
256,192,97356,1,0,0:0:0:0:
256,192,97527,1,0,0:0:0:0:
256,192,97698,1,0,0:0:0:0:
256,192,97870,1,8,0:0:0:0:
256,192,98041,1,0,0:0:0:0:
256,192,98384,1,0,0:0:0:0:
256,192,98556,1,8,0:0:0:0:
256,192,98641,1,8,0:0:0:0:
256,192,98727,1,8,0:0:0:0:
256,192,98898,1,4,0:0:0:0:
256,192,99413,1,0,0:0:0:0:
256,192,99756,1,0,0:0:0:0:
256,192,100098,1,8,0:0:0:0:
256,192,100441,1,0,0:0:0:0:
256,192,100784,1,8,0:0:0:0:
256,192,101127,1,0,0:0:0:0:
256,192,101470,1,0,0:0:0:0:
256,192,101641,1,8,0:0:0:0:
256,192,102156,1,0,0:0:0:0:
256,192,102498,1,0,0:0:0:0:
256,192,102841,1,8,0:0:0:0:
256,192,103184,1,0,0:0:0:0:
256,192,103527,1,8,0:0:0:0:
256,192,103870,1,0,0:0:0:0:
256,192,104041,1,8,0:0:0:0:
256,192,104384,1,4,0:0:0:0:
256,192,104898,1,0,0:0:0:0:
256,192,105241,1,0,0:0:0:0:
256,192,105584,1,8,0:0:0:0:
256,192,105927,1,0,0:0:0:0:
256,192,106270,1,8,0:0:0:0:
256,192,106613,1,0,0:0:0:0:
256,192,106956,1,0,0:0:0:0:
256,192,107127,1,8,0:0:0:0:
256,192,107641,1,0,0:0:0:0:
256,192,107984,1,0,0:0:0:0:
256,192,108327,1,8,0:0:0:0:
256,192,108670,1,0,0:0:0:0:
256,192,109013,1,8,0:0:0:0:
256,192,109356,1,8,0:0:0:0:
256,192,109527,1,0,0:0:0:0:
256,192,109698,1,8,0:0:0:0:
