osu file format v14

[General]
AudioFilename: audio.mp3
AudioLeadIn: 0
PreviewTime: 31704
Countdown: 0
SampleSet: Soft
StackLeniency: 0.7
Mode: 3
LetterboxInBreaks: 0
SpecialStyle: 0
WidescreenStoryboard: 0

[Editor]
DistanceSpacing: 2
BeatDivisor: 16
GridSize: 16
TimelineZoom: 4.299998

[Metadata]
Title:Adamantite
TitleUnicode:Adamantite
Artist:Street vs. Sin:cK
ArtistUnicode:Street vs. Sin:cK
Creator:Superboygamer
Version:Melodic Crimson
Source:
Tags:Drumstep Electronic Instrumental Drum N Bass Piano LN dnb Hybrid featured artist fa
BeatmapID:3771595
BeatmapSetID:1836849

[Difficulty]
HPDrainRate:8
CircleSize:4
OverallDifficulty:8
ApproachRate:5
SliderMultiplier:1.4
SliderTickRate:1

[Events]
//Background and Video events
0,0,"387631911.jpg",0,0
//Break Periods
//Storyboard Layer 0 (Background)
//Storyboard Layer 1 (Fail)
//Storyboard Layer 2 (Pass)
//Storyboard Layer 3 (Foreground)
//Storyboard Layer 4 (Overlay)
//Storyboard Sound Samples

[TimingPoints]
162,342.857142857143,4,2,1,35,1,0
33076,-100,4,2,1,35,0,1
52276,-100,4,2,1,35,0,0
76962,-100,4,2,1,35,0,1
98904,-100,4,2,1,35,0,0

[HitObjects]
64,192,162,128,0,204:0:0:0:0:
192,192,162,128,0,204:0:0:0:0:
64,192,847,1,0,0:0:0:0:
448,192,847,1,0,0:0:0:0:
192,192,1876,1,0,0:0:0:0:
64,192,1876,1,0,0:0:0:0:
64,192,2219,1,0,0:0:0:0:
448,192,2219,1,0,0:0:0:0:
320,192,2733,1,0,0:0:0:0:
448,192,2819,1,0,0:0:0:0:
192,192,2904,1,0,0:0:0:0:
64,192,2904,1,0,0:0:0:0:
64,192,3590,1,0,0:0:0:0:
448,192,3590,1,0,0:0:0:0:
192,192,4619,1,0,0:0:0:0:
64,192,4619,1,0,0:0:0:0:
64,192,4962,1,0,0:0:0:0:
448,192,4962,1,0,0:0:0:0:
64,192,5647,128,0,5690:0:0:0:0:
192,192,5647,128,0,5690:0:0:0:0:
320,192,5819,1,0,0:0:0:0:
448,192,5990,1,0,0:0:0:0:
64,192,6162,1,0,0:0:0:0:
192,192,6247,1,0,0:0:0:0:
448,192,6333,1,0,0:0:0:0:
64,192,6333,1,0,0:0:0:0:
320,192,6333,1,0,0:0:0:0:
192,192,6504,1,0,0:0:0:0:
320,192,6676,1,0,0:0:0:0:
64,192,6847,1,0,0:0:0:0:
192,192,6933,1,0,0:0:0:0:
320,192,7019,1,0,0:0:0:0:
448,192,7190,1,0,0:0:0:0:
320,192,7276,1,0,0:0:0:0:
192,192,7362,1,0,0:0:0:0:
64,192,7362,1,0,0:0:0:0:
320,192,7533,1,0,0:0:0:0:
192,192,7619,1,0,0:0:0:0:
64,192,7704,1,0,0:0:0:0:
448,192,7704,1,0,0:0:0:0:
320,192,7704,1,0,0:0:0:0:
192,192,7876,1,0,0:0:0:0:
64,192,8047,1,0,0:0:0:0:
320,192,8219,1,0,0:0:0:0:
448,192,8304,1,0,0:0:0:0:
192,192,8390,1,0,0:0:0:0:
64,192,8390,1,0,0:0:0:0:
448,192,8562,1,0,0:0:0:0:
320,192,8647,1,0,0:0:0:0:
192,192,8733,1,0,0:0:0:0:
320,192,8904,1,0,0:0:0:0:
192,192,8990,1,0,0:0:0:0:
448,192,9076,1,0,0:0:0:0:
64,192,9076,1,0,0:0:0:0:
320,192,9076,1,0,0:0:0:0:
192,192,9247,1,0,0:0:0:0:
448,192,9419,1,0,0:0:0:0:
320,192,9590,1,0,0:0:0:0:
192,192,9676,1,0,0:0:0:0:
64,192,9762,1,0,0:0:0:0:
448,192,9933,1,0,0:0:0:0:
320,192,10019,1,0,0:0:0:0:
192,192,10104,1,0,0:0:0:0:
64,192,10104,1,0,0:0:0:0:
320,192,10276,1,0,0:0:0:0:
192,192,10362,1,0,0:0:0:0:
64,192,10447,1,0,0:0:0:0:
448,192,10447,1,0,0:0:0:0:
320,192,10447,1,0,0:0:0:0:
320,192,10619,1,0,0:0:0:0:
192,192,10619,1,0,0:0:0:0:
64,192,10790,1,0,0:0:0:0:
448,192,10790,1,0,0:0:0:0:
192,192,10790,1,0,0:0:0:0:
64,192,10962,1,0,0:0:0:0:
448,192,10962,1,0,0:0:0:0:
192,192,11019,1,0,0:0:0:0:
320,192,11076,1,0,0:0:0:0:
64,192,11133,128,0,11219:0:0:0:0:
192,192,11133,128,0,11219:0:0:0:0:
448,192,11133,1,0,0:0:0:0:
320,192,11219,1,0,0:0:0:0:
192,192,11304,1,0,0:0:0:0:
64,192,11390,1,0,0:0:0:0:
448,192,11476,128,0,11562:0:0:0:0:
192,192,11562,1,0,0:0:0:0:
320,192,11647,128,0,11733:0:0:0:0:
64,192,11733,1,0,0:0:0:0:
448,192,11819,1,0,0:0:0:0:
320,192,11904,1,0,0:0:0:0:
192,192,11990,128,0,12076:0:0:0:0:
64,192,12076,1,0,0:0:0:0:
320,192,12162,1,0,0:0:0:0:
192,192,12247,1,0,0:0:0:0:
448,192,12333,128,0,12419:0:0:0:0:
64,192,12419,1,0,0:0:0:0:
192,192,12504,1,0,0:0:0:0:
448,192,12590,1,0,0:0:0:0:
320,192,12676,128,0,12762:0:0:0:0:
192,192,12762,1,0,0:0:0:0:
64,192,12847,1,0,0:0:0:0:
320,192,12933,1,0,0:0:0:0:
192,192,13019,128,0,13104:0:0:0:0:
448,192,13104,1,0,0:0:0:0:
320,192,13190,1,0,0:0:0:0:
192,192,13276,1,0,0:0:0:0:
64,192,13362,128,0,13447:0:0:0:0:
320,192,13447,1,0,0:0:0:0:
448,192,13533,1,0,0:0:0:0:
64,192,13619,1,0,0:0:0:0:
192,192,13704,128,0,13790:0:0:0:0:
320,192,13790,1,0,0:0:0:0:
64,192,13876,128,0,13962:0:0:0:0:
448,192,13876,128,0,13962:0:0:0:0:
192,192,13962,1,0,0:0:0:0:
320,192,14047,1,0,0:0:0:0:
192,192,14133,1,0,0:0:0:0:
448,192,14219,128,0,14304:0:0:0:0:
192,192,14304,1,0,0:0:0:0:
320,192,14390,128,0,14476:0:0:0:0:
64,192,14476,1,0,0:0:0:0:
448,192,14562,1,0,0:0:0:0:
320,192,14647,1,0,0:0:0:0:
192,192,14733,128,0,14819:0:0:0:0:
64,192,14819,1,0,0:0:0:0:
320,192,14904,1,0,0:0:0:0:
192,192,14990,1,0,0:0:0:0:
448,192,15076,128,0,15162:0:0:0:0:
320,192,15162,1,0,0:0:0:0:
192,192,15247,1,0,0:0:0:0:
64,192,15333,1,0,0:0:0:0:
320,192,15419,128,0,15504:0:0:0:0:
192,192,15504,1,0,0:0:0:0:
448,192,15590,1,0,0:0:0:0:
320,192,15676,1,0,0:0:0:0:
192,192,15762,128,0,15847:0:0:0:0:
64,192,15847,1,0,0:0:0:0:
320,192,15933,1,0,0:0:0:0:
448,192,16019,1,0,0:0:0:0:
64,192,16104,128,0,16190:0:0:0:0:
192,192,16190,1,0,0:0:0:0:
320,192,16276,128,0,16362:0:0:0:0:
448,192,16362,1,0,0:0:0:0:
192,192,16447,128,0,16533:0:0:0:0:
64,192,16533,1,0,0:0:0:0:
320,192,16619,128,0,16704:0:0:0:0:
448,192,16619,128,0,16704:0:0:0:0:
64,192,16704,1,0,0:0:0:0:
192,192,16790,1,0,0:0:0:0:
320,192,16876,1,0,0:0:0:0:
448,192,16962,128,0,17047:0:0:0:0:
192,192,17047,1,0,0:0:0:0:
320,192,17133,128,0,17219:0:0:0:0:
64,192,17219,1,0,0:0:0:0:
448,192,17304,1,0,0:0:0:0:
320,192,17390,1,0,0:0:0:0:
192,192,17476,128,0,17562:0:0:0:0:
64,192,17562,1,0,0:0:0:0:
320,192,17647,1,0,0:0:0:0:
192,192,17733,1,0,0:0:0:0:
448,192,17819,128,0,17904:0:0:0:0:
320,192,17904,1,0,0:0:0:0:
192,192,17990,1,0,0:0:0:0:
64,192,18076,1,0,0:0:0:0:
320,192,18162,128,0,18247:0:0:0:0:
192,192,18247,1,0,0:0:0:0:
448,192,18333,1,0,0:0:0:0:
320,192,18419,1,0,0:0:0:0:
192,192,18504,128,0,18590:0:0:0:0:
64,192,18590,1,0,0:0:0:0:
320,192,18676,1,0,0:0:0:0:
448,192,18762,1,0,0:0:0:0:
64,192,18847,128,0,18933:0:0:0:0:
192,192,18933,1,0,0:0:0:0:
320,192,19019,1,0,0:0:0:0:
448,192,19104,1,0,0:0:0:0:
192,192,19190,128,0,19276:0:0:0:0:
320,192,19276,1,0,0:0:0:0:
64,192,19362,128,0,19447:0:0:0:0:
448,192,19362,128,0,19447:0:0:0:0:
192,192,19447,1,0,0:0:0:0:
320,192,19533,1,0,0:0:0:0:
192,192,19619,1,0,0:0:0:0:
448,192,19704,128,0,19790:0:0:0:0:
192,192,19790,1,0,0:0:0:0:
320,192,19876,128,0,19962:0:0:0:0:
64,192,19962,1,0,0:0:0:0:
448,192,20047,1,0,0:0:0:0:
320,192,20133,1,0,0:0:0:0:
192,192,20219,128,0,20304:0:0:0:0:
64,192,20304,1,0,0:0:0:0:
320,192,20390,1,0,0:0:0:0:
192,192,20476,1,0,0:0:0:0:
448,192,20562,128,0,20647:0:0:0:0:
320,192,20647,1,0,0:0:0:0:
192,192,20733,1,0,0:0:0:0:
64,192,20819,1,0,0:0:0:0:
320,192,20904,128,0,20990:0:0:0:0:
448,192,20990,1,0,0:0:0:0:
192,192,21076,1,0,0:0:0:0:
64,192,21162,1,0,0:0:0:0:
448,192,21247,1,0,0:0:0:0:
320,192,21247,1,0,0:0:0:0:
192,192,21333,1,0,0:0:0:0:
64,192,21333,1,0,0:0:0:0:
448,192,21419,128,0,21504:0:0:0:0:
320,192,21440,128,0,21504:0:0:0:0:
64,192,21462,128,0,21676:0:0:0:0:
320,192,21590,128,0,21697:0:0:0:0:
448,192,21590,128,0,21719:0:0:0:0:
192,192,21762,1,0,0:0:0:0:
320,192,21847,1,0,0:0:0:0:
448,192,21933,1,0,0:0:0:0:
64,192,21933,1,0,0:0:0:0:
192,192,21990,1,0,0:0:0:0:
320,192,22047,1,0,0:0:0:0:
448,192,22104,1,0,0:0:0:0:
192,192,22104,128,0,22190:0:0:0:0:
64,192,22104,128,0,22190:0:0:0:0:
320,192,22190,1,0,0:0:0:0:
192,192,22276,1,0,0:0:0:0:
64,192,22362,1,0,0:0:0:0:
448,192,22447,128,0,22533:0:0:0:0:
320,192,22447,1,0,0:0:0:0:
192,192,22533,1,0,0:0:0:0:
320,192,22619,128,0,22704:0:0:0:0:
448,192,22704,1,0,0:0:0:0:
64,192,22790,1,0,0:0:0:0:
192,192,22790,1,0,0:0:0:0:
320,192,22876,1,0,0:0:0:0:
192,192,22962,128,0,23047:0:0:0:0:
64,192,23047,1,0,0:0:0:0:
320,192,23133,1,0,0:0:0:0:
448,192,23133,1,0,0:0:0:0:
192,192,23219,1,0,0:0:0:0:
448,192,23304,128,0,23390:0:0:0:0:
320,192,23390,1,0,0:0:0:0:
192,192,23476,1,0,0:0:0:0:
64,192,23476,1,0,0:0:0:0:
448,192,23562,1,0,0:0:0:0:
320,192,23647,128,0,23733:0:0:0:0:
192,192,23733,1,0,0:0:0:0:
448,192,23819,1,0,0:0:0:0:
64,192,23819,1,0,0:0:0:0:
320,192,23904,1,0,0:0:0:0:
192,192,23990,128,0,24076:0:0:0:0:
64,192,24076,1,0,0:0:0:0:
320,192,24162,1,0,0:0:0:0:
448,192,24162,1,0,0:0:0:0:
192,192,24247,1,0,0:0:0:0:
64,192,24333,128,0,24419:0:0:0:0:
320,192,24419,1,0,0:0:0:0:
448,192,24504,1,0,0:0:0:0:
192,192,24504,1,0,0:0:0:0:
64,192,24590,1,0,0:0:0:0:
192,192,24676,128,0,24762:0:0:0:0:
320,192,24762,1,0,0:0:0:0:
64,192,24847,128,0,24933:0:0:0:0:
448,192,24847,128,0,24933:0:0:0:0:
320,192,24933,1,0,0:0:0:0:
192,192,25019,1,0,0:0:0:0:
64,192,25104,1,0,0:0:0:0:
448,192,25190,128,0,25276:0:0:0:0:
320,192,25190,1,0,0:0:0:0:
192,192,25276,1,0,0:0:0:0:
320,192,25362,128,0,25447:0:0:0:0:
448,192,25447,1,0,0:0:0:0:
64,192,25533,1,0,0:0:0:0:
192,192,25533,1,0,0:0:0:0:
320,192,25619,1,0,0:0:0:0:
192,192,25704,128,0,25790:0:0:0:0:
64,192,25790,1,0,0:0:0:0:
448,192,25876,1,0,0:0:0:0:
320,192,25876,1,0,0:0:0:0:
192,192,25962,1,0,0:0:0:0:
448,192,26047,128,0,26133:0:0:0:0:
320,192,26133,1,0,0:0:0:0:
192,192,26219,1,0,0:0:0:0:
448,192,26219,1,0,0:0:0:0:
64,192,26304,1,0,0:0:0:0:
320,192,26390,128,0,26476:0:0:0:0:
192,192,26476,5,0,0:0:0:0:
64,192,26562,1,0,0:0:0:0:
320,192,26562,1,0,0:0:0:0:
448,192,26647,1,0,0:0:0:0:
192,192,26733,128,0,26819:0:0:0:0:
320,192,26819,1,0,0:0:0:0:
64,192,26904,1,0,0:0:0:0:
192,192,26904,1,0,0:0:0:0:
320,192,26990,1,0,0:0:0:0:
64,192,27076,128,0,27162:0:0:0:0:
448,192,27162,1,0,0:0:0:0:
192,192,27247,128,0,27333:0:0:0:0:
320,192,27247,1,0,0:0:0:0:
64,192,27333,1,0,0:0:0:0:
320,192,27419,128,0,27504:0:0:0:0:
192,192,27504,1,0,0:0:0:0:
320,192,27590,128,0,27676:0:0:0:0:
448,192,27590,128,0,27676:0:0:0:0:
192,192,27762,1,0,0:0:0:0:
64,192,27762,1,0,0:0:0:0:
64,192,27933,1,0,0:0:0:0:
448,192,27933,1,0,0:0:0:0:
448,192,28104,1,0,0:0:0:0:
320,192,28104,1,0,0:0:0:0:
192,192,28276,1,0,0:0:0:0:
64,192,28276,1,0,0:0:0:0:
64,192,28447,1,0,0:0:0:0:
448,192,28447,1,0,0:0:0:0:
448,192,28619,1,0,0:0:0:0:
320,192,28619,1,0,0:0:0:0:
192,192,28790,1,0,0:0:0:0:
64,192,28790,1,0,0:0:0:0:
320,192,28962,5,0,0:0:0:0:
448,192,28962,1,0,0:0:0:0:
320,192,29047,1,0,0:0:0:0:
448,192,29047,1,0,0:0:0:0:
64,192,29133,1,0,0:0:0:0:
192,192,29133,1,0,0:0:0:0:
64,192,29219,1,0,0:0:0:0:
192,192,29219,1,0,0:0:0:0:
320,192,29304,1,0,0:0:0:0:
448,192,29304,1,0,0:0:0:0:
448,192,29390,1,0,0:0:0:0:
320,192,29390,1,0,0:0:0:0:
192,192,29476,1,0,0:0:0:0:
64,192,29476,1,0,0:0:0:0:
192,192,29562,1,0,0:0:0:0:
64,192,29562,1,0,0:0:0:0:
320,192,29647,1,0,0:0:0:0:
448,192,29647,1,0,0:0:0:0:
320,192,29733,1,0,0:0:0:0:
448,192,29733,1,0,0:0:0:0:
64,192,29819,1,0,0:0:0:0:
192,192,29819,1,0,0:0:0:0:
64,192,29904,1,0,0:0:0:0:
192,192,29904,1,0,0:0:0:0:
320,192,29990,1,0,0:0:0:0:
448,192,29990,1,0,0:0:0:0:
448,192,30076,1,0,0:0:0:0:
64,192,30076,1,0,0:0:0:0:
64,192,30162,1,0,0:0:0:0:
192,192,30162,1,0,0:0:0:0:
320,192,30247,1,0,0:0:0:0:
192,192,30247,1,0,0:0:0:0:
64,192,30333,1,0,0:0:0:0:
448,192,30333,128,0,30676:0:0:0:0:
320,192,30333,1,0,0:0:0:0:
64,192,30504,128,0,30676:0:0:0:0:
320,192,30676,1,0,0:0:0:0:
192,192,30847,1,0,0:0:0:0:
448,192,31019,1,0,0:0:0:0:
64,192,31190,1,0,0:0:0:0:
192,192,31362,1,0,0:0:0:0:
320,192,31533,1,0,0:0:0:0:
192,192,31704,5,0,0:0:0:0:
64,192,31704,1,0,0:0:0:0:
448,192,31704,1,0,0:0:0:0:
64,192,31790,1,0,0:0:0:0:
192,192,31790,1,0,0:0:0:0:
320,192,31876,1,0,0:0:0:0:
192,192,31962,1,0,0:0:0:0:
320,192,32047,1,0,0:0:0:0:
448,192,32047,1,0,0:0:0:0:
64,192,32047,1,0,0:0:0:0:
320,192,32133,1,0,0:0:0:0:
448,192,32133,1,0,0:0:0:0:
64,192,32219,1,0,0:0:0:0:
192,192,32304,1,0,0:0:0:0:
320,192,32390,1,0,0:0:0:0:
448,192,32390,1,0,0:0:0:0:
192,192,32476,1,0,0:0:0:0:
64,192,32476,1,0,0:0:0:0:
448,192,32562,1,0,0:0:0:0:
320,192,32562,1,0,0:0:0:0:
320,192,32647,1,0,0:0:0:0:
448,192,32647,1,0,0:0:0:0:
64,192,32733,128,0,33076:0:0:0:0:
192,192,32733,1,0,0:0:0:0:
448,192,32733,1,0,0:0:0:0:
448,192,33076,128,0,33162:0:0:0:0:
320,192,33119,128,0,33204:0:0:0:0:
192,192,33162,128,0,33247:0:0:0:0:
64,192,33204,128,0,33290:0:0:0:0:
448,192,33247,128,0,33290:0:0:0:0:
320,192,33290,128,0,33333:0:0:0:0:
192,192,33333,128,0,33376:0:0:0:0:
64,192,33376,128,0,33419:0:0:0:0:
448,192,33419,128,0,33504:0:0:0:0:
192,192,33504,128,0,33590:0:0:0:0:
448,192,33590,1,0,0:0:0:0:
192,192,33676,1,0,0:0:0:0:
64,192,33762,128,0,33933:0:0:0:0:
320,192,33762,1,0,0:0:0:0:
448,192,33762,128,0,34104:0:0:0:0:
320,192,33933,128,0,34104:0:0:0:0:
64,192,34104,128,0,34190:0:0:0:0:
320,192,34190,128,0,34276:0:0:0:0:
192,192,34276,128,0,34362:0:0:0:0:
448,192,34362,128,0,34447:0:0:0:0:
64,192,34447,1,0,0:0:0:0:
192,192,34447,128,0,34619:0:0:0:0:
320,192,34490,128,0,34619:0:0:0:0:
448,192,34533,128,0,34619:0:0:0:0:
320,192,34704,128,0,34876:0:0:0:0:
448,192,34704,1,0,0:0:0:0:
192,192,34747,128,0,34876:0:0:0:0:
64,192,34790,128,0,34876:0:0:0:0:
448,192,34962,1,0,0:0:0:0:
192,192,34962,128,0,35047:0:0:0:0:
64,192,35004,128,0,35133:0:0:0:0:
320,192,35133,1,0,0:0:0:0:
192,192,35133,1,0,0:0:0:0:
448,192,35133,128,0,35304:0:0:0:0:
192,192,35304,128,0,35390:0:0:0:0:
320,192,35390,128,0,35476:0:0:0:0:
64,192,35476,1,0,0:0:0:0:
64,192,35562,1,0,0:0:0:0:
448,192,35647,1,0,0:0:0:0:
448,192,35733,1,0,0:0:0:0:
64,192,35819,128,0,36162:0:0:0:0:
320,192,35819,128,0,35990:0:0:0:0:
192,192,35990,128,0,36162:0:0:0:0:
320,192,36162,1,0,0:0:0:0:
320,192,36247,1,0,0:0:0:0:
64,192,36333,1,0,0:0:0:0:
64,192,36419,1,0,0:0:0:0:
320,192,36504,128,0,36847:0:0:0:0:
448,192,36504,128,0,36847:0:0:0:0:
192,192,36504,1,0,0:0:0:0:
64,192,36676,128,0,36847:0:0:0:0:
192,192,36847,1,0,0:0:0:0:
192,192,36933,1,0,0:0:0:0:
448,192,37019,1,0,0:0:0:0:
448,192,37104,1,0,0:0:0:0:
64,192,37190,128,0,37276:0:0:0:0:
192,192,37233,128,0,37319:0:0:0:0:
448,192,37276,128,0,37362:0:0:0:0:
320,192,37319,128,0,37404:0:0:0:0:
64,192,37362,128,0,37619:0:0:0:0:
192,192,37404,128,0,37619:0:0:0:0:
448,192,37447,128,0,37704:0:0:0:0:
320,192,37490,128,0,37704:0:0:0:0:
192,192,37704,1,0,0:0:0:0:
64,192,37704,1,0,0:0:0:0:
320,192,37790,1,0,0:0:0:0:
448,192,37790,1,0,0:0:0:0:
64,192,37876,1,0,0:0:0:0:
192,192,37876,1,0,0:0:0:0:
448,192,37876,1,0,0:0:0:0:
320,192,38047,1,0,0:0:0:0:
448,192,38047,1,0,0:0:0:0:
192,192,38133,1,0,0:0:0:0:
64,192,38133,1,0,0:0:0:0:
64,192,38219,1,0,0:0:0:0:
320,192,38219,1,0,0:0:0:0:
448,192,38219,1,0,0:0:0:0:
192,192,38304,1,0,0:0:0:0:
448,192,38390,1,0,0:0:0:0:
64,192,38390,1,0,0:0:0:0:
320,192,38447,1,0,0:0:0:0:
192,192,38504,1,0,0:0:0:0:
448,192,38562,128,0,38904:0:0:0:0:
64,192,38562,128,0,38733:0:0:0:0:
320,192,38647,128,0,38904:0:0:0:0:
192,192,38733,128,0,38904:0:0:0:0:
64,192,38904,128,0,38990:0:0:0:0:
320,192,38990,128,0,39076:0:0:0:0:
64,192,39076,1,0,0:0:0:0:
320,192,39162,1,0,0:0:0:0:
448,192,39247,128,0,39590:0:0:0:0:
64,192,39247,128,0,39419:0:0:0:0:
192,192,39247,1,0,0:0:0:0:
320,192,39419,128,0,39590:0:0:0:0:
64,192,39590,128,0,39676:0:0:0:0:
192,192,39612,128,0,39676:0:0:0:0:
320,192,39762,128,0,39847:0:0:0:0:
448,192,39783,128,0,39847:0:0:0:0:
192,192,39933,1,0,0:0:0:0:
64,192,39933,128,0,40104:0:0:0:0:
320,192,39976,128,0,40104:0:0:0:0:
448,192,40019,128,0,40104:0:0:0:0:
320,192,40190,1,0,0:0:0:0:
448,192,40190,128,0,40362:0:0:0:0:
192,192,40233,128,0,40362:0:0:0:0:
64,192,40276,128,0,40362:0:0:0:0:
320,192,40447,128,0,40533:0:0:0:0:
192,192,40447,1,0,0:0:0:0:
448,192,40490,128,0,40619:0:0:0:0:
192,192,40619,1,0,0:0:0:0:
320,192,40619,1,0,0:0:0:0:
64,192,40619,128,0,40790:0:0:0:0:
320,192,40790,128,0,40876:0:0:0:0:
192,192,40876,128,0,40962:0:0:0:0:
448,192,40962,1,0,0:0:0:0:
448,192,41047,1,0,0:0:0:0:
64,192,41133,1,0,0:0:0:0:
64,192,41219,1,0,0:0:0:0:
448,192,41304,128,0,41647:0:0:0:0:
192,192,41304,128,0,41476:0:0:0:0:
320,192,41476,128,0,41647:0:0:0:0:
192,192,41647,1,0,0:0:0:0:
192,192,41733,1,0,0:0:0:0:
448,192,41819,1,0,0:0:0:0:
448,192,41904,1,0,0:0:0:0:
192,192,41990,128,0,42333:0:0:0:0:
64,192,41990,128,0,42333:0:0:0:0:
320,192,41990,1,0,0:0:0:0:
448,192,42162,128,0,42333:0:0:0:0:
320,192,42333,1,0,0:0:0:0:
320,192,42419,1,0,0:0:0:0:
64,192,42504,1,0,0:0:0:0:
64,192,42590,1,0,0:0:0:0:
448,192,42676,128,0,43190:0:0:0:0:
192,192,42676,1,0,0:0:0:0:
320,192,42762,128,0,43190:0:0:0:0:
192,192,42847,128,0,43104:0:0:0:0:
64,192,42933,128,0,43104:0:0:0:0:
64,192,43190,1,0,0:0:0:0:
192,192,43190,1,0,0:0:0:0:
448,192,43276,1,0,0:0:0:0:
320,192,43276,1,0,0:0:0:0:
448,192,43362,1,0,0:0:0:0:
64,192,43362,1,0,0:0:0:0:
192,192,43362,1,0,0:0:0:0:
320,192,43533,1,0,0:0:0:0:
448,192,43533,1,0,0:0:0:0:
192,192,43619,1,0,0:0:0:0:
64,192,43619,1,0,0:0:0:0:
448,192,43704,1,0,0:0:0:0:
64,192,43704,1,0,0:0:0:0:
320,192,43704,1,0,0:0:0:0:
448,192,43790,1,0,0:0:0:0:
192,192,43876,1,0,0:0:0:0:
64,192,43876,1,0,0:0:0:0:
320,192,43933,1,0,0:0:0:0:
448,192,43990,1,0,0:0:0:0:
64,192,44047,128,0,44133:0:0:0:0:
192,192,44090,128,0,44176:0:0:0:0:
320,192,44133,128,0,44219:0:0:0:0:
448,192,44176,128,0,44262:0:0:0:0:
64,192,44219,128,0,44262:0:0:0:0:
192,192,44262,128,0,44304:0:0:0:0:
320,192,44304,128,0,44347:0:0:0:0:
448,192,44347,128,0,44390:0:0:0:0:
64,192,44390,128,0,44476:0:0:0:0:
320,192,44476,128,0,44562:0:0:0:0:
64,192,44562,1,0,0:0:0:0:
320,192,44647,1,0,0:0:0:0:
64,192,44733,128,0,45076:0:0:0:0:
448,192,44733,128,0,44904:0:0:0:0:
192,192,44733,1,0,0:0:0:0:
192,192,44904,128,0,45076:0:0:0:0:
448,192,45076,128,0,45162:0:0:0:0:
192,192,45162,128,0,45247:0:0:0:0:
320,192,45247,128,0,45333:0:0:0:0:
64,192,45333,128,0,45419:0:0:0:0:
448,192,45419,1,0,0:0:0:0:
320,192,45419,128,0,45590:0:0:0:0:
192,192,45462,128,0,45590:0:0:0:0:
64,192,45504,128,0,45590:0:0:0:0:
64,192,45676,1,0,0:0:0:0:
192,192,45676,128,0,45847:0:0:0:0:
320,192,45719,128,0,45847:0:0:0:0:
448,192,45762,128,0,45847:0:0:0:0:
320,192,45933,128,0,46019:0:0:0:0:
64,192,45933,1,0,0:0:0:0:
448,192,45976,128,0,46104:0:0:0:0:
192,192,46104,1,0,0:0:0:0:
320,192,46104,1,0,0:0:0:0:
64,192,46104,128,0,46276:0:0:0:0:
320,192,46276,128,0,46362:0:0:0:0:
192,192,46362,128,0,46447:0:0:0:0:
448,192,46447,1,0,0:0:0:0:
448,192,46533,1,0,0:0:0:0:
64,192,46619,1,0,0:0:0:0:
64,192,46704,1,0,0:0:0:0:
448,192,46790,128,0,47133:0:0:0:0:
192,192,46790,128,0,46962:0:0:0:0:
320,192,46962,128,0,47133:0:0:0:0:
64,192,47133,1,0,0:0:0:0:
64,192,47219,1,0,0:0:0:0:
320,192,47304,1,0,0:0:0:0:
320,192,47390,1,0,0:0:0:0:
192,192,47476,128,0,47819:0:0:0:0:
64,192,47476,128,0,47819:0:0:0:0:
448,192,47476,1,0,0:0:0:0:
448,192,47647,128,0,47819:0:0:0:0:
320,192,47819,1,0,0:0:0:0:
320,192,47904,1,0,0:0:0:0:
64,192,47990,1,0,0:0:0:0:
64,192,48076,1,0,0:0:0:0:
448,192,48162,128,0,48247:0:0:0:0:
320,192,48204,128,0,48290:0:0:0:0:
64,192,48247,128,0,48333:0:0:0:0:
192,192,48290,128,0,48376:0:0:0:0:
448,192,48333,128,0,48590:0:0:0:0:
320,192,48376,128,0,48590:0:0:0:0:
64,192,48419,128,0,48676:0:0:0:0:
192,192,48462,128,0,48676:0:0:0:0:
320,192,48676,1,0,0:0:0:0:
448,192,48676,1,0,0:0:0:0:
192,192,48762,1,0,0:0:0:0:
64,192,48762,1,0,0:0:0:0:
448,192,48847,1,0,0:0:0:0:
320,192,48847,1,0,0:0:0:0:
64,192,48847,1,0,0:0:0:0:
192,192,49019,1,0,0:0:0:0:
64,192,49019,1,0,0:0:0:0:
320,192,49104,1,0,0:0:0:0:
448,192,49104,1,0,0:0:0:0:
64,192,49190,1,0,0:0:0:0:
192,192,49190,1,0,0:0:0:0:
320,192,49276,1,0,0:0:0:0:
64,192,49362,1,0,0:0:0:0:
448,192,49362,1,0,0:0:0:0:
192,192,49419,1,0,0:0:0:0:
320,192,49476,1,0,0:0:0:0:
448,192,49533,128,0,49704:0:0:0:0:
64,192,49533,128,0,49876:0:0:0:0:
192,192,49619,128,0,49876:0:0:0:0:
320,192,49704,128,0,49876:0:0:0:0:
448,192,49876,128,0,49962:0:0:0:0:
192,192,49962,128,0,50047:0:0:0:0:
448,192,50047,1,0,0:0:0:0:
192,192,50133,1,0,0:0:0:0:
64,192,50219,128,0,50562:0:0:0:0:
320,192,50219,1,0,0:0:0:0:
448,192,50219,128,0,50390:0:0:0:0:
192,192,50390,128,0,50562:0:0:0:0:
448,192,50562,128,0,50647:0:0:0:0:
320,192,50583,128,0,50647:0:0:0:0:
192,192,50733,128,0,50819:0:0:0:0:
64,192,50754,128,0,50819:0:0:0:0:
320,192,50904,1,0,0:0:0:0:
448,192,50904,128,0,51076:0:0:0:0:
192,192,50947,128,0,51076:0:0:0:0:
64,192,50990,128,0,51076:0:0:0:0:
192,192,51162,1,0,0:0:0:0:
64,192,51162,128,0,51333:0:0:0:0:
320,192,51204,128,0,51333:0:0:0:0:
448,192,51247,128,0,51333:0:0:0:0:
192,192,51419,128,0,51504:0:0:0:0:
320,192,51419,1,0,0:0:0:0:
64,192,51462,128,0,51590:0:0:0:0:
320,192,51590,1,0,0:0:0:0:
192,192,51590,1,0,0:0:0:0:
448,192,51590,1,0,0:0:0:0:
64,192,51762,1,0,0:0:0:0:
448,192,51762,1,0,0:0:0:0:
64,192,51933,1,0,0:0:0:0:
192,192,51933,1,0,0:0:0:0:
320,192,51933,1,0,0:0:0:0:
448,192,52104,1,0,0:0:0:0:
64,192,52104,1,0,0:0:0:0:
320,192,52162,1,0,0:0:0:0:
192,192,52219,1,0,0:0:0:0:
64,192,52276,128,0,52362:0:0:0:0:
320,192,52276,128,0,52362:0:0:0:0:
448,192,52276,128,0,52362:0:0:0:0:
64,192,53476,128,0,54504:0:0:0:0:
192,192,53819,128,0,54504:0:0:0:0:
320,192,54504,1,0,0:0:0:0:
448,192,54504,1,0,0:0:0:0:
192,192,54590,1,0,0:0:0:0:
64,192,54590,1,0,0:0:0:0:
64,192,54676,1,0,0:0:0:0:
320,192,54676,128,0,55019:0:0:0:0:
448,192,54676,128,0,55019:0:0:0:0:
64,192,55019,1,0,0:0:0:0:
192,192,55019,1,0,0:0:0:0:
320,192,55126,1,0,0:0:0:0:
448,192,55233,1,0,0:0:0:0:
64,192,56162,1,0,0:0:0:0:
192,192,56412,1,0,0:0:0:0:
448,192,56454,1,0,0:0:0:0:
64,192,57362,1,0,0:0:0:0:
192,192,58504,1,0,0:0:0:0:
64,192,58562,1,0,0:0:0:0:
192,192,58819,1,0,0:0:0:0:
320,192,59076,1,0,0:0:0:0:
192,192,59333,1,0,0:0:0:0:
448,192,59590,1,0,0:0:0:0:
64,192,59704,1,0,0:0:0:0:
320,192,59819,1,0,0:0:0:0:
192,192,60097,1,0,0:0:0:0:
448,192,60419,1,0,0:0:0:0:
320,192,60697,1,0,0:0:0:0:
192,192,60804,1,0,0:0:0:0:
448,192,60876,1,0,0:0:0:0:
64,192,60912,1,0,0:0:0:0:
448,192,61647,1,0,0:0:0:0:
320,192,61876,1,0,0:0:0:0:
64,192,62047,1,0,0:0:0:0:
192,192,62104,1,0,0:0:0:0:
320,192,62333,1,0,0:0:0:0:
448,192,62583,1,0,0:0:0:0:
192,192,62797,1,0,0:0:0:0:
320,192,62883,1,0,0:0:0:0:
64,192,63219,1,0,0:0:0:0:
192,192,64219,1,0,0:0:0:0:
320,192,64276,1,0,0:0:0:0:
64,192,64333,1,0,0:0:0:0:
448,192,64362,1,0,0:0:0:0:
64,192,65504,1,0,0:0:0:0:
448,192,65562,1,0,0:0:0:0:
320,192,65904,1,0,0:0:0:0:
192,192,65990,1,0,0:0:0:0:
64,192,65990,1,0,0:0:0:0:
448,192,66076,1,0,0:0:0:0:
320,192,66162,1,0,0:0:0:0:
192,192,66247,1,0,0:0:0:0:
320,192,66333,1,0,0:0:0:0:
448,192,66333,1,0,0:0:0:0:
192,192,66504,1,0,0:0:0:0:
320,192,66590,1,0,0:0:0:0:
192,192,66676,1,0,0:0:0:0:
448,192,66676,1,0,0:0:0:0:
64,192,66762,1,0,0:0:0:0:
320,192,66847,1,0,0:0:0:0:
448,192,66933,1,0,0:0:0:0:
64,192,67019,1,0,0:0:0:0:
320,192,67019,1,0,0:0:0:0:
192,192,67190,1,0,0:0:0:0:
320,192,67276,1,0,0:0:0:0:
448,192,67362,1,0,0:0:0:0:
64,192,67362,1,0,0:0:0:0:
192,192,67447,1,0,0:0:0:0:
320,192,67533,1,0,0:0:0:0:
192,192,67619,1,0,0:0:0:0:
64,192,67704,1,0,0:0:0:0:
448,192,67704,1,0,0:0:0:0:
192,192,67876,1,0,0:0:0:0:
320,192,67962,1,0,0:0:0:0:
448,192,68047,1,0,0:0:0:0:
192,192,68047,1,0,0:0:0:0:
64,192,68133,1,0,0:0:0:0:
320,192,68219,1,0,0:0:0:0:
448,192,68304,1,0,0:0:0:0:
64,192,68390,1,0,0:0:0:0:
320,192,68390,1,0,0:0:0:0:
192,192,68562,1,0,0:0:0:0:
320,192,68647,1,0,0:0:0:0:
192,192,68733,1,0,0:0:0:0:
64,192,68733,1,0,0:0:0:0:
320,192,68819,1,0,0:0:0:0:
448,192,68904,1,0,0:0:0:0:
192,192,68990,1,0,0:0:0:0:
320,192,69076,1,0,0:0:0:0:
448,192,69076,1,0,0:0:0:0:
192,192,69247,1,0,0:0:0:0:
64,192,69333,1,0,0:0:0:0:
192,192,69419,1,0,0:0:0:0:
448,192,69419,1,0,0:0:0:0:
320,192,69504,1,0,0:0:0:0:
64,192,69590,1,0,0:0:0:0:
192,192,69676,1,0,0:0:0:0:
64,192,69762,1,0,0:0:0:0:
320,192,69762,1,0,0:0:0:0:
192,192,69933,1,0,0:0:0:0:
320,192,70019,1,0,0:0:0:0:
64,192,70104,1,0,0:0:0:0:
448,192,70104,1,0,0:0:0:0:
192,192,70190,1,0,0:0:0:0:
320,192,70276,1,0,0:0:0:0:
192,192,70362,1,0,0:0:0:0:
64,192,70447,1,0,0:0:0:0:
448,192,70447,1,0,0:0:0:0:
320,192,70619,1,0,0:0:0:0:
448,192,70704,1,0,0:0:0:0:
64,192,70790,1,0,0:0:0:0:
320,192,70790,1,0,0:0:0:0:
192,192,70876,1,0,0:0:0:0:
448,192,70962,1,0,0:0:0:0:
320,192,71047,1,0,0:0:0:0:
192,192,71133,1,0,0:0:0:0:
448,192,71133,1,0,0:0:0:0:
320,192,71304,1,0,0:0:0:0:
448,192,71390,1,0,0:0:0:0:
192,192,71476,1,0,0:0:0:0:
64,192,71476,1,0,0:0:0:0:
192,192,71647,1,0,0:0:0:0:
448,192,71647,1,0,0:0:0:0:
320,192,71819,5,0,0:0:0:0:
64,192,71819,1,0,0:0:0:0:
320,192,71990,1,0,0:0:0:0:
448,192,71990,1,0,0:0:0:0:
192,192,72162,1,0,0:0:0:0:
64,192,72162,1,0,0:0:0:0:
192,192,72333,1,0,0:0:0:0:
448,192,72333,1,0,0:0:0:0:
320,192,72504,1,0,0:0:0:0:
64,192,72504,1,0,0:0:0:0:
320,192,72676,1,0,0:0:0:0:
448,192,72676,1,0,0:0:0:0:
192,192,72847,5,0,0:0:0:0:
64,192,72847,1,0,0:0:0:0:
192,192,72933,1,0,0:0:0:0:
64,192,72933,1,0,0:0:0:0:
320,192,73019,1,0,0:0:0:0:
448,192,73019,1,0,0:0:0:0:
448,192,73104,1,0,0:0:0:0:
320,192,73104,1,0,0:0:0:0:
192,192,73190,1,0,0:0:0:0:
64,192,73190,1,0,0:0:0:0:
192,192,73276,1,0,0:0:0:0:
64,192,73276,1,0,0:0:0:0:
320,192,73362,1,0,0:0:0:0:
448,192,73362,1,0,0:0:0:0:
448,192,73447,1,0,0:0:0:0:
320,192,73447,1,0,0:0:0:0:
192,192,73533,1,0,0:0:0:0:
64,192,73533,1,0,0:0:0:0:
192,192,73619,1,0,0:0:0:0:
64,192,73619,1,0,0:0:0:0:
320,192,73704,1,0,0:0:0:0:
448,192,73704,1,0,0:0:0:0:
448,192,73790,1,0,0:0:0:0:
320,192,73790,1,0,0:0:0:0:
192,192,73876,1,0,0:0:0:0:
64,192,73876,1,0,0:0:0:0:
64,192,73962,1,0,0:0:0:0:
448,192,73962,1,0,0:0:0:0:
320,192,74047,1,0,0:0:0:0:
448,192,74047,1,0,0:0:0:0:
192,192,74133,1,0,0:0:0:0:
320,192,74133,1,0,0:0:0:0:
64,192,74219,1,0,0:0:0:0:
192,192,74219,1,0,0:0:0:0:
448,192,74219,1,0,0:0:0:0:
320,192,74390,1,0,0:0:0:0:
192,192,74754,1,0,0:0:0:0:
64,192,75304,1,0,0:0:0:0:
192,192,75590,1,0,0:0:0:0:
64,192,75590,1,0,0:0:0:0:
448,192,75590,1,0,0:0:0:0:
192,192,75676,1,0,0:0:0:0:
64,192,75676,1,0,0:0:0:0:
448,192,75762,1,0,0:0:0:0:
320,192,75847,1,0,0:0:0:0:
192,192,75933,1,0,0:0:0:0:
64,192,76019,1,0,0:0:0:0:
320,192,76104,1,0,0:0:0:0:
448,192,76104,1,0,0:0:0:0:
64,192,76190,1,0,0:0:0:0:
448,192,76190,1,0,0:0:0:0:
192,192,76276,1,0,0:0:0:0:
320,192,76276,1,0,0:0:0:0:
64,192,76362,1,0,0:0:0:0:
448,192,76362,1,0,0:0:0:0:
192,192,76447,1,0,0:0:0:0:
320,192,76447,1,0,0:0:0:0:
192,192,76533,1,0,0:0:0:0:
320,192,76533,1,0,0:0:0:0:
64,192,76619,1,0,0:0:0:0:
448,192,76619,1,0,0:0:0:0:
192,192,76619,1,0,0:0:0:0:
320,192,76790,128,0,76962:0:0:0:0:
448,192,76962,1,0,0:0:0:0:
192,192,76962,1,0,0:0:0:0:
64,192,76962,128,0,77133:0:0:0:0:
192,192,77133,1,0,0:0:0:0:
320,192,77219,1,0,0:0:0:0:
64,192,77304,1,0,0:0:0:0:
448,192,77304,1,0,0:0:0:0:
192,192,77304,1,0,0:0:0:0:
320,192,77476,1,0,0:0:0:0:
448,192,77562,1,0,0:0:0:0:
192,192,77647,1,0,0:0:0:0:
64,192,77733,1,0,0:0:0:0:
320,192,77819,1,0,0:0:0:0:
448,192,77819,1,0,0:0:0:0:
192,192,77904,1,0,0:0:0:0:
448,192,77990,1,0,0:0:0:0:
64,192,77990,1,0,0:0:0:0:
320,192,77990,128,0,78076:0:0:0:0:
192,192,78162,128,0,78247:0:0:0:0:
448,192,78162,1,0,0:0:0:0:
320,192,78247,1,0,0:0:0:0:
64,192,78333,128,0,78504:0:0:0:0:
192,192,78333,1,0,0:0:0:0:
320,192,78504,1,0,0:0:0:0:
192,192,78590,1,0,0:0:0:0:
64,192,78676,1,0,0:0:0:0:
448,192,78676,1,0,0:0:0:0:
320,192,78676,1,0,0:0:0:0:
320,192,78847,1,0,0:0:0:0:
192,192,78933,1,0,0:0:0:0:
64,192,79019,1,0,0:0:0:0:
448,192,79019,128,0,79190:0:0:0:0:
320,192,79104,1,0,0:0:0:0:
192,192,79190,1,0,0:0:0:0:
64,192,79190,1,0,0:0:0:0:
320,192,79276,1,0,0:0:0:0:
448,192,79362,1,0,0:0:0:0:
64,192,79362,1,0,0:0:0:0:
192,192,79362,1,0,0:0:0:0:
320,192,79533,1,0,0:0:0:0:
64,192,79619,1,0,0:0:0:0:
448,192,79704,1,0,0:0:0:0:
192,192,79704,128,0,79876:0:0:0:0:
320,192,79876,1,0,0:0:0:0:
192,192,79962,1,0,0:0:0:0:
64,192,80047,1,0,0:0:0:0:
320,192,80047,1,0,0:0:0:0:
448,192,80047,1,0,0:0:0:0:
192,192,80219,1,0,0:0:0:0:
448,192,80219,128,0,80390:0:0:0:0:
320,192,80304,1,0,0:0:0:0:
192,192,80390,1,0,0:0:0:0:
448,192,80476,1,0,0:0:0:0:
64,192,80562,1,0,0:0:0:0:
320,192,80562,1,0,0:0:0:0:
192,192,80647,1,0,0:0:0:0:
64,192,80733,1,0,0:0:0:0:
320,192,80733,1,0,0:0:0:0:
448,192,80733,128,0,80904:0:0:0:0:
192,192,80904,1,0,0:0:0:0:
448,192,80990,1,0,0:0:0:0:
64,192,81076,1,0,0:0:0:0:
320,192,81076,1,0,0:0:0:0:
192,192,81247,1,0,0:0:0:0:
320,192,81333,1,0,0:0:0:0:
64,192,81419,1,0,0:0:0:0:
448,192,81419,1,0,0:0:0:0:
192,192,81419,1,0,0:0:0:0:
320,192,81590,1,0,0:0:0:0:
192,192,81676,1,0,0:0:0:0:
448,192,81762,1,0,0:0:0:0:
320,192,81762,128,0,81847:0:0:0:0:
64,192,81847,1,0,0:0:0:0:
192,192,81933,1,0,0:0:0:0:
448,192,81933,128,0,82019:0:0:0:0:
320,192,82019,1,0,0:0:0:0:
448,192,82104,1,0,0:0:0:0:
64,192,82104,1,0,0:0:0:0:
192,192,82104,128,0,82190:0:0:0:0:
320,192,82276,1,0,0:0:0:0:
64,192,82276,128,0,82362:0:0:0:0:
192,192,82362,1,0,0:0:0:0:
64,192,82447,1,0,0:0:0:0:
448,192,82447,128,0,82619:0:0:0:0:
320,192,82619,1,0,0:0:0:0:
192,192,82704,1,0,0:0:0:0:
64,192,82790,1,0,0:0:0:0:
448,192,82790,1,0,0:0:0:0:
320,192,82790,1,0,0:0:0:0:
192,192,82962,1,0,0:0:0:0:
320,192,83047,1,0,0:0:0:0:
64,192,83133,1,0,0:0:0:0:
192,192,83219,1,0,0:0:0:0:
64,192,83304,1,0,0:0:0:0:
448,192,83304,1,0,0:0:0:0:
320,192,83390,1,0,0:0:0:0:
192,192,83476,1,0,0:0:0:0:
64,192,83476,1,0,0:0:0:0:
448,192,83476,128,0,83562:0:0:0:0:
448,192,83647,1,0,0:0:0:0:
320,192,83647,128,0,83733:0:0:0:0:
192,192,83733,1,0,0:0:0:0:
448,192,83819,1,0,0:0:0:0:
320,192,83819,1,0,0:0:0:0:
64,192,83819,128,0,83990:0:0:0:0:
192,192,83990,1,0,0:0:0:0:
320,192,84076,1,0,0:0:0:0:
448,192,84162,1,0,0:0:0:0:
64,192,84162,1,0,0:0:0:0:
192,192,84333,1,0,0:0:0:0:
320,192,84333,128,0,84504:0:0:0:0:
64,192,84419,1,0,0:0:0:0:
448,192,84504,1,0,0:0:0:0:
320,192,84590,1,0,0:0:0:0:
448,192,84676,1,0,0:0:0:0:
64,192,84676,1,0,0:0:0:0:
192,192,84762,1,0,0:0:0:0:
64,192,84847,1,0,0:0:0:0:
320,192,84847,1,0,0:0:0:0:
448,192,84847,128,0,85019:0:0:0:0:
320,192,85019,1,0,0:0:0:0:
64,192,85104,1,0,0:0:0:0:
192,192,85190,1,0,0:0:0:0:
448,192,85190,128,0,85362:0:0:0:0:
320,192,85362,1,0,0:0:0:0:
192,192,85447,1,0,0:0:0:0:
64,192,85533,1,0,0:0:0:0:
320,192,85533,1,0,0:0:0:0:
448,192,85533,1,0,0:0:0:0:
192,192,85704,1,0,0:0:0:0:
64,192,85704,128,0,85876:0:0:0:0:
320,192,85790,1,0,0:0:0:0:
192,192,85876,1,0,0:0:0:0:
448,192,85962,1,0,0:0:0:0:
64,192,86047,1,0,0:0:0:0:
320,192,86047,1,0,0:0:0:0:
192,192,86133,1,0,0:0:0:0:
64,192,86219,1,0,0:0:0:0:
320,192,86219,1,0,0:0:0:0:
448,192,86219,128,0,86390:0:0:0:0:
192,192,86390,1,0,0:0:0:0:
448,192,86476,1,0,0:0:0:0:
64,192,86562,1,0,0:0:0:0:
320,192,86562,1,0,0:0:0:0:
192,192,86733,1,0,0:0:0:0:
320,192,86819,1,0,0:0:0:0:
64,192,86904,1,0,0:0:0:0:
448,192,86904,1,0,0:0:0:0:
192,192,86904,1,0,0:0:0:0:
320,192,87076,1,0,0:0:0:0:
448,192,87162,1,0,0:0:0:0:
320,192,87247,128,0,87333:0:0:0:0:
192,192,87247,1,0,0:0:0:0:
64,192,87333,1,0,0:0:0:0:
192,192,87419,1,0,0:0:0:0:
448,192,87419,128,0,87504:0:0:0:0:
320,192,87504,1,0,0:0:0:0:
192,192,87590,1,0,0:0:0:0:
64,192,87590,128,0,87676:0:0:0:0:
448,192,87590,1,0,0:0:0:0:
320,192,87762,1,0,0:0:0:0:
192,192,87762,128,0,87847:0:0:0:0:
64,192,87847,1,0,0:0:0:0:
320,192,87933,1,0,0:0:0:0:
448,192,87933,128,0,88104:0:0:0:0:
192,192,88104,1,0,0:0:0:0:
64,192,88190,1,0,0:0:0:0:
448,192,88276,1,0,0:0:0:0:
192,192,88276,1,0,0:0:0:0:
320,192,88276,1,0,0:0:0:0:
64,192,88447,1,0,0:0:0:0:
192,192,88533,1,0,0:0:0:0:
448,192,88619,1,0,0:0:0:0:
320,192,88704,1,0,0:0:0:0:
192,192,88790,1,0,0:0:0:0:
64,192,88790,1,0,0:0:0:0:
448,192,88876,1,0,0:0:0:0:
192,192,88962,1,0,0:0:0:0:
64,192,88962,1,0,0:0:0:0:
320,192,88962,1,0,0:0:0:0:
320,192,89133,1,0,0:0:0:0:
448,192,89133,128,0,89219:0:0:0:0:
192,192,89219,1,0,0:0:0:0:
64,192,89219,128,0,89304:0:0:0:0:
320,192,89304,1,0,0:0:0:0:
448,192,89304,128,0,89476:0:0:0:0:
192,192,89476,1,0,0:0:0:0:
64,192,89562,1,0,0:0:0:0:
320,192,89647,1,0,0:0:0:0:
448,192,89647,1,0,0:0:0:0:
192,192,89647,1,0,0:0:0:0:
320,192,89819,128,0,89990:0:0:0:0:
448,192,89819,1,0,0:0:0:0:
192,192,89904,1,0,0:0:0:0:
64,192,89990,1,0,0:0:0:0:
192,192,90076,1,0,0:0:0:0:
320,192,90162,1,0,0:0:0:0:
448,192,90162,1,0,0:0:0:0:
64,192,90247,1,0,0:0:0:0:
320,192,90333,1,0,0:0:0:0:
192,192,90333,1,0,0:0:0:0:
448,192,90333,128,0,90504:0:0:0:0:
64,192,90504,1,0,0:0:0:0:
192,192,90590,1,0,0:0:0:0:
320,192,90676,1,0,0:0:0:0:
64,192,90676,128,0,90847:0:0:0:0:
192,192,90847,1,0,0:0:0:0:
448,192,90933,1,0,0:0:0:0:
64,192,91019,1,0,0:0:0:0:
320,192,91019,1,0,0:0:0:0:
192,192,91019,1,0,0:0:0:0:
448,192,91190,1,0,0:0:0:0:
320,192,91276,1,0,0:0:0:0:
448,192,91362,1,0,0:0:0:0:
192,192,91447,1,0,0:0:0:0:
64,192,91533,1,0,0:0:0:0:
320,192,91533,1,0,0:0:0:0:
448,192,91619,1,0,0:0:0:0:
64,192,91704,1,0,0:0:0:0:
320,192,91704,1,0,0:0:0:0:
192,192,91704,1,0,0:0:0:0:
448,192,91876,1,0,0:0:0:0:
192,192,91876,128,0,91962:0:0:0:0:
320,192,91962,1,0,0:0:0:0:
64,192,91962,128,0,92047:0:0:0:0:
192,192,92047,1,0,0:0:0:0:
448,192,92047,128,0,92219:0:0:0:0:
320,192,92219,1,0,0:0:0:0:
64,192,92304,1,0,0:0:0:0:
320,192,92390,1,0,0:0:0:0:
192,192,92390,1,0,0:0:0:0:
448,192,92390,1,0,0:0:0:0:
64,192,92562,1,0,0:0:0:0:
320,192,92562,128,0,92733:0:0:0:0:
192,192,92647,1,0,0:0:0:0:
64,192,92733,1,0,0:0:0:0:
320,192,92819,1,0,0:0:0:0:
192,192,92904,1,0,0:0:0:0:
448,192,92904,1,0,0:0:0:0:
64,192,92990,1,0,0:0:0:0:
448,192,93076,1,0,0:0:0:0:
320,192,93076,1,0,0:0:0:0:
192,192,93076,128,0,93247:0:0:0:0:
320,192,93247,1,0,0:0:0:0:
192,192,93333,1,0,0:0:0:0:
64,192,93419,128,0,93590:0:0:0:0:
448,192,93419,1,0,0:0:0:0:
192,192,93590,1,0,0:0:0:0:
448,192,93676,1,0,0:0:0:0:
64,192,93762,1,0,0:0:0:0:
192,192,93762,1,0,0:0:0:0:
320,192,93762,1,0,0:0:0:0:
448,192,93933,1,0,0:0:0:0:
320,192,93933,128,0,94104:0:0:0:0:
192,192,94019,1,0,0:0:0:0:
64,192,94104,1,0,0:0:0:0:
448,192,94190,1,0,0:0:0:0:
192,192,94276,1,0,0:0:0:0:
320,192,94276,1,0,0:0:0:0:
64,192,94362,1,0,0:0:0:0:
320,192,94447,1,0,0:0:0:0:
192,192,94447,1,0,0:0:0:0:
448,192,94447,128,0,94619:0:0:0:0:
192,192,94619,1,0,0:0:0:0:
320,192,94704,1,0,0:0:0:0:
64,192,94790,1,0,0:0:0:0:
448,192,94790,1,0,0:0:0:0:
320,192,94962,1,0,0:0:0:0:
64,192,95047,1,0,0:0:0:0:
448,192,95133,1,0,0:0:0:0:
192,192,95133,1,0,0:0:0:0:
320,192,95133,1,0,0:0:0:0:
192,192,95304,1,0,0:0:0:0:
320,192,95390,1,0,0:0:0:0:
448,192,95476,1,0,0:0:0:0:
64,192,95562,1,0,0:0:0:0:
192,192,95647,1,0,0:0:0:0:
320,192,95647,1,0,0:0:0:0:
448,192,95733,1,0,0:0:0:0:
64,192,95819,1,0,0:0:0:0:
320,192,95819,1,0,0:0:0:0:
192,192,95819,1,0,0:0:0:0:
448,192,95990,1,0,0:0:0:0:
320,192,96076,1,0,0:0:0:0:
448,192,96162,1,0,0:0:0:0:
192,192,96162,1,0,0:0:0:0:
320,192,96333,1,0,0:0:0:0:
64,192,96419,1,0,0:0:0:0:
448,192,96504,1,0,0:0:0:0:
192,192,96504,1,0,0:0:0:0:
320,192,96504,1,0,0:0:0:0:
64,192,96676,1,0,0:0:0:0:
192,192,96762,1,0,0:0:0:0:
64,192,96847,1,0,0:0:0:0:
320,192,96933,1,0,0:0:0:0:
448,192,97019,1,0,0:0:0:0:
192,192,97019,1,0,0:0:0:0:
64,192,97104,1,0,0:0:0:0:
192,192,97190,1,0,0:0:0:0:
320,192,97190,1,0,0:0:0:0:
448,192,97190,128,0,97276:0:0:0:0:
320,192,97362,1,0,0:0:0:0:
64,192,97362,128,0,97447:0:0:0:0:
192,192,97447,1,0,0:0:0:0:
448,192,97533,128,0,97704:0:0:0:0:
320,192,97533,1,0,0:0:0:0:
64,192,97704,1,0,0:0:0:0:
192,192,97704,1,0,0:0:0:0:
320,192,97790,1,0,0:0:0:0:
192,192,97876,1,0,0:0:0:0:
448,192,97876,1,0,0:0:0:0:
64,192,97876,1,0,0:0:0:0:
192,192,98047,1,0,0:0:0:0:
320,192,98047,1,0,0:0:0:0:
192,192,98390,1,0,0:0:0:0:
64,192,98390,1,0,0:0:0:0:
448,192,98476,1,0,0:0:0:0:
320,192,98476,1,0,0:0:0:0:
192,192,98562,1,0,0:0:0:0:
64,192,98562,1,0,0:0:0:0:
64,192,98647,1,0,0:0:0:0:
448,192,98647,1,0,0:0:0:0:
320,192,98733,1,0,0:0:0:0:
448,192,98733,1,0,0:0:0:0:
192,192,98819,1,0,0:0:0:0:
320,192,98819,1,0,0:0:0:0:
448,192,98904,1,0,0:0:0:0:
64,192,98904,128,0,99762:0:0:0:0:
192,192,98904,128,0,99076:0:0:0:0:
320,192,99076,1,0,0:0:0:0:
192,192,99247,1,0,0:0:0:0:
448,192,99419,1,0,0:0:0:0:
192,192,99590,1,0,0:0:0:0:
320,192,99762,1,0,0:0:0:0:
64,192,99933,1,0,0:0:0:0:
448,192,100104,1,0,0:0:0:0:
64,192,100276,1,0,0:0:0:0:
320,192,100447,1,0,0:0:0:0:
64,192,100619,1,0,0:0:0:0:
192,192,100790,1,0,0:0:0:0:
64,192,100962,1,0,0:0:0:0:
320,192,101133,1,0,0:0:0:0:
192,192,101304,1,0,0:0:0:0:
320,192,101476,1,0,0:0:0:0:
192,192,101562,1,0,0:0:0:0:
448,192,101647,1,0,0:0:0:0:
64,192,101819,1,0,0:0:0:0:
192,192,101990,1,0,0:0:0:0:
320,192,102162,1,0,0:0:0:0:
448,192,102333,1,0,0:0:0:0:
320,192,102504,1,0,0:0:0:0:
64,192,102676,1,0,0:0:0:0:
448,192,102847,1,0,0:0:0:0:
64,192,103019,1,0,0:0:0:0:
320,192,103190,1,0,0:0:0:0:
64,192,103362,1,0,0:0:0:0:
192,192,103533,1,0,0:0:0:0:
64,192,103704,1,0,0:0:0:0:
448,192,103876,1,0,0:0:0:0:
320,192,104047,1,0,0:0:0:0:
448,192,104219,1,0,0:0:0:0:
192,192,104390,128,0,104433:0:0:0:0:
64,192,104390,128,0,104433:0:0:0:0:
448,192,104562,1,0,0:0:0:0:
64,192,104733,1,0,0:0:0:0:
192,192,104904,1,0,0:0:0:0:
320,192,105076,1,0,0:0:0:0:
448,192,105247,1,0,0:0:0:0:
64,192,105419,1,0,0:0:0:0:
448,192,105590,1,0,0:0:0:0:
64,192,105762,1,0,0:0:0:0:
320,192,105933,1,0,0:0:0:0:
64,192,106104,1,0,0:0:0:0:
192,192,106276,1,0,0:0:0:0:
64,192,106447,1,0,0:0:0:0:
320,192,106619,1,0,0:0:0:0:
192,192,106790,1,0,0:0:0:0:
320,192,106962,1,0,0:0:0:0:
448,192,107133,1,0,0:0:0:0:
64,192,107304,1,0,0:0:0:0:
192,192,107476,1,0,0:0:0:0:
320,192,107647,1,0,0:0:0:0:
448,192,107819,1,0,0:0:0:0:
64,192,107904,1,0,0:0:0:0:
320,192,107990,1,0,0:0:0:0:
64,192,108162,1,0,0:0:0:0:
192,192,108219,1,0,0:0:0:0:
320,192,108276,1,0,0:0:0:0:
448,192,108333,1,0,0:0:0:0:
64,192,108504,1,0,0:0:0:0:
320,192,108676,1,0,0:0:0:0:
192,192,108762,1,0,0:0:0:0:
64,192,108847,1,0,0:0:0:0:
192,192,109019,1,0,0:0:0:0:
448,192,109040,1,0,0:0:0:0:
320,192,109104,1,0,0:0:0:0:
64,192,109190,128,0,109876:0:0:0:0:
448,192,109190,1,0,0:0:0:0:
320,192,109362,1,0,0:0:0:0:
192,192,109383,1,0,0:0:0:0:
448,192,109533,128,0,109876:0:0:0:0:
320,192,109704,1,0,0:0:0:0:
