osu file format v14

[General]
AudioFilename: audio.mp3
AudioLeadIn: 0
PreviewTime: 75508
Countdown: 0
SampleSet: None
StackLeniency: 0.3
Mode: 0
LetterboxInBreaks: 0
WidescreenStoryboard: 1

[Editor]
Bookmarks: 11051,22022,32994,52194,54937,65908,76880,98822
DistanceSpacing: 1
BeatDivisor: 4
GridSize: 32
TimelineZoom: 3.699997

[Metadata]
Title:Adamantite
TitleUnicode:Adamantite
Artist:Street vs Sin:cK
ArtistUnicode:Street vs Sin:cK
Creator:Nidoking
Version:Mineral
Source:
Tags:dubstep drumstep drum and bass dnb artcore
BeatmapID:1688626
BeatmapSetID:804421

[Difficulty]
HPDrainRate:3
CircleSize:3.6
OverallDifficulty:7
ApproachRate:9.4
SliderMultiplier:2.8
SliderTickRate:1

[Events]
//Background and Video events
0,0,"BG.jpg",0,0
//Break Periods
2,55137,65368
//Storyboard Layer 0 (Background)
//Storyboard Layer 1 (Fail)
//Storyboard Layer 2 (Pass)
//Storyboard Layer 3 (Foreground)
//Storyboard Sound Samples

[TimingPoints]
80,342.857142857143,4,2,1,80,1,0
11051,-133.333333333333,4,2,1,80,0,0
11394,-200,4,2,1,80,0,0
16537,-133.333333333333,4,2,1,80,0,0
16880,-200,4,2,1,80,0,0
21165,-142.857142857143,4,2,1,80,0,0
21337,-76.923076923077,4,2,1,80,0,0
21508,-83.3333333333333,4,2,1,80,0,0
21680,-166.666666666667,4,2,1,80,0,0
22022,-125,4,2,1,80,0,0
22365,-90.9090909090909,4,2,1,80,0,0
22708,-125,4,2,1,80,0,0
23051,-90.9090909090909,4,2,1,80,0,0
23394,-142.857142857143,4,2,1,80,0,0
23737,-83.3333333333333,4,2,1,80,0,0
24080,-142.857142857143,4,2,1,80,0,0
24422,-83.3333333333333,4,2,1,80,0,0
24765,-166.666666666667,4,2,1,80,0,0
25108,-76.9230769230769,4,2,1,80,0,0
25451,-166.666666666667,4,2,1,80,0,0
25794,-76.9230769230769,4,2,1,80,0,0
26137,-166.666666666667,4,2,1,80,0,0
26480,-76.9230769230769,4,2,1,80,0,0
26822,-166.666666666667,4,2,1,80,0,0
27165,-76.9230769230769,4,2,1,80,0,0
28880,-100,4,2,1,80,0,0
31622,-90.9090909090909,4,2,1,80,0,0
32308,-142.857142857143,4,2,1,80,0,0
32694,-142.857142857143,4,2,1,5,0,0
32994,-111.111111111111,4,2,1,80,0,1
33680,-71.4285714285714,4,2,1,80,0,1
34022,-125,4,2,1,80,0,1
34365,-83.3333333333333,4,2,1,80,0,1
34880,-111.111111111111,4,2,1,80,0,1
35737,-125,4,2,1,80,0,1
36422,-71.4285714285714,4,2,1,80,0,1
36765,-90.9090909090909,4,2,1,80,0,1
37108,-125,4,2,1,80,0,1
37451,-62.5,4,2,1,80,0,1
37622,-125,4,2,1,80,0,1
38822,-83.3333333333333,4,2,1,80,0,1
39165,-100,4,2,1,80,0,1
40537,-71.4285714285714,4,2,1,80,0,1
40880,-111.111111111111,4,2,1,80,0,1
41222,-83.3333333333333,4,2,1,80,0,1
41908,-62.5,4,2,1,80,0,1
42422,-111.111111111111,4,2,1,80,0,1
42594,-142.857142857143,4,2,1,80,0,1
43108,-90.909090909091,4,2,1,80,0,1
43280,-71.4285714285714,4,2,1,80,0,1
43965,-111.111111111111,4,2,1,80,0,1
44651,-90.9090909090908,4,2,1,80,0,1
44994,-111.111111111111,4,2,1,80,0,1
45337,-71.4285714285714,4,2,1,80,0,1
45765,-90.9090909090909,4,2,1,80,0,1
46022,-66.6666666666667,4,2,1,80,0,1
46365,-100,4,2,1,80,0,1
46708,-66.6666666666667,4,2,1,80,0,1
47394,-83.3333333333333,4,2,1,80,0,1
48080,-125,4,2,1,80,0,1
48594,-90.9090909090909,4,2,1,80,0,1
49451,-125,4,2,1,80,0,1
50137,-90.9090909090909,4,2,1,80,0,1
50480,-66.6666666666667,4,2,1,80,0,1
51508,-83.3333333333333,4,2,1,80,0,1
51680,-100,4,2,1,80,0,1
51851,-83.3333333333333,4,2,1,80,0,1
52194,-83.3333333333333,4,2,1,80,0,0
65908,-142.857142857143,4,2,1,80,0,0
72765,-100,4,2,1,80,0,0
75508,-142.857142857143,4,2,1,80,0,0
76880,-90.9090909090909,4,2,1,80,0,1
77222,-76.9230769230769,4,2,1,80,0,1
77737,-90.9090909090909,4,2,1,80,0,1
77908,-66.6666666666667,4,2,1,80,0,1
78251,-83.3333333333333,4,2,1,80,0,1
78594,-66.6666666666667,4,2,1,80,0,1
79280,-90.9090909090909,4,2,1,80,0,1
79622,-90.9090909090909,4,2,1,80,0,1
79965,-71.4285714285714,4,2,1,80,0,1
80222,-83.3333333333333,4,2,1,80,0,1
80480,-90.9090909090909,4,2,1,80,0,1
80651,-71.4285714285714,4,2,1,80,0,1
80994,-111.111111111111,4,2,1,80,0,1
82365,-76.9230769230769,4,2,1,80,0,1
82708,-111.111111111111,4,2,1,80,0,1
82965,-71.4285714285714,4,2,1,80,0,1
83222,-90.9090909090909,4,2,1,80,0,1
83394,-142.857142857143,4,2,1,80,0,1
83737,-83.3333333333333,4,2,1,80,0,1
84080,-66.6666666666667,4,2,1,80,0,1
84765,-71.4285714285714,4,2,1,80,0,1
85108,-125,4,2,1,80,0,1
85451,-76.9230769230769,4,2,1,80,0,1
85965,-111.111111111111,4,2,1,80,0,1
86137,-71.4285714285714,4,2,1,80,0,1
86480,-111.111111111111,4,2,1,80,0,1
87851,-83.3333333333333,4,2,1,80,0,1
88194,-90.9090909090908,4,2,1,80,0,1
88537,-100,4,2,1,80,0,1
88880,-83.3333333333333,4,2,1,80,0,1
89222,-90.9090909090909,4,2,1,80,0,1
89565,-62.5,4,2,1,80,0,1
89908,-83.3333333333333,4,2,1,80,0,1
90251,-66.6666666666667,4,2,1,80,0,1
90594,-71.4285714285714,4,2,1,80,0,1
90937,-83.3333333333333,4,2,1,80,0,1
91622,-62.5,4,2,1,80,0,1
91965,-71.4285714285714,4,2,1,80,0,1
92222,-83.3333333333333,4,2,1,80,0,1
92994,-58.8235294117647,4,2,1,80,0,1
93337,-76.9230769230769,4,2,1,80,0,1
93680,-71.4285714285714,4,2,1,80,0,1
93937,-83.3333333333333,4,2,1,80,0,1
94194,-83.3333333333333,4,2,1,80,0,1
94365,-62.5,4,2,1,80,0,1
94708,-90.9090909090909,4,2,1,80,0,1
95051,-62.5,4,2,1,80,0,1
95308,-76.9230769230769,4,2,1,80,0,1
95565,-90.9090909090909,4,2,1,80,0,1
95737,-62.5,4,2,1,80,0,1
96080,-83.3333333333333,4,2,1,80,0,1
96422,-66.6666666666667,4,2,1,80,0,1
96680,-71.4285714285714,4,2,1,80,0,1
96937,-62.5,4,2,1,80,0,1
97108,-55.5555555555556,4,2,1,80,0,1
97451,-90.9090909090909,4,2,1,80,0,1
98308,-125,4,2,1,80,0,1
98822,-125,4,2,1,80,0,0
101565,-200,4,2,1,80,0,0

[Colours]
Combo1 : 240,240,240
Combo2 : 148,148,148
Combo3 : 212,212,212
Combo4 : 192,192,192

[HitObjects]
222,289,11051,6,0,P|267:293|336:269,1,105,2|0,0:0|0:0,0:0:0:0:
257,169,11394,2,0,L|249:118,4,35,2|0|2|0|0,0:0|0:0|0:0|0:0|0:0,0:0:0:0:
259,186,11822,1,0,0:0:0:0:
261,203,11908,1,2,0:0:0:0:
127,308,12080,1,0,0:0:0:0:
127,308,12251,2,0,L|143:216,1,70,2|0,0:0|0:0,0:0:0:0:
35,179,12594,1,2,0:0:0:0:
35,179,12680,1,0,0:0:0:0:
35,179,12765,2,0,L|45:239,2,35,0|0|2,0:0|0:0|0:0,0:0:0:0:
153,71,13108,1,0,0:0:0:0:
153,71,13280,2,0,B|120:61|120:61|69:78,1,70,2|0,0:0|0:0,0:0:0:0:
284,104,13622,2,0,B|317:114|317:114|368:97,1,70,2|2,0:0|0:0,0:0:0:0:
450,42,13965,6,0,L|442:103,2,35,0|0|2,0:0|0:0|0:0,0:0:0:0:
366,257,14308,1,2,0:0:0:0:
364,240,14394,1,0,0:0:0:0:
362,223,14480,2,0,L|357:188,4,35,0|0|2|0|0,0:0|0:0|0:0|0:0|0:0,0:0:0:0:
269,331,14994,2,0,L|257:253,1,70,2|0,0:0|0:0,0:0:0:0:
463,173,15337,2,0,L|451:95,1,70,2|0,0:0|0:0,0:0:0:0:
203,100,15680,2,0,L|214:22,1,70,2|0,0:0|0:0,0:0:0:0:
251,233,16022,1,2,0:0:0:0:
124,212,16194,1,2,0:0:0:0:
106,209,16280,1,0,0:0:0:0:
88,206,16365,1,2,0:0:0:0:
222,85,16537,6,0,P|267:81|336:105,1,105,2|0,0:0|0:0,0:0:0:0:
257,205,16880,2,0,L|249:256,4,35,2|0|2|0|0,0:0|0:0|0:0|0:0|0:0,0:0:0:0:
259,188,17308,1,0,0:0:0:0:
261,171,17394,1,2,0:0:0:0:
127,66,17565,1,0,0:0:0:0:
127,66,17737,2,0,L|143:158,1,70,2|0,0:0|0:0,0:0:0:0:
35,195,18080,1,2,0:0:0:0:
35,195,18165,1,0,0:0:0:0:
35,195,18251,2,0,L|45:135,2,35,0|0|2,0:0|0:0|0:0,0:0:0:0:
153,303,18594,1,0,0:0:0:0:
153,303,18765,2,0,B|120:313|120:313|69:296,1,70,2|0,0:0|0:0,0:0:0:0:
284,270,19108,2,0,B|317:260|317:260|368:277,1,70,2|2,0:0|0:0,0:0:0:0:
450,332,19451,6,0,L|442:271,2,35,0|0|2,0:0|0:0|0:0,0:0:0:0:
366,117,19794,1,2,0:0:0:0:
364,134,19880,1,0,0:0:0:0:
362,151,19965,2,0,L|357:186,4,35,0|0|2|0|0,0:0|0:0|0:0|0:0|0:0,0:0:0:0:
269,43,20480,2,0,L|257:120,1,70,2|0,0:0|0:0,0:0:0:0:
463,201,20822,2,0,L|451:278,1,70,2|0,0:0|0:0,0:0:0:0:
203,274,21165,2,4,L|214:351,1,48.9999985046387,4|0,0:0|0:0,0:0:0:0:
236,122,21337,2,0,B|199:117|171:131|171:131|128:125|93:154,1,136.499993751526,8|0,0:0|0:0,0:0:0:0:
146,232,21508,2,0,P|191:231|232:215,1,83.9999974365235,4|0,0:0|0:0,0:0:0:0:
323,197,21680,2,0,L|350:194,6,20.9999993591309,8|0|0|0|0|0|0,0:0|0:0|0:0|0:0|0:0|0:0|0:0,0:0:0:0:
394,252,22022,6,0,P|388:192|447:145,1,112,4|0,0:0|0:0,0:0:0:0:
435,351,22365,2,0,L|258:328,1,154.000004699707,4|0,0:0|0:0,0:0:0:0:
212,263,22708,6,0,B|180:312|180:312|196:384,1,112,4|0,0:0|0:0,0:0:0:0:
282,166,23051,2,0,B|180:124|180:124|187:137|187:181,1,154.000004699707,4|0,0:0|0:0,0:0:0:0:
75,265,23394,6,0,P|71:216|99:168,1,97.9999970092774,4|0,0:0|0:0,0:0:0:0:
0,57,23737,2,0,B|46:79|46:79|155:39,1,167.999994873047,4|0,0:0|0:0,0:0:0:0:
285,58,24080,6,0,P|244:84|224:128,1,97.9999970092774,4|0,0:0|0:0,0:0:0:0:
334,142,24422,2,0,L|502:155,1,167.999994873047,4|0,0:0|0:0,0:0:0:0:
270,229,24765,6,0,L|283:337,1,83.9999974365235,4|0,0:0|0:0,0:0:0:0:
447,212,25108,2,0,B|464:171|464:171|445:81|445:81|386:44,1,181.999991668702,4|0,0:0|0:0,0:0:0:0:
269,139,25451,6,0,L|361:152,1,83.9999974365235,4|0,0:0|0:0,0:0:0:0:
297,46,25794,2,0,B|245:4|189:10|189:10|175:41|180:75,1,181.999991668702,4|0,0:0|0:0,0:0:0:0:
56,169,26137,6,0,L|71:65,1,83.9999974365235,4|0,0:0|0:0,0:0:0:0:
153,175,26480,2,0,B|188:261|188:261|147:365,1,181.999991668702,4|0,0:0|0:0,0:0:0:0:
0,261,26822,6,0,L|103:263,1,83.9999974365235,4|0,0:0|0:0,0:0:0:0:
397,162,27165,2,0,B|280:131|280:131|260:196,1,181.999991668702,4|0,0:0|0:0,0:0:0:0:
435,355,27508,5,4,0:0:0:0:
407,263,27680,1,4,0:0:0:0:
179,313,27851,1,4,0:0:0:0:
193,221,28022,1,4,0:0:0:0:
333,313,28194,1,4,0:0:0:0:
319,221,28365,1,4,0:0:0:0:
77,355,28537,1,4,0:0:0:0:
105,263,28708,1,4,0:0:0:0:
284,324,28880,5,4,0:0:0:0:
318,317,28965,1,4,0:0:0:0:
352,310,29051,1,4,0:0:0:0:
387,304,29137,1,4,0:0:0:0:
451,260,29222,2,4,L|436:181,1,70
308,112,29394,2,4,L|323:33,1,70
512,106,29565,5,4,0:0:0:0:
478,99,29651,1,4,0:0:0:0:
444,92,29737,1,4,0:0:0:0:
409,86,29822,1,4,0:0:0:0:
370,163,29908,2,0,L|291:178,1,70,8|0,0:0|0:0,0:0:0:0:
202,125,30080,2,0,L|123:110,1,70,8|0,0:0|0:0,0:0:0:0:
13,238,30251,1,0,0:0:0:0:
165,55,31622,6,8,L|222:115,1,77.0000023498536
312,215,31794,2,8,L|335:135,1,77.0000023498536
377,7,31965,2,0,L|296:26,1,77.0000023498536,8|0,0:0|0:0,0:0:0:0:
151,194,32137,1,8,0:0:0:0:
151,194,32222,1,8,0:0:0:0:
151,194,32308,2,0,L|84:186,1,48.9999985046387,8|0,0:0|0:0,0:0:0:0:
227,263,32480,1,4,0:0:0:0:
247,170,32565,1,4,0:0:0:0:
267,78,32651,2,0,L|272:48,1,24.4999992523194,8|0,0:0|0:0,0:0:0:0:
449,110,32994,6,0,B|494:172|460:229|460:229|470:257|470:257|464:284|464:322,1,188.999994232178,4|0,0:0|0:0,0:0:0:0:
388,344,33337,1,0,0:0:0:0:
350,339,33422,1,0,0:0:0:0:
312,334,33508,1,4,0:0:0:0:
275,329,33594,1,0,0:0:0:0:
166,330,33680,6,0,B|145:287|163:246|163:246|217:222|267:240|267:240|311:224|370:248,1,293.999991027832,8|0,0:0|0:0,0:0:0:0:
443,333,34022,2,0,L|372:346,1,56
312,334,34194,2,0,L|241:321,1,56,4|4,0:0|0:0,0:0:0:0:
43,194,34365,6,0,B|33:240|58:280|58:280|40:323|56:369,1,167.999994873047,4|0,0:0|0:0,0:0:0:0:
277,199,34622,2,0,B|266:181|237:160|237:160|165:161|120:231,1,167.999994873047,4|0,0:0|0:0,0:0:0:0:
360,258,34880,2,0,P|376:219|370:170,1,62.9999980773926,4|0,0:0|0:0,0:0:0:0:
216,273,35051,6,0,L|225:343,1,62.9999980773926,8|0,0:0|0:0,0:0:0:0:
58,126,35222,1,0,0:0:0:0:
86,135,35308,1,0,0:0:0:0:
141,106,35394,1,0,0:0:0:0:
169,115,35480,1,0,0:0:0:0:
224,86,35565,1,0,0:0:0:0:
252,95,35651,1,0,0:0:0:0:
298,159,35737,6,0,B|343:159|378:175|378:175|406:138|453:125,1,168,4|0,0:0|0:0,0:0:0:0:
310,40,36080,1,0,0:0:0:0:
337,36,36165,1,0,0:0:0:0:
365,32,36251,1,4,0:0:0:0:
393,28,36337,1,0,0:0:0:0:
310,40,36422,6,0,B|271:38|246:59|246:59|202:50|174:23|174:23|111:83|146:173,1,293.999991027832,8|0,0:0|0:0,0:0:0:0:
46,184,36765,2,0,P|34:140|38:89,1,77.0000023498536
313,145,36937,2,0,L|225:151,1,77.0000023498536
104,284,37108,6,0,B|143:248|143:248|291:244,1,168,4|0,0:0|0:0,0:0:0:0:
411,272,37451,2,0,B|372:241|372:241|224:245,1,112
306,152,37622,1,4,0:0:0:0:
391,146,37708,1,4,0:0:0:0:
477,141,37794,1,8,0:0:0:0:
216,103,37965,5,4,0:0:0:0:
131,97,38051,1,4,0:0:0:0:
45,92,38137,2,0,L|51:151,1,56,8|0,0:0|0:0,0:0:0:0:
170,285,38308,1,8,0:0:0:0:
175,323,38394,1,0,0:0:0:0:
187,361,38480,6,0,B|201:315|201:315|193:287|193:287|200:254|200:254|185:194,1,168,4|0,0:0|0:0,0:0:0:0:
101,186,38822,2,0,B|140:186|140:186|150:182|150:182|202:180,1,83.9999974365235
366,269,38994,2,0,B|327:269|327:269|317:265|317:265|265:263,1,83.9999974365235,4|0,0:0|0:0,0:0:0:0:
295,73,39165,6,0,B|326:60|344:37|344:37|301:239,1,210,8|0,0:0|0:0,0:0:0:0:
167,90,39508,2,0,L|88:86,1,70
161,101,39680,2,0,L|82:97,1,70
57,188,39851,5,4,0:0:0:0:
231,128,40022,1,0,0:0:0:0:
231,128,40108,1,4,0:0:0:0:
405,211,40280,1,0,0:0:0:0:
405,211,40365,1,4,0:0:0:0:
225,275,40537,6,0,B|183:285|147:265|147:265|122:287|122:287|74:263|26:283,1,195.999994018555,8|4,0:0|0:0,0:0:0:0:
121,168,40794,1,4,0:0:0:0:
212,172,40880,2,0,P|247:171|287:158,1,62.9999980773926,8|0,0:0|0:0,0:0:0:0:
490,272,41051,2,0,P|455:273|415:286,1,62.9999980773926,8|0,0:0|0:0,0:0:0:0:
346,373,41222,6,0,B|354:303|354:303|350:286|350:286|356:273|356:273|363:214|363:214|371:199|371:199|366:182|366:182|373:121,1,251.999992309571,4|0,0:0|0:0,0:0:0:0:
279,68,41565,1,0,0:0:0:0:
329,74,41651,1,0,0:0:0:0:
379,80,41737,1,4,0:0:0:0:
429,86,41822,1,0,0:0:0:0:
500,43,41908,6,0,B|422:44|422:44|252:75|252:75|106:74,1,336,8|0,0:0|0:0,0:0:0:0:
152,84,42251,1,0,0:0:0:0:
165,195,42337,1,0,0:0:0:0:
179,307,42422,2,0,L|109:293,1,62.9999980773926
39,329,42594,6,0,B|125:313|125:313|192:326|192:326|307:306,1,244.999992523194,4|0,0:0|0:0,0:0:0:0:
378,286,43108,2,0,L|366:377,1,77.0000023498536,4|4,0:0|0:0,0:0:0:0:
337,199,43280,6,0,B|440:177|440:177|485:215|478:263,1,195.999994018555,8|4,0:0|0:0,0:0:0:0:
211,252,43537,1,4,0:0:0:0:
209,244,43622,1,8,0:0:0:0:
158,184,43708,1,0,0:0:0:0:
81,188,43794,1,8,0:0:0:0:
36,252,43880,1,0,0:0:0:0:
123,332,43965,6,0,B|131:266|131:266|114:205|114:205|128:100,1,188.999994232178,4|0,0:0|0:0,0:0:0:0:
292,26,44308,1,0,0:0:0:0:
254,29,44394,1,0,0:0:0:0:
216,33,44480,1,4,0:0:0:0:
179,36,44565,1,0,0:0:0:0:
258,122,44651,6,0,B|321:114|321:114|412:50|412:50|505:42,1,231.000007049561,8|0,0:0|0:0,0:0:0:0:
504,145,44994,2,0,B|510:179|510:179|497:222,1,62.9999980773926
340,330,45165,2,0,B|331:302|331:302|337:268,1,62.9999980773926
436,173,45337,6,0,B|393:196|393:196|353:184|353:184|236:205,1,195.999994018555,4|0,0:0|0:0,0:0:0:0:
168,215,45594,1,4,0:0:0:0:
258,10,45765,2,0,B|270:47|270:47|258:109,1,77.0000023498536,4|4,0:0|0:0,0:0:0:0:
25,171,46022,6,0,B|140:142|111:206|247:161,1,210.000008010865,8|0,0:0|0:0,0:0:0:0:
338,131,46280,1,4,0:0:0:0:
168,89,46365,2,0,P|208:81|251:50,1,70,8|0,0:0|0:0,0:0:0:0:
340,217,46537,2,0,P|300:209|257:178,1,70,8|0,0:0|0:0,0:0:0:0:
87,342,46708,6,0,B|66:292|66:292|146:230|146:230|233:280|233:280|216:352,1,315.000012016297,4|0,0:0|0:0,0:0:0:0:
313,336,47051,1,0,0:0:0:0:
319,303,47137,1,0,0:0:0:0:
338,209,47222,1,4,0:0:0:0:
344,176,47308,1,0,0:0:0:0:
411,72,47394,6,0,B|445:69|472:33|472:33|436:223,1,251.999992309571,8|0,0:0|0:0,0:0:0:0:
339,278,47737,1,0,0:0:0:0:
275,260,47822,1,0,0:0:0:0:
212,242,47908,1,0,0:0:0:0:
149,224,47994,1,0,0:0:0:0:
85,206,48080,6,0,B|74:143|74:143|154:74,1,168,4|0,0:0|0:0,0:0:0:0:
163,68,48422,1,0,0:0:0:0:
406,209,48594,2,0,L|309:182,1,77.0000023498536,4|4,0:0|0:0,0:0:0:0:
228,159,48765,1,8,0:0:0:0:
189,330,48937,1,4,0:0:0:0:
189,330,49022,1,4,0:0:0:0:
189,330,49108,1,8,0:0:0:0:
233,350,49194,1,0,0:0:0:0:
279,335,49280,1,8,0:0:0:0:
303,293,49365,1,0,0:0:0:0:
293,245,49451,6,0,B|323:179|286:124|286:124|259:145|262:184,1,168,4|0,0:0|0:0,0:0:0:0:
137,202,49794,2,0,L|222:195,1,56
348,249,49965,2,0,L|263:242,1,56,4|0,0:0|0:0,0:0:0:0:
44,149,50137,2,0,B|7:225|65:282|65:282|50:314|50:314|71:334|59:371,1,231.000007049561,8|0,0:0|0:0,0:0:0:0:
199,350,50480,2,0,P|166:320|214:329,1,105.000004005432
383,284,50651,2,0,P|415:254|367:263,1,105.000004005432
233,231,50822,5,4,0:0:0:0:
336,34,50994,1,0,0:0:0:0:
336,34,51080,1,4,0:0:0:0:
439,178,51251,1,0,0:0:0:0:
439,178,51337,1,4,0:0:0:0:
235,123,51508,6,0,L|135:105,1,83.9999974365235,8|0,0:0|0:0,0:0:0:0:
3,182,51680,2,0,L|103:164,1,70,4|4,0:0|0:0,0:0:0:0:
142,271,51851,2,0,B|171:237|171:237|167:185,1,83.9999974365235,8|0,0:0|0:0,0:0:0:0:
62,251,52022,2,0,L|6:262,4,41.9999987182618,8|0|0|0|0,0:0|0:0|0:0|0:0|0:0,0:0:0:0:
256,192,52280,12,0,54080,0:0:0:0:
260,92,54422,5,4,0:0:0:0:
366,112,54508,1,4,0:0:0:0:
472,132,54594,1,8,0:0:0:0:
260,92,54937,5,0,0:0:0:0:
391,66,65908,5,4,0:0:0:0:
391,216,66080,2,0,L|446:244,2,48.9999985046387,0|0|4,0:0|0:0|0:0,0:0:0:0:
185,287,66422,1,0,0:0:0:0:
185,287,66508,1,0,0:0:0:0:
185,287,66594,1,4,0:0:0:0:
291,191,66765,2,0,L|330:149,2,48.9999985046387,0|0|4,0:0|0:0|0:0,0:0:0:0:
418,329,67108,1,0,0:0:0:0:
418,329,67194,1,0,0:0:0:0:
418,329,67280,1,4,0:0:0:0:
406,132,67451,2,0,L|398:43,2,48.9999985046387,0|0|4,0:0|0:0|0:0,0:0:0:0:
294,282,67794,2,0,L|286:371,2,48.9999985046387,0|0|4,0:0|0:0|0:0,0:0:0:0:
223,170,68137,2,0,L|215:81,2,48.9999985046387,0|0|4,0:0|0:0|0:0,0:0:0:0:
121,314,68480,1,0,0:0:0:0:
121,314,68565,1,0,0:0:0:0:
121,314,68651,5,4,0:0:0:0:
121,164,68822,2,0,L|66:136,2,48.9999985046387,0|0|4,0:0|0:0|0:0,0:0:0:0:
327,93,69165,1,0,0:0:0:0:
327,93,69251,1,0,0:0:0:0:
327,93,69337,1,4,0:0:0:0:
221,189,69508,2,0,L|182:231,2,48.9999985046387,0|0|4,0:0|0:0|0:0,0:0:0:0:
94,51,69851,1,0,0:0:0:0:
94,51,69937,1,0,0:0:0:0:
94,51,70022,1,4,0:0:0:0:
106,248,70194,2,0,L|114:337,2,48.9999985046387,0|0|4,0:0|0:0|0:0,0:0:0:0:
218,98,70537,2,0,L|226:9,2,48.9999985046387,0|0|4,0:0|0:0|0:0,0:0:0:0:
281,193,70880,2,0,L|289:282,2,48.9999985046387,0|0|4,0:0|0:0|0:0,0:0:0:0:
434,25,71394,5,4,0:0:0:0:
406,117,71565,1,4,0:0:0:0:
178,67,71737,1,4,0:0:0:0:
192,159,71908,1,4,0:0:0:0:
332,67,72080,1,4,0:0:0:0:
318,159,72251,1,4,0:0:0:0:
76,25,72422,1,4,0:0:0:0:
104,117,72594,1,4,0:0:0:0:
283,56,72765,5,4,0:0:0:0:
317,63,72851,1,4,0:0:0:0:
351,70,72937,1,4,0:0:0:0:
386,76,73022,1,4,0:0:0:0:
450,120,73108,2,4,L|435:199,1,70
307,268,73280,2,4,L|322:347,1,70
511,274,73451,5,4,0:0:0:0:
477,281,73537,1,4,0:0:0:0:
443,288,73622,1,4,0:0:0:0:
408,294,73708,1,4,0:0:0:0:
369,217,73794,2,0,L|290:202,1,70,8|0,0:0|0:0,0:0:0:0:
201,255,73965,2,0,L|122:270,1,70,8|0,0:0|0:0,0:0:0:0:
12,142,74137,1,4,0:0:0:0:
257,363,75508,6,0,L|254:311,1,48.9999985046387,8|8,0:0|0:0,0:0:0:0:
249,221,75680,2,0,L|246:169,1,48.9999985046387,8|8,0:0|0:0,0:0:0:0:
235,34,75851,2,0,L|238:83,1,48.9999985046387,8|0,0:0|0:0,0:0:0:0:
150,165,76022,2,4,L|147:113,1,48.9999985046387
347,241,76194,2,0,L|349:289,1,48.9999985046387,8|0,0:0|0:0,0:0:0:0:
334,135,76365,1,4,0:0:0:0:
334,135,76451,1,4,0:0:0:0:
334,135,76537,2,0,L|332:100,1,24.4999992523194,8|0,0:0|0:0,0:0:0:0:
248,234,76880,6,0,B|118:272|152:198|23:236,1,231.000007049561,4|0,0:0|0:0,0:0:0:0:
173,80,77222,2,0,B|203:62|216:37|216:37|180:172,1,181.999991668702,8|0,0:0|0:0,0:0:0:0:
92,309,77480,2,0,B|105:365|105:365|229:339,1,181.999991668702,4|0,0:0|0:0,0:0:0:0:
319,231,77737,2,0,P|311:205|311:236,1,77.0000023498536,4|0,0:0|0:0,0:0:0:0:
409,288,77908,2,0,B|446:155|378:219|420:71,1,210.000008010865,8|0,0:0|0:0,0:0:0:0:
345,39,78251,6,0,P|307:57|266:56,1,83.9999974365235,4|0,0:0|0:0,0:0:0:0:
64,13,78422,2,0,P|97:32|158:38,1,83.9999974365235,4|0,0:0|0:0,0:0:0:0:
161,151,78594,2,0,B|131:122|83:126|83:126|55:192|101:295,1,210.000008010865,8|4,0:0|0:0,0:0:0:0:
91,270,78851,1,4,0:0:0:0:
325,334,79022,1,4,0:0:0:0:
315,351,79108,1,4,0:0:0:0:
280,217,79280,2,0,L|482:200,1,154.000004699707,8|4,0:0|0:0,0:0:0:0:
336,36,79537,1,4,0:0:0:0:
303,136,79622,6,0,B|281:75|336:35|336:35|406:66|390:133,1,231.000007049561,4|0,0:0|0:0,0:0:0:0:
122,39,79965,2,0,B|172:46|218:20|218:20|193:60|200:134,1,195.999994018555,8|0,0:0|0:0,0:0:0:0:
98,288,80222,2,0,B|79:167|79:167|122:106,1,167.999994873047,4|0,0:0|0:0,0:0:0:0:
12,332,80480,2,0,L|-2:246,1,77.0000023498536,4|0,0:0|0:0,0:0:0:0:
287,291,80651,2,0,B|188:333|185:253|88:290,1,195.999994018555,8|0,0:0|0:0,0:0:0:0:
295,187,80908,1,0,0:0:0:0:
317,196,80994,6,0,L|391:228,1,62.9999980773926,4|0,0:0|0:0,0:0:0:0:
306,382,81165,2,0,L|380:350,1,62.9999980773926,4|0,0:0|0:0,0:0:0:0:
481,291,81337,1,8,0:0:0:0:
118,283,81508,1,4,0:0:0:0:
118,283,81594,1,4,0:0:0:0:
118,283,81680,2,0,P|148:266|199:253,1,62.9999980773926
312,166,81851,2,0,P|348:168|398:182,1,62.9999980773926,4|0,0:0|0:0,0:0:0:0:
409,274,82022,2,0,P|380:262|349:258,1,62.9999980773926,8|0,0:0|0:0,0:0:0:0:
206,172,82194,2,0,P|175:172|144:177,1,62.9999980773926,8|0,0:0|0:0,0:0:0:0:
351,50,82365,6,0,B|411:216|285:139|353:354,1,272.999987503052,4|0,0:0|0:0,0:0:0:0:
375,337,82708,2,0,B|296:306|296:306|239:327,1,125.999996154785,8|0,0:0|0:0,0:0:0:0:
78,346,82965,2,0,B|44:215|44:215|100:194,1,195.999994018555,4|0,0:0|0:0,0:0:0:0:
196,249,83222,2,0,P|200:271|166:248,1,77.0000023498536,4|0,0:0|0:0,0:0:0:0:
169,126,83394,2,0,B|142:73|142:73|168:34,1,97.9999970092774,8|0,0:0|0:0,0:0:0:0:
253,77,83737,6,0,L|336:81,1,83.9999974365235,4|0,0:0|0:0,0:0:0:0:
512,93,83908,2,0,L|429:89,1,83.9999974365235,4|0,0:0|0:0,0:0:0:0:
421,306,84080,2,0,B|449:249|421:183|421:183|373:179|343:208,1,210.000008010865,8|4,0:0|0:0,0:0:0:0:
335,222,84337,1,4,0:0:0:0:
92,150,84508,1,4,0:0:0:0:
107,129,84594,1,4,0:0:0:0:
246,235,84765,2,0,B|272:290|224:353|224:353|136:295,1,195.999994018555,8|4,0:0|0:0,0:0:0:0:
23,238,85022,1,4,0:0:0:0:
44,315,85108,6,0,B|45:277|21:237|21:237|61:220|75:167,1,168,4|0,0:0|0:0,0:0:0:0:
183,52,85451,2,0,B|49:16|49:16|74:45|74:74,1,181.999991668702,8|0,0:0|0:0,0:0:0:0:
188,190,85708,2,0,B|191:181|166:152|166:152|300:188,1,181.999991668702,4|0,0:0|0:0,0:0:0:0:
418,117,85965,2,0,L|324:91,1,62.9999980773926,4|0,0:0|0:0,0:0:0:0:
383,302,86137,2,0,B|363:197|443:221|416:112,1,195.999994018555,8|0,0:0|0:0,0:0:0:0:
475,276,86394,1,0,0:0:0:0:
385,329,86480,6,0,L|291:352,1,62.9999980773926,4|0,0:0|0:0,0:0:0:0:
77,254,86651,2,0,L|100:348,1,62.9999980773926,4|0,0:0|0:0,0:0:0:0:
189,253,86822,2,0,L|159:122,1,125.999996154785,8|4,0:0|0:0,0:0:0:0:
257,20,87080,1,4,0:0:0:0:
154,44,87165,2,0,L|81:63,1,62.9999980773926
403,170,87337,2,0,L|330:151,1,62.9999980773926,4|0,0:0|0:0,0:0:0:0:
109,170,87508,2,0,L|169:154,1,62.9999980773926,8|0,0:0|0:0,0:0:0:0:
358,44,87680,2,0,L|418:59,1,62.9999980773926,8|0,0:0|0:0,0:0:0:0:
199,231,87851,5,4,0:0:0:0:
209,64,88022,2,0,B|223:105|223:105|216:147,1,83.9999974365235,4|0,0:0|0:0,0:0:0:0:
192,242,88194,2,0,B|272:212|264:275|365:228,1,154.000004699707,8|0,0:0|0:0,0:0:0:0:
304,152,88451,1,4,0:0:0:0:
259,332,88537,2,0,P|295:338|345:323,1,70,0|4,0:0|0:0,0:0:0:0:
372,151,88708,2,0,P|336:145|286:160,1,70,4|0,0:0|0:0,0:0:0:0:
436,249,88880,2,0,B|472:198|472:198|437:61,1,167.999994873047,0|4,0:0|0:0,0:0:0:0:
417,0,89137,1,4,0:0:0:0:
497,24,89222,6,0,P|408:53|326:15,1,154.000004699707,4|4,0:0|0:0,0:0:0:0:
243,151,89480,1,0,0:0:0:0:
188,72,89565,2,0,B|128:43|49:60|49:60|45:109|79:162,1,224,8|4,0:0|0:0,0:0:0:0:
139,235,89822,1,4,0:0:0:0:
152,154,89908,2,0,B|156:196|156:196|134:245,1,83.9999974365235,0|4,0:0|0:0,0:0:0:0:
84,310,90080,1,0,0:0:0:0:
289,310,90251,2,0,B|167:274|201:364|46:296,1,210.000008010865,8|4,0:0|0:0,0:0:0:0:
370,357,90508,1,4,0:0:0:0:
370,357,90594,6,0,B|418:231|418:231|391:254|362:251,1,195.999994018555,4|4,0:0|0:0,0:0:0:0:
198,222,90937,2,0,P|250:159|331:154,1,167.999994873047,8|4,0:0|0:0,0:0:0:0:
305,319,91194,1,4,0:0:0:0:
305,319,91280,2,0,P|303:286|286:224,1,83.9999974365235,0|4,0:0|0:0,0:0:0:0:
210,34,91451,1,4,0:0:0:0:
7,182,91622,2,0,B|57:138|57:138|241:169,1,224,8|4,0:0|0:0,0:0:0:0:
354,198,91880,1,4,0:0:0:0:
295,277,91965,6,0,B|332:156|332:156|307:72,1,195.999994018555,4|4,0:0|0:0,0:0:0:0:
170,259,92222,1,0,0:0:0:0:
185,279,92308,2,0,L|197:371,1,83.9999974365235,8|0,0:0|0:0,0:0:0:0:
94,205,92480,1,4,0:0:0:0:
109,185,92565,2,0,L|121:93,1,83.9999974365235,4|0,0:0|0:0,0:0:0:0:
193,9,92737,1,4,0:0:0:0:
208,29,92822,2,0,L|220:121,1,83.9999974365235,4|0,0:0|0:0,0:0:0:0:
255,205,92994,2,0,B|333:196|333:196|365:172|365:172|401:190|401:190|504:180,1,238.00000453949,8|4,0:0|0:0,0:0:0:0:
388,336,93251,1,4,0:0:0:0:
470,280,93337,6,0,L|246:302,1,181.999991668702,0|4,0:0|0:0,0:0:0:0:
162,263,93594,1,0,0:0:0:0:
204,339,93680,2,0,B|174:232|262:256|229:134,1,195.999994018555,8|4,0:0|0:0,0:0:0:0:
185,70,93937,2,0,B|126:81|126:81|152:226,1,167.999994873047,4|4,0:0|0:0,0:0:0:0:
342,196,94194,2,0,L|323:100,1,83.9999974365235,4|0,0:0|0:0,0:0:0:0:
145,187,94365,2,0,B|91:208|91:208|75:317|75:317|135:373,1,224,8|4,0:0|0:0,0:0:0:0:
200,278,94622,1,4,0:0:0:0:
200,278,94708,6,0,P|231:268|286:267,1,77.0000023498536,4|0,0:0|0:0,0:0:0:0:
443,317,94880,2,0,P|406:327|369:322,1,77.0000023498536,4|0,0:0|0:0,0:0:0:0:
378,74,95051,2,0,B|461:97|461:97|421:265,1,224,8|4,0:0|0:0,0:0:0:0:
171,148,95308,2,0,B|276:120|248:190|363:153,1,181.999991668702,4|4,0:0|0:0,0:0:0:0:
249,45,95565,2,0,P|207:42|147:59,1,77.0000023498536,4|0,0:0|0:0,0:0:0:0:
115,230,95737,2,0,B|83:237|59:264|59:264|75:97,1,224,8|4,0:0|0:0,0:0:0:0:
214,246,95994,1,4,0:0:0:0:
136,324,96080,6,0,P|218:291|299:302,1,167.999994873047,4|4,0:0|0:0,0:0:0:0:
441,280,96337,1,0,0:0:0:0:
382,354,96422,2,0,B|420:244|332:266|384:116,1,210.000008010865,8|4,0:0|0:0,0:0:0:0:
461,77,96680,2,0,B|428:17|428:17|251:93,1,195.999994018555,4|4,0:0|0:0,0:0:0:0:
221,147,96937,2,0,P|216:195|263:184,1,112,4|0,0:0|0:0,0:0:0:0:
179,41,97108,2,0,B|97:-4|45:104|110:150|110:150|95:216|186:243,1,251.999992309571,8|4,0:0|0:0,0:0:0:0:
270,307,97365,1,4,0:0:0:0:
270,307,97451,6,0,L|178:290,1,77.0000023498536,4|0,0:0|0:0,0:0:0:0:
37,262,97622,2,0,L|126:278,1,77.0000023498536,4|0,0:0|0:0,0:0:0:0:
396,286,97794,2,0,L|307:302,1,77.0000023498536,4|0,0:0|0:0,0:0:0:0:
171,330,97965,1,4,0:0:0:0:
283,78,98137,1,8,0:0:0:0:
308,210,98308,6,4,L|284:107,1,56
197,197,98480,1,4,0:0:0:0:
190,229,98565,1,4,0:0:0:0:
184,263,98651,1,4,0:0:0:0:
178,297,98737,1,4,0:0:0:0:
171,330,98822,1,4,0:0:0:0:
256,192,98994,12,0,101222,0:0:0:0:
294,121,101394,5,0,0:0:0:0:
294,121,101480,1,0,0:0:0:0:
294,121,101565,2,0,L|390:134,1,70,2|0,0:0|0:0,0:0:0:0:
346,226,101908,1,2,0:0:0:0:
346,226,102080,2,0,L|442:239,1,70,2|0,0:0|0:0,0:0:0:0:
250,310,102422,1,2,0:0:0:0:
236,213,102594,1,0,0:0:0:0:
148,331,102765,2,0,L|238:314,1,70,2|0,0:0|0:0,0:0:0:0:
340,233,103108,2,0,L|250:216,1,70,2|0,0:0|0:0,0:0:0:0:
121,146,103451,2,0,L|211:129,1,70,2|0,0:0|0:0,0:0:0:0:
391,80,103794,1,2,0:0:0:0:
336,4,103965,1,2,0:0:0:0:
265,67,104137,1,2,0:0:0:0:
323,212,104308,6,0,L|349:118,1,70,2|0,0:0|0:0,0:0:0:0:
165,160,104651,1,2,0:0:0:0:
165,160,104822,2,0,L|139:66,1,70,2|0,0:0|0:0,0:0:0:0:
38,261,105165,1,2,0:0:0:0:
183,261,105337,1,0,0:0:0:0:
56,193,105508,2,0,L|30:287,1,70,2|0,0:0|0:0,0:0:0:0:
201,328,105852,2,0,L|175:234,1,70,2|0,0:0|0:0,0:0:0:0:
371,220,106194,2,0,L|345:314,1,70,2|0,0:0|0:0,0:0:0:0:
255,190,106537,1,2,0:0:0:0:
183,128,106708,1,2,0:0:0:0:
225,43,106880,1,2,0:0:0:0:
139,271,107051,6,0,L|51:279,1,70,2|0,0:0|0:0,0:0:0:0:
373,271,107394,2,0,L|461:279,1,70,2|2,0:0|0:0,0:0:0:0:
139,113,107737,2,0,L|51:105,1,70,0|2,0:0|0:0,0:0:0:0:
373,113,108080,2,0,L|461:105,1,70,0|2,0:0|0:0,0:0:0:0:
256,192,108422,12,0,109794,0:0:0:0:
