osu file format v14

[General]
AudioFilename: audio.mp3
AudioLeadIn: 0
PreviewTime: 75508
Countdown: 0
SampleSet: Soft
StackLeniency: 0.3
Mode: 0
LetterboxInBreaks: 0
WidescreenStoryboard: 1

[Editor]
DistanceSpacing: 0.8
BeatDivisor: 4
GridSize: 32
TimelineZoom: 3.899998

[Metadata]
Title:Adamantite
TitleUnicode:Adamantite
Artist:Street vs Sin:cK
ArtistUnicode:Street vs Sin:cK
Creator:LowComboFC
Version:Extreme
Source:
Tags:dubstep drumstep drum and bass dnb artcore lcfc cookiebite nokashi hobbes2 irreversible
BeatmapID:1113343
BeatmapSetID:524538

[Difficulty]
HPDrainRate:6
CircleSize:4
OverallDifficulty:8.3
ApproachRate:9.4
SliderMultiplier:2.3
SliderTickRate:1

[Events]
//Background and Video events
0,0,"BG.jpg",0,0
//Break Periods
2,55137,65368
//Storyboard Layer 0 (Background)
//Storyboard Layer 1 (Fail)
//Storyboard Layer 2 (Pass)
//Storyboard Layer 3 (Foreground)
//Storyboard Sound Samples

[TimingPoints]
80,342.857142857143,4,2,1,20,1,0
80,-200,4,2,1,20,0,0
5565,-200,4,2,1,22,0,0
7280,-200,4,2,1,24,0,0
8308,-200,4,2,1,26,0,0
10022,-200,4,2,1,28,0,0
10365,-200,4,2,1,50,0,0
10880,-100,4,2,1,50,0,0
11051,-200,4,2,1,30,0,0
21165,-100,4,2,1,75,0,0
21337,-83.3333333333333,4,2,1,75,0,0
21680,-83.3333333333333,4,2,1,75,0,0
22022,-125,4,2,1,50,0,0
27508,-100,4,2,1,75,0,0
31622,-100,4,2,1,50,0,0
32651,-66.6666666666667,4,2,1,50,0,0
32994,-80,4,2,1,75,0,0
33337,-66.6666666666667,4,2,1,75,0,0
33680,-57.1428571428571,4,2,1,75,0,0
34022,-66.6666666666667,4,2,1,75,0,0
34365,-80,4,2,1,75,0,0
35051,-66.6666666666667,4,2,1,75,0,0
35737,-80,4,2,1,75,0,0
36422,-57.1428571428571,4,2,1,75,0,0
36765,-66.6666666666667,4,2,1,75,0,0
37108,-100,4,2,1,75,0,0
37794,-80,4,2,1,75,0,0
37965,-66.6666666666667,4,2,1,75,0,0
38480,-80,4,2,1,75,0,0
38822,-66.6666666666667,4,2,1,75,0,0
39165,-57.1428571428571,4,2,1,75,0,0
39508,-80,4,2,1,75,0,0
40537,-66.6666666666667,4,2,1,75,0,0
41222,-80,4,2,1,75,0,0
41908,-57.1428571428571,4,2,1,75,0,0
42251,-66.6666666666667,4,2,1,75,0,0
42594,-100,4,2,1,75,0,0
43280,-80,4,2,1,75,0,0
43451,-66.6666666666667,4,2,1,75,0,0
43965,-80,4,2,1,75,0,0
44308,-66.6666666666667,4,2,1,75,0,0
44651,-57.1428571428571,4,2,1,75,0,0
44994,-66.6666666666667,4,2,1,75,0,0
45337,-80,4,2,1,75,0,0
46022,-66.6666666666667,4,2,1,75,0,0
46708,-80,4,2,1,75,0,0
47394,-57.1428571428571,4,2,1,75,0,0
47737,-66.6666666666667,4,2,1,75,0,0
48080,-100,4,2,1,75,0,0
48765,-80,4,2,1,75,0,0
48937,-66.6666666666667,4,2,1,75,0,0
49451,-80,4,2,1,75,0,0
49794,-66.6666666666667,4,2,1,75,0,0
50137,-57.1428571428571,4,2,1,75,0,0
50480,-80,4,2,1,75,0,0
54422,-100,4,2,1,50,0,0
65908,-125,4,2,1,50,0,0
66251,-100,4,2,1,50,0,0
66594,-125,4,2,1,50,0,0
66937,-100,4,2,1,50,0,0
67280,-125,4,2,1,50,0,0
67622,-100,4,2,1,50,0,0
67965,-125,4,2,1,50,0,0
68308,-100,4,2,1,50,0,0
68651,-125,4,2,1,50,0,0
68994,-100,4,2,1,50,0,0
69337,-125,4,2,1,50,0,0
69680,-100,4,2,1,50,0,0
70022,-125,4,2,1,50,0,0
70365,-100,4,2,1,50,0,0
70708,-125,4,2,1,50,0,0
71051,-100,4,2,1,50,0,0
71394,-100,4,2,1,75,0,0
75508,-100,4,2,1,50,0,0
76537,-66.6666666666667,4,2,1,50,0,0
76880,-100,4,2,1,75,0,1
97965,-200,4,2,1,75,0,1
98480,-100,4,2,1,75,0,1
98822,-200,4,2,1,30,0,0

[Colours]
Combo1 : 255,198,170
Combo2 : 148,148,148
Combo3 : 212,212,212
Combo4 : 170,213,213
Combo5 : 128,191,255
Combo6 : 255,0,0
Combo7 : 255,128,0
Combo8 : 170,255,170

[HitObjects]
123,152,80,6,0,B|200:137|200:137|254:84|254:84|328:70,1,230,2|8,1:0|0:0,0:0:0:0:
329,71,1794,5,0,1:0:0:0:
350,242,2137,1,8,0:0:0:0:
106,156,2651,1,2,0:0:0:0:
119,151,2737,1,2,0:0:0:0:
132,146,2822,102,0,P|171:244|105:351,1,230,2|8,1:0|0:0,0:0:0:0:
113,345,4537,5,0,1:0:0:0:
283,321,4880,1,8,0:0:0:0:
72,89,5565,102,0,B|187:40|174:154|294:91,1,230,2|8,1:0|0:0,0:0:0:0:
291,93,7280,5,0,1:0:0:0:
331,272,7622,1,8,0:0:0:0:
84,152,8308,102,0,B|133:99|133:99|313:92,1,230,0|8,1:0|0:0,0:0:0:0:
291,94,10022,2,0,L|191:98,1,86.25,0|0,1:0|0:0,0:0:0:0:
190,97,10365,5,8,0:0:0:0:
266,177,10537,1,0,1:0:0:0:
119,267,10708,101,8,0:0:0:0:
349,286,10880,2,0,L|342:337,2,38.3333333333333,0|0|0,1:0|0:0|0:0,0:0:0:0:
383,199,11051,6,0,L|373:85,1,115,2|2,0:0|0:0,0:0:0:0:
244,302,11565,2,0,P|293:276|364:298,1,115,2|2,0:0|0:0,0:0:0:0:
349,286,12251,2,0,B|390:292|390:292|424:287|424:287|471:295,2,115,2|2|2,0:0|0:0|0:0,0:0:0:0:
130,212,13280,2,0,P|179:186|250:208,1,115,2|0,0:0|0:0,0:0:0:0:
95,124,13794,102,0,L|106:10,1,115,2|2,0:0|0:0,0:0:0:0:
235,227,14308,2,0,P|186:201|115:223,1,115,2|2,0:0|0:0,0:0:0:0:
130,211,14994,2,0,B|89:217|89:217|55:212|55:212|8:220,2,115,2|2|2,0:0|0:0|0:0,0:0:0:0:
349,137,16023,2,0,P|317:113|281:108,2,57.5,2|0|0,0:0|0:0|0:0,0:0:0:0:
273,324,16537,6,0,B|266:279|266:279|280:195,1,115,2|2,0:0|0:0,0:0:0:0:
420,194,17051,2,0,L|396:323,1,115,2|2,0:0|0:0,0:0:0:0:
111,331,17737,2,0,L|132:217,1,115,2|2,0:0|0:0,0:0:0:0:
330,10,18422,2,0,B|337:55|337:55|323:139,1,115,2|2,0:0|0:0,0:0:0:0:
325,123,19108,1,0,0:0:0:0:
239,324,19280,102,0,B|246:279|246:279|232:195,1,115,2|2,0:0|0:0,0:0:0:0:
92,194,19794,2,0,L|116:323,1,115,2|2,0:0|0:0,0:0:0:0:
401,331,20480,2,0,L|380:217,1,115,2|2,0:0|0:0,0:0:0:0:
188,111,21165,54,0,L|202:166,1,57.5,2|0,1:0|0:0,0:0:0:0:
100,142,21337,2,0,P|70:124|36:119,1,68.9999978942872,8|0,0:0|0:0,0:0:0:0:
276,97,21508,2,0,P|293:66|320:45,1,68.9999978942872,0|0,0:0|0:0,0:0:0:0:
438,175,21680,6,0,L|479:171,1,34.4999989471436,10|0,0:0|0:0,0:0:0:0:
442,155,21765,2,0,L|483:151,1,34.4999989471436,0|0,0:0|0:0,0:0:0:0:
444,135,21851,2,0,L|437:67,2,45.9999985961914,2|0|0,1:0|0:0|0:0,0:0:0:0:
366,126,22022,70,0,P|350:175|347:226,1,92,2|0,1:0|0:0,0:0:0:0:
262,324,22280,1,0,0:0:0:0:
262,324,22365,2,0,P|238:278|204:239,1,92,2|2,1:0|0:0,0:0:0:0:
45,169,22708,6,0,L|155:160,1,92,0|2,1:0|0:0,0:0:0:0:
303,81,22965,1,0,0:0:0:0:
303,81,23051,2,0,L|193:72,1,92,0|2,1:0|0:0,0:0:0:0:
359,184,23394,102,0,P|408:133|411:103,1,92,0|2,1:0|0:0,0:0:0:0:
511,269,23651,1,0,0:0:0:0:
511,269,23737,2,0,P|462:218|459:188,1,92,0|2,1:0|0:0,0:0:0:0:
497,19,24080,6,0,B|469:8|469:8|394:5,1,92,0|2,1:0|0:0,0:0:0:0:
259,114,24337,1,0,0:0:0:0:
259,114,24422,2,0,B|231:125|231:125|156:128,1,92,0|2,1:0|0:0,0:0:0:0:
333,210,24765,102,0,L|345:308,1,92,2|0,1:0|0:0,0:0:0:0:
177,380,25022,1,0,0:0:0:0:
177,380,25108,2,0,L|165:282,1,92,2|2,1:0|0:0,0:0:0:0:
414,166,25451,6,0,L|426:264,1,92,0|2,1:0|0:0,0:0:0:0:
258,336,25708,1,0,0:0:0:0:
258,336,25794,2,0,L|246:238,1,92,0|2,1:0|0:0,0:0:0:0:
358,97,26137,102,0,P|289:80|261:92,1,92,0|2,1:0|0:0,0:0:0:0:
181,191,26394,1,0,0:0:0:0:
181,191,26480,2,0,P|112:207|84:195,1,92,0|2,1:0|0:0,0:0:0:0:
185,97,26822,6,0,P|253:80|281:92,1,92,0|2,1:0|0:0,0:0:0:0:
362,191,27079,1,0,0:0:0:0:
362,191,27165,2,0,P|430:207|458:195,1,92,2|2,1:0|0:0,0:0:0:0:
486,68,27508,101,2,1:0:0:0:
512,280,27680,1,0,1:0:0:0:
412,119,27851,5,2,1:0:0:0:
360,342,28022,1,2,1:0:0:0:
338,84,28194,101,0,1:0:0:0:
218,268,28365,1,2,1:0:0:0:
313,10,28537,5,0,1:0:0:0:
135,129,28708,1,2,1:0:0:0:
306,204,28880,101,0,1:0:0:0:
291,177,28965,1,0,1:0:0:0:
270,158,29051,1,2,1:0:0:0:
242,150,29137,1,0,1:0:0:0:
214,153,29222,5,0,1:0:0:0:
172,152,29307,1,0,1:0:0:0:
135,129,29393,1,2,1:0:0:0:
114,92,29479,1,0,1:0:0:0:
113,48,29565,101,0,1:0:0:0:
153,8,29650,1,0,1:0:0:0:
208,1,29737,1,2,1:0:0:0:
257,29,29822,1,0,1:0:0:0:
276,82,29908,5,8,0:0:0:0:
259,150,29993,1,8,0:0:0:0:
287,216,30080,1,10,0:0:0:0:
348,250,30165,1,8,0:0:0:0:
418,237,30250,101,2,0:0:0:0:
198,327,31622,6,0,L|177:214,1,115,4|0,1:0|0:0,0:0:0:0:
34,89,31880,1,0,0:0:0:0:
21,97,31965,102,0,L|129:135,1,115,2|0,1:0|0:0,0:0:0:0:
276,99,32222,1,0,0:0:0:0:
263,94,32308,6,0,L|220:132,1,57.5,2|0,1:0|0:0,0:0:0:0:
310,320,32480,1,0,1:0:0:0:
383,359,32565,1,0,1:0:0:0:
443,311,32651,102,0,B|346:301|346:301|317:281|317:281|287:295|287:295|194:286,1,258.75000987053,8|0,0:0|0:0,0:0:0:0:
83,147,32994,22,0,B|21:97|21:97|45:230,1,215.625,4|0,1:0|0:0,0:0:0:0:
179,170,33337,2,0,B|210:140|210:140|252:146,1,86.2500032901765,0|0,3:0|0:0,0:0:0:0:
407,202,33508,1,0,3:0:0:0:
399,217,33594,1,0,0:0:0:0:
322,249,33680,6,0,B|270:142|345:31|345:31|317:64|283:63,1,301.875002878904,8|0,0:0|0:0,0:0:0:0:
419,81,34022,2,0,P|434:41|427:0,1,86.2500032901765,2|0,3:0|0:0,0:0:0:0:
201,12,34194,2,0,P|186:51|193:94,1,86.2500032901765,2|0,3:0|0:0,0:0:0:0:
388,344,34365,102,0,L|407:202,1,143.75,0|0,1:0|0:0,0:0:0:0:
421,211,34622,2,0,L|403:354,1,143.75,0|0,1:0|0:0,0:0:0:0:
506,296,34880,1,0,1:0:0:0:
269,105,35051,6,0,B|232:80|232:80|192:93,1,86.2500032901765,8|0,0:0|0:0,0:0:0:0:
172,250,35222,1,0,0:0:0:0:
172,250,35308,1,0,0:0:0:0:
172,250,35394,2,0,B|208:274|208:274|248:261,1,86.2500032901765,2|0,1:0|0:0,0:0:0:0:
308,185,35565,2,0,L|215:173,1,86.2500032901765,0|0,0:0|0:0,0:0:0:0:
32,383,35737,102,0,B|76:382|99:338|99:338|143:389|219:360,1,215.625,0|0,1:0|0:0,0:0:0:0:
347,334,36080,2,0,P|353:299|340:266,1,71.875,0|0,3:0|0:0,0:0:0:0:
445,94,36251,2,0,P|451:128|438:161,1,71.875,0|0,3:0|0:0,0:0:0:0:
66,207,36422,6,0,B|110:180|168:193|168:193|204:162|219:107|219:107|263:116|311:96,1,301.875002878904,10|0,0:0|2:0,0:0:0:0:
113,23,36765,2,0,L|126:108,1,86.2500032901765,2|0,3:0|0:0,0:0:0:0:
275,188,36937,2,0,L|261:273,1,86.2500032901765,2|0,3:0|0:0,0:0:0:0:
8,329,37108,102,0,B|74:338|74:338|116:316|116:316|147:348|147:348|217:359,1,230,4|0,1:0|0:0,0:0:0:0:
466,163,37622,1,4,3:0:0:0:
466,163,37708,1,0,1:0:0:0:
466,163,37794,6,0,B|434:145|434:145|399:149,1,71.875,8|0,0:0|0:0,0:0:0:0:
336,344,37965,2,0,P|356:306|363:264,1,86.2500032901765,0|0,1:0|1:0,0:0:0:0:
126,108,38137,2,0,P|132:150|153:187,1,86.2500032901765,8|0,0:0|0:0,0:0:0:0:
341,76,38308,2,0,B|352:51|352:51|350:20,2,57.500002193451,0|0|0,1:0|0:0|0:0,0:0:0:0:
243,84,38480,102,0,B|169:90|169:90|110:53|110:53|39:59,1,215.625,4|0,1:0|0:0,0:0:0:0:
142,270,38822,2,0,B|184:276|184:276|215:246,1,86.2500032901765,0|0,3:0|0:0,0:0:0:0:
341,76,38994,1,0,3:0:0:0:
331,62,39080,1,0,0:0:0:0:
243,84,39165,6,0,B|207:146|207:146|339:242|339:242|306:300,1,301.875002878904,8|0,0:0|0:0,0:0:0:0:
465,357,39508,2,0,L|389:344,1,71.875,2|0,3:0|0:0,0:0:0:0:
384,331,39680,2,0,L|454:343,1,71.875,2|0,3:0|0:0,0:0:0:0:
187,363,39851,102,0,P|116:368|58:328,1,143.75,0|0,1:0|0:0,0:0:0:0:
56,338,40108,2,0,P|114:377|184:372,1,143.75,0|0,1:0|0:0,0:0:0:0:
141,269,40365,1,0,1:0:0:0:
377,167,40537,6,0,P|385:126|388:80,1,86.2500032901765,8|0,0:0|0:0,0:0:0:0:
247,34,40708,1,0,0:0:0:0:
247,34,40794,1,0,0:0:0:0:
247,34,40880,2,0,P|266:72|280:113,1,86.2500032901765,2|0,1:0|0:0,0:0:0:0:
434,262,41051,2,0,P|461:231|487:192,1,86.2500032901765,0|0,0:0|0:0,0:0:0:0:
150,85,41222,102,0,B|9:108|9:108|80:120,1,215.625,0|0,1:0|0:0,0:0:0:0:
80,120,41565,2,0,P|79:85|56:54,1,71.875,0|0,3:0|0:0,0:0:0:0:
252,198,41737,2,0,P|250:233|227:264,1,71.875,0|0,3:0|0:0,0:0:0:0:
83,338,41908,6,0,B|47:382|47:382|30:189|30:189|66:224,1,301.875002878904,10|0,0:0|0:0,0:0:0:0:
207,341,42251,2,0,B|247:354|247:354|284:329,1,86.2500032901765,2|0,3:0|0:0,0:0:0:0:
487,180,42422,2,0,B|450:155|450:155|410:168,1,86.2500032901765,2|0,3:0|0:0,0:0:0:0:
379,377,42594,102,0,B|391:307|391:307|423:276|423:276|401:234|401:234|410:168,1,230,4|0,1:0|0:0,0:0:0:0:
185,184,43108,1,0,1:0:0:0:
185,184,43194,1,0,1:0:0:0:
185,184,43280,6,0,L|108:177,1,71.875,8|0,0:0|0:0,0:0:0:0:
281,140,43451,2,0,P|305:105|307:62,1,86.2500032901765,0|0,1:0|1:0,0:0:0:0:
270,248,43622,2,0,P|288:286|282:328,1,86.2500032901765,8|0,0:0|0:0,0:0:0:0:
54,304,43794,2,0,L|42:237,2,57.500002193451,0|0|0,1:0|0:0|0:0,0:0:0:0:
169,369,43965,102,0,B|242:386|242:386|270:248,1,215.625,4|0,1:0|0:0,0:0:0:0:
102,90,44308,2,0,L|188:78,1,86.2500032901765,0|0,3:0|0:0,0:0:0:0:
380,155,44480,1,0,3:0:0:0:
363,162,44565,1,0,0:0:0:0:
281,141,44651,6,0,B|320:351|320:351|326:300|371:283,1,301.875002878904,8|0,0:0|0:0,0:0:0:0:
423,360,44994,2,0,P|393:369|416:349,1,86.2500032901765,2|0,3:0|0:0,0:0:0:0:
477,222,45165,2,0,P|483:191|489:222,1,86.2500032901765,2|0,3:0|0:0,0:0:0:0:
217,339,45337,102,0,B|174:348|145:330|145:330|116:311|78:319,1,143.75,0|0,1:0|0:0,0:0:0:0:
71,333,45594,2,0,B|108:324|137:343|137:343|166:361|209:352,1,143.75,0|0,1:0|0:0,0:0:0:0:
192,254,45851,1,0,1:0:0:0:
71,129,46022,6,0,P|80:93|84:38,1,86.2500032901765,8|0,0:0|0:0,0:0:0:0:
276,72,46194,1,0,0:0:0:0:
276,72,46280,1,0,0:0:0:0:
276,72,46365,2,0,P|267:108|263:163,1,86.2500032901765,2|0,1:0|0:0,0:0:0:0:
163,163,46537,2,0,L|178:59,1,86.2500032901765,0|0,0:0|0:0,0:0:0:0:
460,258,46708,102,0,B|402:258|363:212|363:212|334:261|281:273,1,215.625,0|0,1:0|0:0,0:0:0:0:
382,384,47051,2,0,L|372:312,1,71.875,0|0,3:0|0:0,0:0:0:0:
435,97,47222,2,0,L|444:168,1,71.875,0|0,3:0|0:0,0:0:0:0:
231,344,47394,6,0,B|34:305|34:305|93:310|129:278,1,301.875002878904,10|0,0:0|0:0,0:0:0:0:
199,151,47737,2,0,B|205:109|205:109|175:78,1,86.2500032901765,2|0,3:0|0:0,0:0:0:0:
307,144,47908,2,0,B|317:185|317:185|291:219,1,86.2500032901765,2|0,3:0|0:0,0:0:0:0:
86,139,48080,102,0,B|41:77|41:77|21:178|60:225,1,230,2|0,1:0|0:0,0:0:0:0:
307,144,48594,1,0,1:0:0:0:
307,144,48680,1,0,1:0:0:0:
307,144,48765,6,0,L|381:135,1,71.875,8|0,0:0|0:0,0:0:0:0:
369,43,48937,2,0,B|329:28|329:28|292:51,1,86.2500032901765,0|0,1:0|1:0,0:0:0:0:
312,235,49108,2,0,B|351:249|351:249|388:226,1,86.2500032901765,8|0,0:0|0:0,0:0:0:0:
475,92,49280,2,0,L|486:23,2,57.500002193451,0|0|0,1:0|0:0|0:0,0:0:0:0:
378,135,49451,102,0,L|153:113,1,215.625,4|0,1:0|0:0,0:0:0:0:
73,80,49794,2,0,L|87:166,1,86.2500032901765,0|0,3:0|0:0,0:0:0:0:
59,357,49965,1,0,3:0:0:0:
50,337,50051,1,0,0:0:0:0:
102,273,50137,6,0,B|195:283|195:283|213:279|213:279|319:293|319:293|238:310,1,301.875002878904,8|0,0:0|0:0,0:0:0:0:
429,362,50480,2,0,L|417:291,1,71.875,2|0,3:0|0:0,0:0:0:0:
402,288,50651,2,0,L|413:359,1,71.875,2|0,3:0|0:0,0:0:0:0:
480,184,50822,102,0,B|508:118|508:118|485:49,1,143.75,0|0,1:0|0:0,0:0:0:0:
499,51,51080,2,0,B|521:119|521:119|493:185,1,143.75,0|0,1:0|0:0,0:0:0:0:
398,111,51337,1,0,1:0:0:0:
238,310,51508,5,8,0:0:0:0:
126,165,51680,2,0,L|112:94,1,71.875,0|0,1:0|0:0,0:0:0:0:
256,336,51851,1,8,0:0:0:0:
398,111,52022,2,0,L|406:63,2,47.9166666666667,0|0|0,1:0|0:0|0:0,0:0:0:0:
351,183,52194,69,4,0:0:0:0:
256,192,52280,12,0,54251,0:0:0:0:
351,183,54422,5,0,1:0:0:0:
351,183,54508,1,0,1:0:0:0:
351,183,54594,2,0,B|394:143|394:143|407:264,1,172.5,8|0,0:0|0:0,0:0:0:0:
411,284,54937,101,2,1:0:0:0:
406,56,65908,118,0,B|429:120|429:120|405:199,1,138,2|2,1:0|0:0,0:0:0:0:
293,191,66251,2,0,L|411:186,1,115,0|2,1:0|0:0,0:0:0:0:
217,281,66594,6,0,P|157:281|104:218,1,138,2|2,1:0|0:0,0:0:0:0:
147,100,66937,2,0,P|198:157|191:199,1,115,0|2,1:0|0:0,0:0:0:0:
323,323,67280,102,0,L|464:318,1,138,2|2,1:0|0:0,0:0:0:0:
469,210,67622,2,0,B|445:264|445:264|467:339,1,115,0|2,1:0|0:0,0:0:0:0:
338,178,67965,6,0,B|362:124|362:124|334:30,1,138,2|2,1:0|0:0,0:0:0:0:
434,100,68308,2,0,L|472:220,1,115,0|2,1:0|0:0,0:0:0:0:
255,116,68651,102,0,B|190:88|192:148|123:121,1,138,2|2,1:0|0:0,0:0:0:0:
55,79,68994,2,0,P|83:132|66:199,1,115,0|2,1:0|0:0,0:0:0:0:
327,351,69337,6,0,P|267:348|211:281,1,138,2|2,1:0|0:0,0:0:0:0:
357,168,69680,2,0,P|344:226|288:266,1,115,0|2,1:0|0:0,0:0:0:0:
74,184,70022,102,0,B|137:152|137:152|213:178,1,138,2|2,1:0|0:0,0:0:0:0:
82,298,70365,2,0,L|74:184,1,115,0|2,1:0|0:0,0:0:0:0:
385,104,70708,6,0,L|375:251,1,138,2|2,1:0|0:0,0:0:0:0:
245,356,71051,2,0,P|302:305|344:312,1,115,0|2,1:0|0:0,0:0:0:0:
461,378,71394,101,0,1:0:0:0:
512,176,71565,1,0,1:0:0:0:
371,48,71737,5,2,1:0:0:0:
429,279,71908,1,2,1:0:0:0:
245,356,72080,101,0,1:0:0:0:
301,154,72251,1,0,1:0:0:0:
151,18,72422,5,0,1:0:0:0:
234,249,72594,1,0,1:0:0:0:
377,139,72765,101,0,1:0:0:0:
366,109,72850,1,0,1:0:0:0:
343,90,72936,1,0,1:0:0:0:
319,78,73022,1,0,1:0:0:0:
289,80,73108,5,0,1:0:0:0:
247,87,73194,1,0,1:0:0:0:
205,80,73280,1,0,1:0:0:0:
172,54,73365,1,0,1:0:0:0:
151,18,73451,101,0,1:0:0:0:
192,52,73537,1,2,1:0:0:0:
202,108,73622,1,0,1:0:0:0:
177,159,73708,1,0,1:0:0:0:
127,184,73794,5,8,0:0:0:0:
73,229,73880,1,8,0:0:0:0:
67,299,73965,1,10,0:0:0:0:
110,354,74051,1,8,0:0:0:0:
181,360,74137,101,0,1:0:0:0:
181,360,75508,6,0,P|182:324|180:290,1,57.5
151,219,75680,1,0,0:0:0:0:
151,219,75765,1,0,0:0:0:0:
151,219,75851,2,0,P|187:220|221:218,1,57.5
297,84,76022,101,2,0:0:0:0:
289,93,76108,1,2,0:0:0:0:
281,102,76194,2,0,P|272:131|273:165,1,57.5,0|0,0:0|0:0,0:0:0:0:
478,340,76365,1,0,1:0:0:0:
489,264,76451,1,0,1:0:0:0:
497,189,76537,6,0,P|389:149|372:271,1,258.75000987053,10|0,0:0|0:0,0:0:0:0:
426,218,76880,38,0,B|456:165|456:165|445:44,1,172.5,2|0,1:0|0:0,0:0:0:0:
442,25,77222,1,8,0:0:0:0:
166,109,77394,1,0,0:0:0:0:
206,126,77479,1,0,0:0:0:0:
248,130,77565,1,0,0:0:0:0:
290,121,77651,1,0,0:0:0:0:
328,100,77736,1,0,1:0:0:0:
87,70,77908,2,0,L|81:140,1,57.5,10|0,0:0|0:0,0:0:0:0:
131,295,78080,1,2,0:0:0:0:
359,272,78251,6,0,P|300:242|245:253,1,115,2|0,1:0|0:0,0:0:0:0:
244,263,78508,1,0,0:0:0:0:
234,277,78594,1,8,0:0:0:0:
431,160,78765,1,0,0:0:0:0:
427,143,78851,1,0,0:0:0:0:
423,125,78937,2,0,L|352:115,1,57.5,2|0,0:0|0:0,0:0:0:0:
138,153,79108,1,0,1:0:0:0:
213,66,79280,2,0,B|253:140|253:140|226:231,1,172.5,8|0,0:0|0:0,0:0:0:0:
214,249,79622,102,0,L|341:244,1,115,2|0,1:0|0:0,0:0:0:0:
341,256,79880,1,0,0:0:0:0:
353,268,79965,2,0,L|356:340,1,57.5,8|0,0:0|0:0,0:0:0:0:
430,156,80137,1,2,0:0:0:0:
395,131,80222,1,0,0:0:0:0:
353,119,80308,1,0,0:0:0:0:
310,121,80394,1,0,0:0:0:0:
271,138,80480,2,0,L|334:140,1,57.5,0|0,1:0|0:0,0:0:0:0:
430,37,80651,2,0,L|306:33,1,115,10|0,0:0|0:0,0:0:0:0:
86,63,80994,6,0,P|145:33|200:44,1,115,0|0,1:0|0:0,0:0:0:0:
203,52,81251,1,0,0:0:0:0:
215,64,81337,1,8,0:0:0:0:
142,321,81508,1,0,0:0:0:0:
146,338,81594,1,0,0:0:0:0:
150,355,81680,2,0,P|161:319|162:284,1,57.5,2|0,0:0|0:0,0:0:0:0:
79,227,81851,2,0,P|55:210|38:187,1,57.5,2|0,1:0|0:0,0:0:0:0:
202,139,82022,2,0,P|189:165|187:194,1,57.5,10|0,0:0|0:0,0:0:0:0:
266,271,82194,2,0,P|295:268|321:256,1,57.5,2|0,0:0|0:0,0:0:0:0:
439,188,82365,102,0,B|356:166|356:166|264:187,1,172.5,2|0,1:0|0:0,0:0:0:0:
271,185,82708,1,8,0:0:0:0:
90,327,82880,1,0,0:0:0:0:
129,322,82965,1,0,0:0:0:0:
169,318,83051,1,0,0:0:0:0:
209,314,83137,1,0,0:0:0:0:
248,310,83222,1,0,1:0:0:0:
372,144,83394,2,0,P|355:120|332:103,1,57.5,10|0,0:0|0:0,0:0:0:0:
203,139,83565,2,0,P|188:178|191:211,1,57.5,2|0,0:0|0:0,0:0:0:0:
466,180,83737,6,0,B|384:199|376:144|291:175,1,172.5,2|0,1:0|0:0,0:0:0:0:
271,185,84080,1,8,0:0:0:0:
75,305,84251,1,2,0:0:0:0:
59,313,84337,1,0,0:0:0:0:
44,321,84422,2,0,L|112:334,1,57.5,0|0,0:0|0:0,0:0:0:0:
333,315,84594,1,0,1:0:0:0:
225,275,84765,2,0,P|181:235|192:121,1,172.5,10|0,0:0|0:0,0:0:0:0:
207,109,85108,102,0,P|151:130|79:117,1,115,2|0,1:0|0:0,0:0:0:0:
82,115,85365,1,0,0:0:0:0:
67,105,85451,2,0,P|52:144|55:177,1,57.5,8|0,0:0|0:0,0:0:0:0:
225,275,85622,1,2,0:0:0:0:
182,269,85708,1,0,0:0:0:0:
141,282,85794,1,0,0:0:0:0:
110,311,85880,1,0,0:0:0:0:
94,350,85965,2,0,P|135:343|162:324,1,57.5,0|0,1:0|0:0,0:0:0:0:
318,175,86137,2,0,P|259:165|203:117,1,115,10|0,0:0|0:0,0:0:0:0:
415,19,86480,6,0,L|422:144,1,115,0|0,1:0|0:0,0:0:0:0:
418,150,86737,1,0,0:0:0:0:
415,166,86822,1,8,0:0:0:0:
222,292,86994,1,0,0:0:0:0:
239,289,87080,1,0,0:0:0:0:
255,286,87165,2,0,L|318:282,1,57.5,2|0,0:0|0:0,0:0:0:0:
189,203,87337,2,0,L|126:199,1,57.5,2|0,1:0|0:0,0:0:0:0:
409,277,87508,2,0,L|346:273,1,57.5,10|0,0:0|0:0,0:0:0:0:
36,213,87680,2,0,L|99:209,1,57.5,2|0,0:0|0:0,0:0:0:0:
236,112,87851,102,0,L|38:125,1,172.5,2|0,1:0|0:0,0:0:0:0:
35,127,88194,1,8,0:0:0:0:
155,322,88365,1,0,0:0:0:0:
198,326,88450,1,0,0:0:0:0:
239,314,88536,1,0,0:0:0:0:
274,289,88622,1,0,0:0:0:0:
297,253,88707,1,0,1:0:0:0:
236,112,88880,2,0,P|221:151|224:184,1,57.5,8|0,0:0|0:0,0:0:0:0:
392,273,89051,1,2,0:0:0:0:
399,260,89137,1,2,0:0:0:0:
407,247,89222,6,0,B|351:235|351:235|283:257,1,115,2|0,1:0|0:0,0:0:0:0:
286,267,89480,1,0,0:0:0:0:
276,281,89565,1,8,0:0:0:0:
462,145,89737,1,2,0:0:0:0:
460,127,89822,1,0,0:0:0:0:
458,109,89908,2,0,L|443:170,1,57.5,0|0,0:0|0:0,0:0:0:0:
469,328,90080,1,0,1:0:0:0:
303,328,90251,2,0,B|383:361|388:285|469:328,1,172.5,10|0,0:0|0:0,0:0:0:0:
490,346,90594,102,0,L|502:218,1,115,2|0,1:0|0:0,0:0:0:0:
488,218,90851,1,0,0:0:0:0:
476,205,90937,2,0,L|407:198,1,57.5,8|0,0:0|0:0,0:0:0:0:
250,237,91108,1,0,0:0:0:0:
275,202,91193,1,0,0:0:0:0:
287,161,91280,1,0,0:0:0:0:
282,119,91365,1,0,0:0:0:0:
262,81,91451,2,0,L|250:149,1,57.5,0|0,1:0|0:0,0:0:0:0:
325,356,91622,1,8,0:0:0:0:
180,160,91794,1,2,0:0:0:0:
160,163,91880,1,2,0:0:0:0:
142,166,91965,6,0,P|112:225|123:280,1,115,2|0,1:0|0:0,0:0:0:0:
130,283,92222,1,0,0:0:0:0:
141,295,92308,1,8,0:0:0:0:
402,254,92480,2,0,L|338:241,2,57.5,2|0|0,0:0|0:0|0:0,0:0:0:0:
218,356,92822,1,0,1:0:0:0:
313,136,92994,2,0,P|369:130|418:159,1,115,10|0,0:0|0:0,0:0:0:0:
203,74,93337,102,0,P|239:30|357:24,1,172.5,2|0,1:0|0:0,0:0:0:0:
348,19,93680,1,8,0:0:0:0:
211,204,93851,1,2,0:0:0:0:
170,201,93937,1,0,0:0:0:0:
130,198,94022,1,0,0:0:0:0:
89,196,94108,1,0,0:0:0:0:
48,194,94194,1,0,1:0:0:0:
237,323,94365,2,0,L|360:311,1,115,10|0,0:0|0:0,0:0:0:0:
443,110,94708,6,0,B|477:160|477:160|460:289,1,172.5,0|0,1:0|0:0,0:0:0:0:
456,299,95051,1,8,0:0:0:0:
249,199,95222,1,0,0:0:0:0:
246,181,95308,1,0,0:0:0:0:
243,163,95394,2,0,L|230:234,1,57.5,0|0,0:0|0:0,0:0:0:0:
325,365,95565,1,0,1:0:0:0:
176,275,95737,2,0,B|57:258|57:258|97:300,1,172.5,8|0,0:0|0:0,0:0:0:0:
240,344,96080,102,0,P|268:295|262:239,1,115,0|0,1:0|0:0,0:0:0:0:
254,224,96337,1,0,0:0:0:0:
245,209,96422,2,0,L|307:204,1,57.5,8|0,0:0|0:0,0:0:0:0:
440,311,96594,1,0,0:0:0:0:
445,271,96680,1,0,0:0:0:0:
451,231,96765,1,0,0:0:0:0:
457,191,96851,1,0,0:0:0:0:
463,151,96937,2,0,L|401:146,1,57.5,0|0,1:0|0:0,0:0:0:0:
175,154,97108,1,10,0:0:0:0:
299,33,97280,1,2,1:0:0:0:
25,60,97451,5,10,0:0:0:0:
160,312,97622,1,0,1:0:0:0:
214,28,97794,1,8,0:0:0:0:
101,260,97965,102,0,P|156:233|224:266,1,115,0|0,1:0|1:0,0:0:0:0:
309,349,98394,1,0,1:0:0:0:
318,359,98480,5,8,0:0:0:0:
374,352,98565,1,8,0:0:0:0:
431,346,98651,1,8,0:0:0:0:
488,340,98737,1,8,0:0:0:0:
499,350,98822,6,0,P|488:297|488:281,1,57.5,0|0,0:0|0:0,0:0:0:0:
499,178,99165,1,2,0:0:0:0:
299,147,99337,2,0,B|325:129|325:129|425:134,1,115,0|2,0:0|0:0,0:0:0:0:
408,133,100022,5,2,0:0:0:0:
416,247,100365,1,2,0:0:0:0:
310,200,100708,1,2,0:0:0:0:
408,133,101051,101,2,0:0:0:0:
213,261,101394,1,2,0:0:0:0:
211,246,101480,1,2,0:0:0:0:
209,231,101565,6,0,L|212:169,1,57.5,2|0,0:0|0:0,0:0:0:0:
291,20,101908,1,2,0:0:0:0:
332,96,102080,2,0,P|273:104|220:67,1,115,2|2,0:0|0:0,0:0:0:0:
227,76,102765,101,2,0:0:0:0:
214,190,103108,1,2,0:0:0:0:
202,304,103451,1,2,0:0:0:0:
227,76,103794,5,2,0:0:0:0:
108,177,103965,1,2,0:0:0:0:
202,304,104137,1,2,0:0:0:0:
270,201,104308,102,0,P|217:190|201:190,1,57.5,2|0,0:0|0:0,0:0:0:0:
103,334,104651,1,2,0:0:0:0:
213,189,104822,2,0,P|265:163|322:159,1,115,2|2,0:0|0:0,0:0:0:0:
103,334,105508,6,0,P|110:278|108:216,1,115,2|2,0:0|0:0,0:0:0:0:
275,86,106194,2,0,P|268:142|270:204,1,115,2|2,0:0|0:0,0:0:0:0:
405,274,106880,1,2,0:0:0:0:
405,274,107051,102,0,L|394:159,1,115,2|2,0:0|0:0,0:0:0:0:
405,45,107565,2,0,L|394:171,1,115,2|2,0:0|0:0,0:0:0:0:
106,274,108251,6,0,L|117:148,1,115,2|2,0:0|0:0,0:0:0:0:
107,45,108937,2,0,L|118:171,1,115,2|2,0:0|0:0,0:0:0:0:
237,283,109451,1,2,0:0:0:0:
280,57,109622,5,2,0:0:0:0:
