osu file format v14

[General]
AudioFilename: audio.mp3
AudioLeadIn: 0
PreviewTime: 350
Countdown: 0
SampleSet: Soft
StackLeniency: 0.5
Mode: 0
LetterboxInBreaks: 0
WidescreenStoryboard: 0

[Editor]
Bookmarks: 11321,24864,35835,46978,57950,68921,79550,79892,90864,101835,112807,113150
DistanceSpacing: 1
BeatDivisor: 4
GridSize: 32
TimelineZoom: 2.4

[Metadata]
Title:Sakura Fubuki
TitleUnicode:Sakura Fubuki
Artist:Street
ArtistUnicode:Street
Creator:eiri-
Version:Normal
Source:Muse Dash
Tags:Ayyri Trynna Instrumental Electronic Video Game Drumstep Drum and Bass DnB 大血戦 THE BMS OF FIGHTERS ULTIMATE BOFU2015 maimai MURASAKi Dynamix Artcore CHUNITHM AIR
BeatmapID:2504507
BeatmapSetID:1202610

[Difficulty]
HPDrainRate:3.5
CircleSize:3
OverallDifficulty:4.5
ApproachRate:6
SliderMultiplier:1
SliderTickRate:0.5

[Events]
//Background and Video events
0,0,"Sakura Fubuki.jpg",0,0
//Break Periods
//Storyboard Layer 0 (Background)
//Storyboard Layer 1 (Fail)
//Storyboard Layer 2 (Pass)
//Storyboard Layer 3 (Foreground)
//Storyboard Layer 4 (Overlay)
//Storyboard Sound Samples

[TimingPoints]
350,342.857142857143,4,2,1,50,1,0
11321,-100,4,2,1,60,0,0
16807,-100,4,2,1,75,0,0
19550,-100,4,2,1,60,0,0
20578,-100,4,2,1,75,0,0
20921,-100,4,2,1,80,0,0
21950,-100,4,2,1,75,0,0
22292,-100,4,2,1,80,0,0
24350,-100,4,2,1,60,0,0
24864,-100,4,2,1,90,0,0
25378,-100,4,2,1,75,0,0
30350,-100,4,2,1,90,0,0
30864,-100,4,2,1,75,0,0
34464,-100,4,2,1,90,0,0
35835,-100,4,2,1,90,0,0
36350,-100,4,2,1,75,0,0
41321,-100,4,2,1,90,0,0
41835,-100,4,2,1,75,0,0
46978,-100,4,2,1,50,0,0
57950,-100,4,2,1,60,0,0
63435,-100,4,2,1,75,0,0
67550,-100,4,2,1,80,0,0
68407,-100,4,2,1,75,0,0
68921,-100,4,2,1,90,0,1
79550,-100,4,2,1,90,0,0
79892,-100,4,2,1,90,0,1
90864,-100,4,2,1,50,0,0
112807,-100,4,2,1,75,0,1
112828,-100,4,2,1,5,0,0

[Colours]
Combo1 : 101,181,239
Combo2 : 227,154,245
Combo3 : 247,149,166
Combo4 : 248,200,109
Combo5 : 109,235,113

[HitObjects]
64,96,350,5,6,0:0:0:0:
64,96,2407,5,2,0:0:0:0:
206,143,2921,1,2,0:0:0:0:
206,143,5835,5,2,0:0:0:0:
206,143,7892,5,2,0:0:0:0:
348,96,8406,1,2,0:0:0:0:
348,96,11321,6,0,L|463:105,1,100,10|2,3:2|3:2,0:0:0:0:
496,91,11835,1,0,3:0:0:0:
496,91,12007,2,0,L|503:157,1,50,2|0,3:2|3:0,0:0:0:0:
487,188,12350,1,2,3:2:0:0:
511,284,12692,6,0,P|483:321|418:317,1,100,2|2,3:2|3:2,0:0:0:0:
361,254,13378,2,0,L|299:262,2,50,2|2|2,3:2|3:2|3:2,0:0:0:0:
385,212,13892,1,2,3:2:0:0:
385,212,14064,6,0,L|367:100,1,100,2|2,3:2|3:2,0:0:0:0:
274,145,14750,2,0,L|292:33,1,100,2|2,3:2|3:2,0:0:0:0:
264,9,15264,1,2,3:2:0:0:
264,9,15435,6,0,L|150:27,1,100,2|2,3:2|3:2,0:0:0:0:
107,107,16121,1,2,3:2:0:0:
107,107,16292,2,0,L|46:101,2,50,2|2|2,3:2|3:2|3:2,0:0:0:0:
135,148,16807,5,10,0:0:0:0:
159,245,17150,1,10,0:0:0:0:
256,221,17492,1,10,0:0:0:0:
232,124,17835,1,10,0:0:0:0:
304,55,18178,6,0,L|365:64,1,50,10|8,0:0|0:0,0:0:0:0:
397,86,18521,2,0,P|395:122|373:140,1,50,10|8,0:0|0:0,0:0:0:0:
349,164,18864,2,0,L|356:234,1,50,10|8,0:0|0:0,0:0:0:0:
368,271,19207,1,10,0:0:0:0:
278,315,19550,6,0,P|184:281|65:281,1,200,10|8,0:0|0:0,0:0:0:0:
20,201,20578,1,2,1:2:0:0:
107,152,20921,6,0,L|89:91,1,50,6|10,1:2|0:0,0:0:0:0:
59,66,21264,2,0,L|77:5,1,50,6|10,1:2|0:0,0:0:0:0:
120,2,21607,1,6,1:2:0:0:
207,50,21950,2,0,L|275:42,1,50,10|10,0:0|0:0,0:0:0:0:
310,44,22292,5,6,1:2:0:0:
310,44,22464,1,6,1:2:0:0:
364,134,22807,5,6,1:2:0:0:
364,134,22979,1,6,1:2:0:0:
310,224,23320,5,6,1:2:0:0:
310,224,23492,1,6,1:2:0:0:
364,314,23835,5,6,1:2:0:0:
364,314,24007,1,6,1:2:0:0:
456,275,24350,6,0,L|463:204,1,50,2|8,1:2|0:0,0:0:0:0:
447,182,24692,1,2,1:2:0:0:
447,182,24864,6,0,B|403:166|403:166|419:44,1,150,14|2,0:0|0:0,0:0:0:0:
328,16,25721,1,2,1:2:0:0:
251,81,26064,2,0,L|179:73,1,50,10|0,0:0|0:0,0:0:0:0:
156,97,26407,5,10,0:0:0:0:
63,58,26750,2,0,P|46:91|40:122,1,50,2|10,1:2|0:0,0:0:0:0:
59,155,27092,1,2,1:2:0:0:
59,155,27264,2,0,P|106:179|111:243,1,100,10|10,0:0|0:0,0:0:0:0:
104,270,27778,5,10,0:0:0:0:
163,350,28121,2,0,L|218:341,1,50,2|10,0:0|0:0,0:0:0:0:
256,366,28464,1,2,1:2:0:0:
359,346,28807,1,2,0:1:0:0:
359,346,28978,1,2,0:1:0:0:
359,346,29150,6,0,P|385:311|386:246,1,100,10|10,0:0|0:0,0:0:0:0:
369,163,29835,1,2,1:2:0:0:
369,163,30007,2,0,L|312:170,1,50,10|2,0:0|1:2,0:0:0:0:
285,205,30350,6,0,P|251:180|182:158,1,100,14|0,0:0|0:0,0:0:0:0:
148,173,30864,2,0,L|138:230,1,50,10|10,0:0|0:0,0:0:0:0:
155,269,31207,1,2,1:2:0:0:
72,325,31550,2,0,P|34:317|22:307,1,50,10|10,0:0|0:0,0:0:0:0:
9,263,31892,5,2,1:2:0:0:
53,173,32235,2,0,L|43:116,1,50,10|0,0:0|0:0,0:0:0:0:
36,74,32578,1,2,1:2:0:0:
125,23,32921,1,10,0:0:0:0:
125,23,33092,1,10,0:0:0:0:
125,23,33264,6,0,L|237:46,1,100,10|2,0:0|1:2,0:0:0:0:
319,15,33950,2,0,L|326:82,1,50,2|2,1:2|0:1,0:0:0:0:
356,110,34292,1,2,1:0:0:0:
356,110,34464,6,0,P|388:88|453:78,1,100,14|0,0:0|0:0,0:0:0:0:
496,164,35150,2,0,L|489:231,1,50,14|2,0:0|1:2,0:0:0:0:
459,259,35492,2,0,L|466:326,1,50,14|2,0:0|1:2,0:0:0:0:
496,354,35835,6,0,B|442:363|442:363|399:349|399:349|346:354,1,150,14|2,0:0|0:0,0:0:0:0:
268,295,36692,1,2,1:2:0:0:
186,352,37035,2,0,L|114:344,1,50,10|0,0:0|0:0,0:0:0:0:
91,368,37378,5,10,0:0:0:0:
23,294,37721,2,0,P|37:259|57:235,1,50,2|10,1:2|0:0,0:0:0:0:
95,229,38063,1,2,1:2:0:0:
95,229,38235,2,0,L|72:119,1,100,10|10,0:0|0:0,0:0:0:0:
92,84,38749,5,10,0:0:0:0:
182,126,39092,2,0,L|237:117,1,50,2|10,0:0|0:0,0:0:0:0:
275,142,39435,1,2,1:2:0:0:
358,85,39778,1,2,0:1:0:0:
358,85,39949,1,2,0:1:0:0:
358,85,40121,6,0,P|403:103|432:144,1,100,10|10,0:0|0:0,0:0:0:0:
474,240,40806,1,2,1:2:0:0:
474,240,40978,2,0,L|417:247,1,50,10|2,0:0|1:2,0:0:0:0:
376,261,41321,6,0,P|342:236|273:214,1,100,14|0,0:0|0:0,0:0:0:0:
239,229,41835,2,0,L|229:286,1,50,10|10,0:0|0:0,0:0:0:0:
246,325,42178,1,2,1:2:0:0:
154,364,42521,2,0,P|122:349|96:346,1,50,10|10,0:0|0:0,0:0:0:0:
58,354,42864,5,2,1:2:0:0:
1,272,43207,1,10,0:0:0:0:
78,209,43550,2,0,L|68:152,1,50,2|10,1:2|0:0,0:0:0:0:
39,119,43892,1,10,0:0:0:0:
95,36,44235,6,0,L|208:49,1,100,10|2,0:0|1:2,0:0:0:0:
246,36,44749,1,10,0:0:0:0:
246,36,44921,2,0,L|253:103,1,50,2|2,1:2|0:1,0:0:0:0:
235,133,45263,1,2,1:0:0:0:
310,199,45607,6,0,P|368:179|372:138,1,100,10|2,0:0|0:0,0:0:0:0:
336,54,46292,2,0,L|405:44,1,50,2|10,0:0|0:0,0:0:0:0:
428,20,46635,2,0,P|465:29|476:36,1,50,2|2,1:2|1:2,0:0:0:0:
497,79,46978,5,14,0:0:0:0:
497,79,48178,5,2,0:0:0:0:
497,79,49550,5,2,0:0:0:0:
497,79,50921,5,2,0:0:0:0:
497,79,52464,5,2,0:0:0:0:
497,79,53664,5,2,0:0:0:0:
497,79,55035,5,2,0:0:0:0:
497,79,56407,5,2,0:0:0:0:
497,79,57950,6,0,P|445:91|429:190,1,150,10|2,0:0|0:0,0:0:0:0:
465,265,58807,1,2,0:0:0:0:
377,313,59150,2,0,L|389:385,2,50,2|10|2,0:0|0:0|0:0,0:0:0:0:
290,274,59835,1,2,0:0:0:0:
290,274,60007,2,0,L|302:202,1,50,2|10,1:2|0:0,0:0:0:0:
267,135,60521,1,2,0:0:0:0:
267,135,60692,6,0,P|229:113|163:106,1,100,10|0,0:0|0:0,0:0:0:0:
82,140,61378,1,2,1:2:0:0:
82,140,61550,2,0,P|95:179|105:248,1,100,2|2,0:0|0:0,0:0:0:0:
145,266,62064,2,0,P|208:245|262:240,1,100,10|0,0:0|0:0,0:0:0:0:
344,256,62750,1,2,1:2:0:0:
344,256,62921,2,0,L|330:358,1,100,10|2,0:0|0:0,0:0:0:0:
377,372,63435,5,10,0:0:0:0:
474,347,63778,1,10,0:0:0:0:
449,250,64121,1,10,0:0:0:0:
352,275,64464,2,0,L|300:261,1,50,10|2,0:0|0:0,0:0:0:0:
255,277,64807,5,10,0:0:0:0:
214,188,65150,1,10,0:0:0:0:
116,211,65492,2,0,L|59:203,1,50,10|8,0:0|0:0,0:0:0:0:
40,161,65835,2,0,P|32:124|39:106,1,50,10|8,0:0|0:0,0:0:0:0:
62,71,66178,5,10,0:0:0:0:
157,100,66521,1,10,0:0:0:0:
234,35,66864,1,10,0:0:0:0:
234,35,67035,1,8,0:0:0:0:
234,35,67207,2,0,L|287:41,1,50,2|2,1:2|1:2,0:0:0:0:
330,23,67550,5,6,1:2:0:0:
348,120,67892,1,6,1:2:0:0:
366,217,68235,2,0,L|356:288,1,50,6|10,1:2|0:0,0:0:0:0:
351,316,68578,1,2,1:2:0:0:
438,365,68921,6,0,P|486:343|489:286,2,100,14|2|2,0:0|1:2|0:0,0:0:0:0:
395,349,69778,1,10,0:0:0:0:
395,349,69950,1,2,1:2:0:0:
297,367,70292,2,0,P|240:348|227:347,1,50,10|2,0:0|0:0,0:0:0:0:
203,367,70635,2,0,L|183:245,1,100,2|2,1:2|0:0,0:0:0:0:
229,179,71321,1,2,1:2:0:0:
229,179,71492,6,0,P|208:155|128:129,1,100,2|2,0:0|0:0,0:0:0:0:
100,150,72007,1,2,1:2:0:0:
12,101,72350,2,0,L|26:36,1,50,2|10,0:0|0:0,0:0:0:0:
58,17,72692,1,2,1:2:0:0:
58,17,72864,2,0,P|109:32|171:34,1,100,2|2,0:0|0:0,0:0:0:0:
204,25,73378,1,2,1:2:0:0:
258,109,73721,2,0,L|244:180,1,50,2|10,0:0|0:0,0:0:0:0:
261,206,74064,1,2,1:2:0:0:
179,263,74407,6,0,L|74:254,1,100,14|2,0:0|1:2,0:0:0:0:
35,277,74921,1,2,0:0:0:0:
108,352,75264,1,10,0:0:0:0:
108,352,75435,2,0,L|176:340,1,50,2|2,1:2|0:0,0:0:0:0:
192,307,75778,6,0,P|239:330|272:376,1,100,10|2,0:0|1:2,0:0:0:0:
317,372,76292,1,2,0:0:0:0:
351,278,76635,2,0,L|338:214,1,50,10|2,0:0|1:2,0:0:0:0:
359,182,76978,6,0,L|479:195,1,100,2|2,0:0|0:0,0:0:0:0:
496,101,77664,2,0,P|485:64|429:39,1,100,2|10,0:0|0:0,0:0:0:0:
390,66,78178,1,2,1:2:0:0:
390,66,78350,6,0,L|280:48,1,100,2|2,0:0|0:0,0:0:0:0:
245,70,78864,2,0,L|252:127,1,50,2|2,1:2|0:0,0:0:0:0:
238,168,79207,1,2,0:0:0:0:
320,225,79550,2,0,L|313:282,1,50,6|2,1:2|1:2,0:0:0:0:
337,324,79893,5,14,0:0:0:0:
337,324,80064,2,0,L|405:311,2,50,2|2|2,0:0|1:2|0:0,0:0:0:0:
303,361,80578,1,2,0:0:0:0:
209,324,80921,1,2,1:2:0:0:
209,324,81092,6,0,L|97:303,1,100,2|2,0:0|0:0,0:0:0:0:
65,322,81607,1,2,1:2:0:0:
27,235,81950,1,2,0:0:0:0:
27,235,82121,2,0,P|47:202|47:178,1,50,10|2,0:0|1:2,0:0:0:0:
44,145,82464,1,2,0:0:0:0:
44,145,82635,6,0,P|94:122|149:123,1,100,10|2,0:0|1:2,0:0:0:0:
183,142,83150,1,2,0:0:0:0:
282,116,83492,1,10,0:0:0:0:
282,116,83664,2,0,L|270:52,1,50,2|2,1:2|0:0,0:0:0:0:
287,18,84007,5,10,0:0:0:0:
188,35,84350,2,0,L|78:19,1,100,2|2,1:2|0:0,0:0:0:0:
48,49,84864,1,10,0:0:0:0:
48,49,85035,2,0,L|55:109,1,50,2|2,1:2|0:0,0:0:0:0:
84,138,85378,6,0,L|71:251,1,100,14|2,0:0|1:2,0:0:0:0:
65,287,85892,1,2,0:0:0:0:
164,261,86235,1,10,0:0:0:0:
164,261,86407,2,0,L|230:269,1,50,2|2,1:2|0:0,0:0:0:0:
260,250,86750,6,0,P|299:282|327:328,1,100,10|2,0:0|1:2,0:0:0:0:
369,347,87264,1,2,0:0:0:0:
446,284,87607,2,0,L|457:224,1,50,10|2,0:0|1:2,0:0:0:0:
437,187,87950,1,2,0:0:0:0:
437,187,88121,6,0,L|461:136,2,50,10|10|2,0:0|0:0|1:2,0:0:0:0:
386,190,88635,1,10,0:0:0:0:
308,135,88978,1,10,0:0:0:0:
308,135,89150,2,0,L|239:144,1,50,2|2,1:2|1:2,0:0:0:0:
218,171,89492,5,6,1:2:0:0:
256,263,89835,1,6,1:2:0:0:
194,341,90178,2,0,L|125:332,1,50,6|10,1:2|0:0,0:0:0:0:
104,305,90521,2,0,L|35:314,1,50,2|2,1:2|0:0,0:0:0:0:
18,346,90864,5,14,0:0:0:0:
18,346,92064,5,2,0:0:0:0:
18,346,93435,5,2,0:0:0:0:
18,346,94807,5,2,0:0:0:0:
18,346,96350,5,2,0:0:0:0:
18,346,97550,5,2,0:0:0:0:
18,346,98921,5,2,0:0:0:0:
18,346,100292,5,2,0:0:0:0:
494,346,101835,5,6,0:0:0:0:
494,346,103035,5,2,0:0:0:0:
494,346,104406,5,2,0:0:0:0:
494,346,105778,5,2,0:0:0:0:
494,346,107321,5,2,0:0:0:0:
494,346,108521,5,2,0:0:0:0:
494,346,109892,5,2,0:0:0:0:
494,346,111263,5,2,0:0:0:0:
494,346,112464,2,0,L|438:337,1,50,2|2,0:0|0:0,0:0:0:0:
396,353,112807,6,0,L|414:240,1,100,14|0,0:0|0:0,0:0:0:0:
