osu file format v14

[General]
AudioFilename: audio.mp3
AudioLeadIn: 0
PreviewTime: 350
Countdown: 0
SampleSet: Soft
StackLeniency: 0.5
Mode: 0
LetterboxInBreaks: 0
WidescreenStoryboard: 0

[Editor]
Bookmarks: 11321,24864,35835,46978,57950,68921,79550,79892,90864,101835,112807,113150
DistanceSpacing: 1
BeatDivisor: 4
GridSize: 32
TimelineZoom: 2.4

[Metadata]
Title:Sakura Fubuki
TitleUnicode:Sakura Fubuki
Artist:Street
ArtistUnicode:Street
Creator:eiri-
Version:Insane
Source:Muse Dash
Tags:Ayyri Trynna Instrumental Electronic Video Game Drumstep Drum and Bass DnB 大血戦 THE BMS OF FIGHTERS ULTIMATE BOFU2015 maimai MURASAKi Dynamix Artcore CHUNITHM AIR
BeatmapID:2504506
BeatmapSetID:1202610

[Difficulty]
HPDrainRate:5
CircleSize:4
OverallDifficulty:8
ApproachRate:9
SliderMultiplier:1.4
SliderTickRate:0.5

[Events]
//Background and Video events
0,0,"Sakura Fubuki.jpg",0,0
//Break Periods
//Storyboard Layer 0 (Background)
//Storyboard Layer 1 (Fail)
//Storyboard Layer 2 (Pass)
//Storyboard Layer 3 (Foreground)
//Storyboard Layer 4 (Overlay)
//Storyboard Sound Samples

[TimingPoints]
350,342.857142857143,4,2,1,50,1,0
350,-200,4,2,1,50,0,0
11321,-133.333333333333,4,2,1,60,0,0
16807,-100,4,2,1,75,0,0
19550,-133.333333333333,4,2,1,60,0,0
20578,-133.333333333333,4,2,1,75,0,0
20921,-133.333333333333,4,2,1,80,0,0
21950,-133.333333333333,4,2,1,75,0,0
22292,-133.333333333333,4,2,1,80,0,0
24350,-133.333333333333,4,2,1,60,0,0
24864,-100,4,2,1,90,0,0
25378,-100,4,2,1,75,0,0
30350,-100,4,2,1,90,0,0
30864,-100,4,2,1,75,0,0
34464,-100,4,2,1,90,0,0
35835,-100,4,2,1,90,0,0
36350,-100,4,2,1,75,0,0
41321,-100,4,2,1,90,0,0
41835,-100,4,2,1,75,0,0
46978,-200,4,2,1,50,0,0
57950,-133.333333333333,4,2,1,60,0,0
63435,-133.333333333333,4,2,1,75,0,0
67550,-133.333333333333,4,2,1,80,0,0
68407,-133.333333333333,4,2,1,75,0,0
68921,-66.6666666666667,4,2,1,90,0,1
79550,-66.6666666666667,4,2,1,90,0,0
79892,-66.6666666666667,4,2,1,90,0,1
90864,-200,4,2,1,50,0,0
112807,-200,4,2,1,75,0,1
112828,-200,4,2,1,5,0,0

[Colours]
Combo1 : 101,181,239
Combo2 : 227,154,245
Combo3 : 247,149,166
Combo4 : 248,200,109
Combo5 : 109,235,113

[HitObjects]
448,64,350,6,0,L|399:71,1,35,6|0,0:0|0:0,0:0:0:0:
448,64,2407,6,0,L|399:71,1,35,2|0,0:0|0:0,0:0:0:0:
314,119,2921,2,0,L|265:112,1,35,2|0,0:0|0:0,0:0:0:0:
314,119,5835,6,0,L|265:112,1,35,2|0,0:0|0:0,0:0:0:0:
314,119,7892,6,0,L|265:112,1,35,2|0,0:0|0:0,0:0:0:0:
180,64,8406,2,0,L|131:71,1,35,2|0,0:0|0:0,0:0:0:0:
180,64,11322,5,10,3:2:0:0:
191,69,11407,1,0,3:0:0:0:
202,77,11493,1,0,3:0:0:0:
211,87,11579,1,0,3:0:0:0:
217,98,11664,2,0,L|213:147,2,26.2500010013581,2|0|0,3:2|3:0|3:0,0:0:0:0:
118,130,12007,5,2,3:2:0:0:
107,135,12092,1,0,3:0:0:0:
96,143,12178,1,0,3:0:0:0:
87,153,12264,1,0,3:0:0:0:
81,164,12349,2,0,L|85:213,2,26.2500010013581,2|0|0,3:2|3:0|3:0,0:0:0:0:
180,196,12693,5,2,3:2:0:0:
191,201,12778,1,0,3:0:0:0:
202,209,12864,1,0,3:0:0:0:
211,219,12950,1,0,3:0:0:0:
217,230,13035,2,0,L|213:279,2,26.2500010013581,2|0|0,3:2|3:0|3:0,0:0:0:0:
303,145,13378,5,2,3:2:0:0:
393,181,13550,2,0,L|436:176,1,26.2500010013581,2|0,3:2|3:0,0:0:0:0:
413,191,13721,2,0,L|456:186,1,26.2500010013581,2|0,3:2|3:0,0:0:0:0:
400,270,13892,1,2,3:2:0:0:
352,79,14064,5,2,3:2:0:0:
365,81,14150,1,0,3:0:0:0:
378,83,14235,1,0,3:0:0:0:
391,85,14322,1,0,3:0:0:0:
404,87,14407,2,0,L|447:94,2,26.2500010013581,2|0|0,3:2|3:0|3:0,0:0:0:0:
263,150,14750,5,2,3:2:0:0:
250,152,14836,1,0,3:0:0:0:
237,154,14921,1,0,3:0:0:0:
224,156,15008,1,0,3:0:0:0:
211,158,15093,2,0,L|168:165,1,26.2500010013581,2|0,3:2|3:0,0:0:0:0:
320,224,15264,1,2,3:2:0:0:
331,69,15435,6,0,L|342:23,2,26.2500010013581,2|0|0,3:2|3:0|3:0,0:0:0:0:
222,41,15778,2,0,L|195:1,3,26.2500010013581,2|0|0|0,3:2|3:0|3:0|3:0,0:0:0:0:
159,15,16121,1,2,3:2:0:0:
99,108,16292,6,0,L|56:115,1,26.2500010013581,2|0,3:2|3:0,0:0:0:0:
169,152,16464,2,0,L|212:159,1,26.2500010013581,2|0,3:2|3:0,0:0:0:0:
99,196,16635,2,0,L|56:203,1,26.2500010013581,2|0,3:2|3:0,0:0:0:0:
169,240,16807,5,10,0:0:0:0:
274,210,16978,1,0,0:0:0:0:
246,335,17150,1,10,0:0:0:0:
141,365,17321,1,0,0:0:0:0:
183,248,17492,5,10,0:0:0:0:
288,218,17663,1,0,0:0:0:0:
260,343,17835,1,10,0:0:0:0:
155,373,18006,1,2,0:0:0:0:
197,256,18178,5,10,0:0:0:0:
239,356,18350,1,8,0:0:0:0:
93,278,18521,1,10,0:0:0:0:
135,178,18693,1,8,0:0:0:0:
315,256,18864,5,10,0:0:0:0:
273,356,19036,1,8,0:0:0:0:
419,278,19207,1,10,0:0:0:0:
377,178,19379,1,8,0:0:0:0:
256,256,19550,6,0,L|256:224,3,26.2500010013581,10|8|8|8,0:0|0:0|0:0|0:0,0:0:0:0:
256,216,19892,2,0,L|256:184,3,26.2500010013581,8|8|8|8,0:0|0:0|0:0|0:0,0:0:0:0:
256,172,20235,2,0,L|256:140,3,26.2500010013581,8|8|8|8,0:0|0:0|0:0|0:0,0:0:0:0:
256,112,20578,1,2,1:2:0:0:
256,92,20664,1,2,1:2:0:0:
256,74,20750,1,2,1:2:0:0:
256,56,20835,1,2,1:2:0:0:
256,38,20921,6,0,P|278:24|325:18,1,52.5000020027161,6|10,1:2|0:0,0:0:0:0:
382,118,21178,1,10,0:0:0:0:
382,118,21264,2,0,P|356:111|334:97,1,52.5000020027161,6|10,1:2|0:0,0:0:0:0:
448,64,21521,1,10,0:0:0:0:
451,76,21607,1,6,1:2:0:0:
476,71,21692,1,10,0:0:0:0:
502,67,21778,1,10,0:0:0:0:
469,206,21950,1,10,0:0:0:0:
444,201,22035,1,10,0:0:0:0:
418,197,22121,2,0,L|423:243,1,26.2500010013581,10|10,0:0|0:0,0:0:0:0:
431,366,22292,5,6,1:2:0:0:
256,350,22464,1,6,1:2:0:0:
256,350,22807,5,6,1:2:0:0:
431,334,22979,1,6,1:2:0:0:
431,334,23321,5,6,1:2:0:0:
256,318,23493,1,6,1:2:0:0:
256,318,23835,5,6,1:2:0:0:
431,302,24007,1,6,1:2:0:0:
431,302,24350,6,0,P|442:252|450:228,1,52.5000020027161,2|8,1:2|0:0,0:0:0:0:
482,184,24607,1,10,0:0:0:0:
482,184,24692,2,0,L|474:136,1,26.2500010013581,2|2,1:2|1:2,0:0:0:0:
467,45,24864,6,0,B|467:67|448:85|448:85|358:107|388:11|268:43,1,210,14|2,0:0|0:0,0:0:0:0:
163,84,25550,1,10,0:0:0:0:
171,96,25635,1,10,0:0:0:0:
202,75,25721,2,0,P|194:32|173:2,1,70,2|10,1:2|0:0,0:0:0:0:
68,54,25978,1,10,0:0:0:0:
68,54,26064,2,0,B|27:43|3:61|3:61|42:91,1,105,10|0,0:0|0:0,0:0:0:0:
103,137,26407,5,10,0:0:0:0:
249,100,26578,1,10,0:0:0:0:
249,100,26664,1,10,0:0:0:0:
249,100,26750,2,0,L|241:159,1,35,2|0,1:2|0:0,0:0:0:0:
173,44,26921,2,0,L|165:-15,1,35,10|0,0:0|0:0,0:0:0:0:
199,202,27092,1,2,1:2:0:0:
319,190,27264,2,0,P|265:181|173:181,1,140,10|10,0:0|0:0,0:0:0:0:
105,202,27692,1,10,0:0:0:0:
96,211,27778,6,0,B|148:249|148:249|127:345,1,140,10|2,0:0|0:0,0:0:0:0:
261,285,28292,1,10,0:0:0:0:
291,266,28378,1,10,0:0:0:0:
288,219,28464,1,2,1:2:0:0:
252,92,28635,1,10,0:0:0:0:
252,92,28721,1,10,0:0:0:0:
252,92,28807,2,0,L|266:42,1,35,2|2,0:1|0:1,0:0:0:0:
377,90,28978,2,0,L|367:123,1,35,2|2,0:1|0:1,0:0:0:0:
341,14,29150,6,0,L|453:10,1,105,10|0,0:0|0:0,0:0:0:0:
510,71,29492,1,10,0:0:0:0:
509,80,29578,1,10,0:0:0:0:
508,89,29664,1,10,0:0:0:0:
507,98,29750,1,10,0:0:0:0:
484,132,29835,1,2,1:2:0:0:
377,90,30007,1,10,0:0:0:0:
403,240,30178,1,2,1:2:0:0:
403,240,30264,1,2,1:2:0:0:
403,240,30350,6,0,B|428:209|418:173|418:173|348:235|261:189,1,210,14|10,0:0|0:0,0:0:0:0:
275,193,30950,1,10,0:0:0:0:
263,184,31035,1,10,0:0:0:0:
252,173,31121,1,10,0:0:0:0:
245,157,31207,1,2,1:2:0:0:
331,100,31378,1,10,0:0:0:0:
294,8,31550,2,0,L|303:96,1,70,10|10,0:0|0:0,0:0:0:0:
360,138,31807,1,10,0:0:0:0:
358,150,31892,6,0,L|349:238,1,70,2|10,1:2|0:0,0:0:0:0:
335,326,32150,1,10,0:0:0:0:
336,317,32235,2,0,P|288:270|206:274,1,140,10|2,0:0|1:2,0:0:0:0:
75,322,32750,1,10,0:0:0:0:
17,256,32921,1,10,0:0:0:0:
144,232,33092,1,10,0:0:0:0:
144,232,33178,1,10,0:0:0:0:
144,232,33264,6,0,L|171:110,1,105,10|0,0:0|0:0,0:0:0:0:
193,37,33607,2,0,B|103:54,1,70,2|10,1:2|0:0,0:0:0:0:
90,46,33864,1,10,0:0:0:0:
52,71,33950,1,2,1:2:0:0:
74,173,34121,1,2,0:1:0:0:
77,182,34207,1,2,0:1:0:0:
71,222,34292,1,2,1:0:0:0:
164,351,34464,6,0,P|176:308|221:215,1,140,14|0,0:0|0:0,0:0:0:0:
401,204,34978,1,2,0:1:0:0:
401,204,35064,1,2,0:1:0:0:
401,204,35150,6,0,P|389:161|369:113,1,70,14|2,0:0|1:2,0:0:0:0:
473,282,35492,2,0,P|494:243|514:195,1,70,14|2,0:0|1:2,0:0:0:0:
251,247,35835,6,0,B|205:248|189:211|189:211|237:77,1,210,14|2,0:0|0:0,0:0:0:0:
396,60,36521,1,10,0:0:0:0:
408,52,36606,1,10,0:0:0:0:
387,21,36692,2,0,P|344:29|314:50,1,70,2|10,1:2|0:0,0:0:0:0:
371,168,36949,1,10,0:0:0:0:
371,168,37035,2,0,B|392:204|421:209|421:209|415:160,1,105,10|0,0:0|0:0,0:0:0:0:
404,85,37378,5,10,0:0:0:0:
249,125,37549,1,10,0:0:0:0:
249,125,37635,1,10,0:0:0:0:
249,125,37721,2,0,L|241:184,1,35,2|0,1:2|0:0,0:0:0:0:
173,69,37892,2,0,L|165:10,1,35,10|0,0:0|0:0,0:0:0:0:
199,227,38063,1,2,1:2:0:0:
169,148,38235,2,0,P|160:202|160:294,1,140,10|10,0:0|0:0,0:0:0:0:
241,340,38663,1,10,0:0:0:0:
247,348,38749,6,0,B|285:296|285:296|381:317,1,140,10|2,0:0|0:0,0:0:0:0:
468,341,39263,1,10,0:0:0:0:
498,322,39349,1,10,0:0:0:0:
495,275,39435,1,2,1:2:0:0:
371,165,39606,1,10,0:0:0:0:
371,165,39692,1,10,0:0:0:0:
371,165,39778,2,0,L|385:115,1,35,2|2,0:1|0:1,0:0:0:0:
496,163,39949,2,0,L|486:196,1,35,2|2,0:1|0:1,0:0:0:0:
421,50,40121,6,0,L|304:64,1,105,10|0,0:0|0:0,0:0:0:0:
225,76,40463,1,10,0:0:0:0:
226,85,40549,1,10,0:0:0:0:
227,94,40635,1,10,0:0:0:0:
228,103,40721,1,10,0:0:0:0:
251,137,40806,1,2,1:2:0:0:
306,23,40978,1,10,0:0:0:0:
364,183,41149,1,2,1:2:0:0:
364,183,41235,1,2,1:2:0:0:
364,183,41321,6,0,B|381:131|381:131|398:296,1,210,14|10,0:0|0:0,0:0:0:0:
358,348,41921,1,10,0:0:0:0:
346,339,42006,1,10,0:0:0:0:
335,328,42092,1,10,0:0:0:0:
328,312,42178,1,2,1:2:0:0:
496,273,42349,1,10,0:0:0:0:
414,190,42521,2,0,L|326:181,1,70,10|10,0:0|0:0,0:0:0:0:
257,175,42778,1,10,0:0:0:0:
255,187,42863,6,0,L|246:275,1,70,2|10,1:2|0:0,0:0:0:0:
287,348,43121,1,10,0:0:0:0:
288,339,43207,2,0,P|240:292|158:296,1,140,10|2,0:0|1:2,0:0:0:0:
30,336,43721,1,10,0:0:0:0:
105,367,43892,1,10,0:0:0:0:
138,208,44063,1,10,0:0:0:0:
138,208,44149,1,10,0:0:0:0:
138,208,44235,6,0,L|111:86,1,105,10|0,0:0|0:0,0:0:0:0:
98,20,44578,2,0,B|188:37,1,70,2|10,1:2|0:0,0:0:0:0:
201,29,44835,1,10,0:0:0:0:
239,54,44921,1,2,1:2:0:0:
174,162,45092,1,2,0:1:0:0:
171,171,45178,1,2,0:1:0:0:
177,211,45263,1,2,1:0:0:0:
320,191,45435,5,10,0:0:0:0:
324,200,45492,5,10,0:0:0:0:
328,208,45549,5,10,0:0:0:0:
332,216,45607,6,0,B|422:199,1,70,10|0,0:0|0:0,0:0:0:0:
414,299,45950,2,0,B|324:316,1,70,2|0,0:0|0:0,0:0:0:0:
320,191,46292,2,0,B|410:174,1,70,2|10,0:0|0:0,0:0:0:0:
266,358,46635,1,2,1:2:0:0:
266,358,46721,1,2,1:2:0:0:
266,358,46807,1,2,1:2:0:0:
266,358,46892,1,2,1:2:0:0:
266,358,46978,6,0,L|276:314,1,35,14|0,0:0|0:0,0:0:0:0:
241,243,48178,6,0,L|248:278,1,35,2|0,0:0|0:0,0:0:0:0:
318,208,49550,6,0,L|325:173,1,35,2|0,0:0|0:0,0:0:0:0:
160,128,50921,6,0,L|167:163,1,35,2|0,0:0|0:0,0:0:0:0:
410,135,52292,1,2,0:0:0:0:
410,135,52378,1,2,0:0:0:0:
410,135,52464,6,0,L|417:100,1,35,2|0,0:0|0:0,0:0:0:0:
84,70,53664,6,0,L|91:105,1,35,2|0,0:0|0:0,0:0:0:0:
486,83,55035,6,0,L|493:48,1,35,2|0,0:0|0:0,0:0:0:0:
22,47,56407,6,0,L|15:12,1,35,2|0,0:0|0:0,0:0:0:0:
267,358,57950,6,0,B|367:356|320:300|431:308,1,157.500006008148,10|2,0:0|0:0,0:0:0:0:
482,338,58635,1,2,1:2:0:0:
471,220,58807,2,0,L|481:181,2,26.2500010013581,2|2|2,0:0|0:0|0:0,0:0:0:0:
382,227,59150,6,0,P|367:195|364:157,1,52.5000020027161,2|10,0:0|0:0,0:0:0:0:
403,80,59492,1,0,0:0:0:0:
403,80,59664,2,0,L|328:68,2,52.5000020027161,2|0|2,0:0|0:0|1:2,0:0:0:0:
464,30,60178,1,10,0:0:0:0:
494,112,60350,1,2,0:0:0:0:
324,108,60521,1,2,0:0:0:0:
324,108,60692,6,0,P|301:74|182:45,1,157.500006008148,10|0,0:0|0:0,0:0:0:0:
78,72,61378,1,2,1:2:0:0:
119,2,61550,2,0,L|115:76,1,52.5000020027161,2|2,0:0|0:0,0:0:0:0:
176,139,61892,1,2,0:0:0:0:
176,139,62064,6,0,L|183:260,1,105.000004005432,10|0,0:0|0:0,0:0:0:0:
122,319,62578,2,0,L|85:312,2,26.2500010013581,2|2|2,0:0|0:0|1:2,0:0:0:0:
253,346,62921,2,0,P|275:326|352:301,1,105.000004005432,10|2,0:0|0:0,0:0:0:0:
418,322,63350,1,2,0:0:0:0:
428,331,63435,5,10,0:0:0:0:
428,331,63778,1,10,0:0:0:0:
384,224,64121,1,10,0:0:0:0:
384,224,64464,1,10,0:0:0:0:
497,172,64807,5,10,0:0:0:0:
420,188,64978,1,8,0:0:0:0:
400,109,65150,5,10,0:0:0:0:
304,87,65321,1,8,0:0:0:0:
258,171,65492,5,10,0:0:0:0:
142,198,65663,1,8,0:0:0:0:
126,87,65836,5,10,0:0:0:0:
0,57,66007,1,8,0:0:0:0:
32,256,66178,5,10,0:0:0:0:
33,264,66264,1,8,0:0:0:0:
35,273,66350,1,8,0:0:0:0:
36,282,66435,1,8,0:0:0:0:
38,291,66521,5,10,0:0:0:0:
39,300,66607,1,8,0:0:0:0:
41,308,66693,1,8,0:0:0:0:
43,317,66778,1,8,0:0:0:0:
44,326,66864,5,10,0:0:0:0:
45,335,66950,1,8,0:0:0:0:
47,343,67036,1,8,0:0:0:0:
49,352,67121,1,8,0:0:0:0:
50,361,67207,6,0,L|94:352,1,26.2500010013581,2|2,1:2|1:2,0:0:0:0:
146,250,67378,2,0,L|102:259,1,26.2500010013581,2|2,1:2|1:2,0:0:0:0:
279,334,67550,6,0,P|296:305|300:274,1,52.5000020027161,6|10,1:2|0:0,0:0:0:0:
258,205,67807,1,10,0:0:0:0:
247,202,67892,2,0,P|230:173|226:142,1,52.5000020027161,6|10,1:2|0:0,0:0:0:0:
323,115,68150,1,10,0:0:0:0:
335,107,68235,2,0,L|340:63,1,26.2500010013581,6|10,1:2|0:0,0:0:0:0:
240,8,68407,1,10,0:0:0:0:
229,20,68492,1,10,0:0:0:0:
242,50,68578,5,2,1:2:0:0:
242,50,68921,6,0,B|173:66|111:34|111:34|71:54|88:104,1,210.000008010865,14|2,0:0|1:2,0:0:0:0:
167,84,69435,1,2,0:0:0:0:
205,210,69607,1,2,0:0:0:0:
240,137,69778,1,10,0:0:0:0:
72,177,69950,1,2,1:2:0:0:
109,336,70121,2,0,L|117:261,1,52.5000020027161,2|2,0:0|0:0,0:0:0:0:
76,191,70292,5,10,0:0:0:0:
235,220,70464,1,2,0:0:0:0:
253,182,70549,1,2,0:0:0:0:
282,151,70635,1,2,1:2:0:0:
318,131,70721,1,2,0:0:0:0:
359,121,70806,1,2,0:0:0:0:
400,124,70892,1,2,0:0:0:0:
440,138,70978,2,0,L|433:242,1,52.5000020027161,2|2,0:0|0:0,0:0:0:0:
429,346,71150,1,10,0:0:0:0:
429,346,71235,1,2,0:0:0:0:
429,346,71321,2,0,P|460:315|452:289,1,52.5000020027161,2|2,1:2|0:0,0:0:0:0:
281,260,71492,1,2,0:0:0:0:
281,260,71664,6,0,P|308:309|314:368,2,105.000004005432,10|2|2,0:0|0:0|1:2,0:0:0:0:
114,287,72178,1,2,0:0:0:0:
91,262,72264,1,2,0:0:0:0:
120,225,72350,1,2,0:0:0:0:
206,320,72521,1,10,0:0:0:0:
34,366,72692,1,2,1:2:0:0:
48,193,72864,2,0,L|26:106,1,52.5000020027161,2|2,0:0|0:0,0:0:0:0:
10,51,73035,5,10,0:0:0:0:
188,98,73207,1,2,0:0:0:0:
236,83,73292,1,2,0:0:0:0:
257,36,73378,2,0,P|300:24|316:25,1,52.5000020027161,2|2,1:2|0:0,0:0:0:0:
305,170,73550,2,0,P|278:167|254:157,1,52.5000020027161,2|2,0:0|0:0,0:0:0:0:
430,111,73721,1,2,0:0:0:0:
426,147,73806,1,2,0:0:0:0:
422,184,73892,1,10,0:0:0:0:
418,220,73978,1,2,0:0:0:0:
415,257,74064,2,0,L|491:244,1,52.5000020027161,2|2,1:2|0:0,0:0:0:0:
371,365,74235,1,2,0:0:0:0:
371,365,74321,1,2,0:0:0:0:
371,365,74407,6,0,B|245:368|293:280|164:285,1,210.000008010865,14|2,0:0|1:2,0:0:0:0:
39,327,74921,1,2,0:0:0:0:
39,327,75007,1,2,0:0:0:0:
39,327,75092,1,2,0:0:0:0:
113,373,75264,1,10,0:0:0:0:
142,201,75435,1,2,1:2:0:0:
5,228,75607,2,0,L|16:157,1,52.5000020027161,2|2,0:0|0:0,0:0:0:0:
30,81,75778,6,0,P|95:46|142:42,1,105.000004005432,10|2,0:0|0:0,0:0:0:0:
202,54,76035,1,2,0:0:0:0:
202,54,76121,1,2,1:2:0:0:
200,246,76292,2,0,P|183:190|189:119,1,105.000004005432,2|0,0:0|0:0,0:0:0:0:
326,189,76635,2,0,P|387:169|437:132,1,105.000004005432,10|2,0:0|1:2,0:0:0:0:
483,72,76978,1,2,0:0:0:0:
288,19,77150,6,0,L|307:243,1,210.000008010865,10|2,0:0|1:2,0:0:0:0:
323,378,77664,2,0,P|291:319|236:313,1,105.000004005432,2|0,0:0|0:0,0:0:0:0:
424,313,78007,2,0,P|483:281|489:226,1,105.000004005432,10|2,0:0|1:2,0:0:0:0:
493,143,78350,1,2,0:0:0:0:
370,176,78521,5,10,0:0:0:0:
391,91,78692,2,0,L|270:113,2,105.000004005432,2|2|2,0:0|1:2|0:0,0:0:0:0:
360,207,79207,1,2,0:0:0:0:
224,192,79378,1,10,0:0:0:0:
224,192,79464,1,10,0:0:0:0:
224,192,79550,6,0,L|233:254,1,52.5000020027161,6|2,1:2|1:2,0:0:0:0:
96,288,79721,2,0,L|107:220,1,52.5000020027161,2|2,1:2|1:2,0:0:0:0:
320,320,79892,5,14,0:0:0:0:
209,270,80064,1,2,0:0:0:0:
400,241,80235,1,2,1:2:0:0:
333,357,80407,1,2,0:0:0:0:
333,357,80492,1,2,0:0:0:0:
333,356,80578,1,2,0:0:0:0:
352,160,80750,2,0,L|439:178,1,52.5000020027161,10|2,0:0|0:0,0:0:0:0:
302,239,80921,1,2,1:2:0:0:
318,60,81092,2,0,L|302:-4,1,52.5000020027161,2|2,0:0|0:0,0:0:0:0:
134,85,81264,6,0,L|237:109,1,105.000004005432,10|2,0:0|0:0,0:0:0:0:
416,64,81607,1,2,1:2:0:0:
422,203,81778,1,2,0:0:0:0:
445,183,81864,1,2,0:0:0:0:
439,143,81950,2,0,L|357:155,1,52.5000020027161,2|2,0:0|0:0,0:0:0:0:
281,216,82121,2,0,L|199:204,1,52.5000020027161,10|2,0:0|0:0,0:0:0:0:
92,192,82292,1,2,1:2:0:0:
75,223,82378,1,2,0:0:0:0:
105,265,82464,2,0,L|122:183,1,52.5000020027161,2|2,0:0|0:0,0:0:0:0:
132,63,82635,6,0,P|100:118|1:120,1,157.500006008148,10|0,0:0|0:0,0:0:0:0:
12,115,82978,2,0,P|67:104|81:147,1,105.000004005432,2|2,1:2|0:0,0:0:0:0:
30,212,83235,1,2,0:0:0:0:
30,212,83321,1,2,0:0:0:0:
158,187,83492,1,10,0:0:0:0:
112,354,83664,1,2,1:2:0:0:
105,265,83835,2,0,L|88:347,1,52.5000020027161,2|2,0:0|0:0,0:0:0:0:
112,354,84007,5,10,0:0:0:0:
256,288,84178,1,2,0:0:0:0:
256,288,84263,1,2,0:0:0:0:
256,288,84350,1,2,1:2:0:0:
297,282,84435,1,2,0:0:0:0:
339,277,84521,1,2,0:0:0:0:
380,272,84607,1,2,0:0:0:0:
426,293,84692,1,2,0:0:0:0:
475,282,84777,1,2,0:0:0:0:
502,238,84863,1,10,0:0:0:0:
487,190,84949,1,2,0:0:0:0:
443,164,85035,2,0,L|458:80,1,52.5000020027161,2|2,1:2|0:0,0:0:0:0:
472,4,85207,1,2,0:0:0:0:
472,4,85292,1,2,0:0:0:0:
472,4,85378,6,0,P|411:26|310:41,1,157.500006008148,14|0,0:0|0:0,0:0:0:0:
277,30,85721,2,0,P|350:32|374:81,1,105.000004005432,2|2,1:2|0:0,0:0:0:0:
305,118,85978,1,2,0:0:0:0:
305,118,86064,1,2,0:0:0:0:
402,61,86235,1,10,0:0:0:0:
416,256,86407,1,2,1:2:0:0:
228,183,86578,1,2,0:0:0:0:
228,183,86750,6,0,P|248:258|255:351,1,157.500006008148,10|0,0:0|0:0,0:0:0:0:
228,372,87092,2,0,P|247:294|299:277,1,105.000004005432,2|2,1:2|0:0,0:0:0:0:
337,261,87350,1,2,0:0:0:0:
337,261,87435,1,2,0:0:0:0:
430,356,87607,1,10,0:0:0:0:
384,160,87778,1,2,1:2:0:0:
497,180,87950,2,0,L|503:109,1,52.5000020027161,2|2,0:0|0:0,0:0:0:0:
511,32,88121,5,10,0:0:0:0:
511,32,88292,1,10,0:0:0:0:
350,80,88464,1,2,1:2:0:0:
396,13,88635,2,0,L|390:84,1,52.5000020027161,10|2,0:0|0:0,0:0:0:0:
376,204,88807,1,2,0:0:0:0:
334,171,88892,1,2,0:0:0:0:
287,150,88978,2,0,L|293:221,1,52.5000020027161,10|10,0:0|0:0,0:0:0:0:
307,353,89150,1,2,1:2:0:0:
324,323,89235,1,2,1:2:0:0:
302,296,89321,1,2,1:2:0:0:
270,308,89407,1,2,1:2:0:0:
270,343,89492,6,0,L|394:324,1,105.000004005432,6|10,1:2|0:0,0:0:0:0:
359,224,89750,1,10,0:0:0:0:
357,214,89835,2,0,L|233:233,1,105.000004005432,6|10,1:2|0:0,0:0:0:0:
155,243,90092,1,10,0:0:0:0:
158,234,90178,2,0,L|172:150,1,52.5000020027161,6|10,1:2|0:0,0:0:0:0:
189,47,90350,1,10,0:0:0:0:
200,59,90435,1,10,0:0:0:0:
187,89,90521,5,2,1:2:0:0:
187,89,90864,6,0,L|192:131,1,35,14|0,0:0|0:0,0:0:0:0:
239,186,92064,6,0,L|235:152,1,35,2|0,0:0|0:0,0:0:0:0:
127,244,93435,6,0,L|131:278,1,35,2|0,0:0|0:0,0:0:0:0:
320,320,94807,6,0,L|316:286,1,35,2|0,0:0|0:0,0:0:0:0:
70,327,96178,1,2,0:0:0:0:
70,327,96264,1,2,0:0:0:0:
70,327,96350,6,0,L|74:361,1,35,2|0,0:0|0:0,0:0:0:0:
370,376,97550,6,0,L|366:342,1,35,2|0,0:0|0:0,0:0:0:0:
17,219,98921,6,0,L|21:253,1,35,2|0,0:0|0:0,0:0:0:0:
418,143,100292,6,0,L|414:109,1,35,2|0,0:0|0:0,0:0:0:0:
325,89,101835,6,0,L|320:131,1,35,6|0,0:0|0:0,0:0:0:0:
273,186,103035,6,0,L|277:152,1,35,2|0,0:0|0:0,0:0:0:0:
385,244,104406,6,0,L|381:278,1,35,2|0,0:0|0:0,0:0:0:0:
192,320,105778,6,0,L|196:286,1,35,2|0,0:0|0:0,0:0:0:0:
442,327,107149,1,2,0:0:0:0:
442,327,107235,1,2,0:0:0:0:
442,327,107321,6,0,L|438:361,1,35,2|0,0:0|0:0,0:0:0:0:
142,376,108521,6,0,L|146:342,1,35,2|0,0:0|0:0,0:0:0:0:
495,219,109892,6,0,L|491:253,1,35,2|0,0:0|0:0,0:0:0:0:
94,143,111263,6,0,L|98:109,1,35,2|0,0:0|0:0,0:0:0:0:
416,352,112464,1,2,0:0:0:0:
416,352,112550,1,2,0:0:0:0:
416,352,112635,1,2,0:0:0:0:
416,352,112721,1,2,0:0:0:0:
416,352,112807,6,0,L|339:366,1,70,14|0,0:0|0:0,0:0:0:0:
