osu file format v14

[General]
AudioFilename: audio.mp3
AudioLeadIn: 0
PreviewTime: 350
Countdown: 0
SampleSet: Soft
StackLeniency: 0.5
Mode: 0
LetterboxInBreaks: 0
WidescreenStoryboard: 0

[Editor]
Bookmarks: 11321,24864,35835,46978,57950,68921,79550,79892,90864,101835,112807,113150
DistanceSpacing: 1.5
BeatDivisor: 4
GridSize: 32
TimelineZoom: 2.4

[Metadata]
Title:Sakura Fubuki
TitleUnicode:Sakura Fubuki
Artist:Street
ArtistUnicode:Street
Creator:eiri-
Version:Hard
Source:Muse Dash
Tags:Ayyri Trynna Instrumental Electronic Video Game Drumstep Drum and Bass DnB 大血戦 THE BMS OF FIGHTERS ULTIMATE BOFU2015 maimai MURASAKi Dynamix Artcore CHUNITHM AIR
BeatmapID:2504505
BeatmapSetID:1202610

[Difficulty]
HPDrainRate:4
CircleSize:3.5
OverallDifficulty:7
ApproachRate:8
SliderMultiplier:1.2
SliderTickRate:0.5

[Events]
//Background and Video events
0,0,"Sakura Fubuki.jpg",0,0
//Break Periods
//Storyboard Layer 0 (Background)
//Storyboard Layer 1 (Fail)
//Storyboard Layer 2 (Pass)
//Storyboard Layer 3 (Foreground)
//Storyboard Layer 4 (Overlay)
//Storyboard Sound Samples

[TimingPoints]
350,342.857142857143,4,2,1,50,1,0
11321,-100,4,2,1,60,0,0
16807,-100,4,2,1,75,0,0
19550,-100,4,2,1,60,0,0
20578,-100,4,2,1,75,0,0
20921,-100,4,2,1,80,0,0
21950,-100,4,2,1,75,0,0
22292,-100,4,2,1,80,0,0
24350,-100,4,2,1,60,0,0
24864,-100,4,2,1,90,0,0
25378,-100,4,2,1,75,0,0
30350,-100,4,2,1,90,0,0
30864,-100,4,2,1,75,0,0
34464,-100,4,2,1,90,0,0
35835,-100,4,2,1,90,0,0
36350,-100,4,2,1,75,0,0
41321,-100,4,2,1,90,0,0
41835,-100,4,2,1,75,0,0
46978,-100,4,2,1,50,0,0
57950,-100,4,2,1,60,0,0
63435,-100,4,2,1,75,0,0
67550,-100,4,2,1,80,0,0
68407,-100,4,2,1,75,0,0
68921,-100,4,2,1,90,0,1
79550,-100,4,2,1,90,0,0
79892,-100,4,2,1,90,0,1
90864,-100,4,2,1,50,0,0
112807,-100,4,2,1,75,0,1
112828,-100,4,2,1,5,0,0

[Colours]
Combo1 : 101,181,239
Combo2 : 227,154,245
Combo3 : 247,149,166
Combo4 : 248,200,109
Combo5 : 109,235,113

[HitObjects]
448,320,350,5,6,0:0:0:0:
448,320,2407,5,2,0:0:0:0:
454,301,2921,1,2,0:0:0:0:
454,301,5835,5,2,0:0:0:0:
454,301,7892,5,2,0:0:0:0:
448,282,8406,1,2,0:0:0:0:
448,282,11321,6,0,L|462:201,1,60,10|0,3:2|3:0,0:0:0:0:
501,143,11664,2,0,L|487:62,1,60,2|0,3:2|3:0,0:0:0:0:
420,26,12007,2,0,L|378:18,2,30,2|0|0,3:2|3:0|3:0,0:0:0:0:
388,110,12350,1,2,3:2:0:0:
313,60,12521,1,0,3:0:0:0:
231,96,12692,6,0,L|236:138,2,30,2|0|0,3:2|3:0|3:0,0:0:0:0:
162,37,13035,2,0,L|111:30,3,30,2|0|0|0,3:2|3:0|3:0|3:0,0:0:0:0:
97,61,13378,2,0,L|13:73,2,60,2|2|2,3:2|3:2|3:2,0:0:0:0:
160,132,13892,1,2,3:2:0:0:
160,132,14064,6,0,L|244:144,1,60,2|0,3:2|3:0,0:0:0:0:
289,83,14407,2,0,L|373:71,1,60,2|0,3:2|3:0,0:0:0:0:
438,63,14750,2,0,L|444:24,2,30,2|0|0,3:2|3:0|3:0,0:0:0:0:
495,138,15092,1,2,3:2:0:0:
445,213,15264,6,0,L|458:289,1,60,2|2,3:2|3:2,0:0:0:0:
469,361,15607,1,0,3:0:0:0:
386,326,15778,2,0,L|356:329,3,30,2|0|0|0,3:2|3:0|3:0|3:0,0:0:0:0:
324,361,16121,1,2,3:2:0:0:
281,282,16292,2,0,L|290:205,2,60,2|2|2,3:2|3:2|3:2,0:0:0:0:
188,329,16807,6,0,L|104:341,1,60,10|0,0:0|0:0,0:0:0:0:
69,269,17150,2,0,L|-15:257,1,60,10|0,0:0|0:0,0:0:0:0:
25,163,17492,2,0,L|109:175,1,60,10|0,0:0|0:0,0:0:0:0:
144,103,17835,2,0,L|228:91,1,60,10|2,0:0|0:0,0:0:0:0:
291,29,18178,5,10,0:0:0:0:
291,29,18350,1,8,0:0:0:0:
291,29,18521,2,0,P|306:63|312:92,1,60,10|8,0:0|0:0,0:0:0:0:
244,161,18864,1,10,0:0:0:0:
244,161,19036,1,8,0:0:0:0:
244,161,19207,2,0,P|229:195|223:224,1,60,10|8,0:0|0:0,0:0:0:0:
260,299,19550,6,0,L|250:353,3,30,10|8|8|8,0:0|0:0|0:0|0:0,0:0:0:0:
283,362,19892,2,0,L|337:372,3,30,8|8|8|8,0:0|0:0|0:0|0:0,0:0:0:0:
346,339,20235,2,0,L|356:285,3,30,8|8|8|8,0:0|0:0|0:0|0:0,0:0:0:0:
323,276,20578,2,0,L|312:207,1,60,2|2,1:2|1:2,0:0:0:0:
312,175,20835,1,2,1:2:0:0:
312,175,20921,6,0,L|392:185,1,60,6|10,1:2|0:0,0:0:0:0:
437,243,21264,1,6,1:2:0:0:
506,187,21435,1,10,0:0:0:0:
506,187,21521,1,10,0:0:0:0:
506,187,21607,2,0,L|495:114,1,60,6|10,1:2|0:0,0:0:0:0:
485,35,21950,2,0,L|441:19,3,30,10|10|10|10,0:0|0:0|0:0|0:0,0:0:0:0:
414,39,22292,5,6,1:2:0:0:
335,83,22464,1,6,1:2:0:0:
321,76,22807,5,6,1:2:0:0:
242,32,22979,1,6,1:2:0:0:
228,39,23320,5,6,1:2:0:0:
149,83,23492,1,6,1:2:0:0:
135,76,23835,5,6,1:2:0:0:
56,32,24007,1,6,1:2:0:0:
42,39,24350,6,0,L|54:124,1,60,2|8,1:2|0:0,0:0:0:0:
37,141,24607,1,10,0:0:0:0:
37,141,24692,2,0,L|29:197,1,30,2|2,1:2|1:2,0:0:0:0:
42,215,24864,6,0,P|128:202|233:193,1,180,14|2,0:0|0:0,0:0:0:0:
318,201,25550,1,10,0:0:0:0:
318,201,25635,1,10,0:0:0:0:
318,201,25721,2,0,L|306:287,1,60,2|10,1:2|0:0,0:0:0:0:
363,348,26064,2,0,B|389:361|389:361|462:346,1,90,10|0,0:0|0:0,0:0:0:0:
492,335,26407,5,10,0:0:0:0:
481,254,26578,1,10,0:0:0:0:
481,254,26664,1,10,0:0:0:0:
481,254,26750,2,0,L|469:168,1,60,2|10,1:2|0:0,0:0:0:0:
460,105,27092,1,2,1:2:0:0:
373,130,27264,2,0,P|343:110|246:83,1,120,10|10,0:0|0:0,0:0:0:0:
226,107,27692,1,10,0:0:0:0:
226,107,27778,6,0,L|240:248,1,120,10|2,0:0|0:0,0:0:0:0:
297,293,28292,2,0,L|336:284,2,30,10|10|2,0:0|0:0|1:2,0:0:0:0:
245,370,28635,1,10,0:0:0:0:
245,370,28721,1,10,0:0:0:0:
245,370,28807,2,0,L|206:361,1,30,2|2,0:1|0:1,0:0:0:0:
179,336,28978,2,0,L|140:345,1,30,2|2,0:1|0:1,0:0:0:0:
105,354,29150,6,0,L|123:210,1,120,10|10,0:0|0:0,0:0:0:0:
109,145,29664,1,10,0:0:0:0:
30,100,29835,2,0,L|20:24,1,60,2|10,1:2|0:0,0:0:0:0:
114,15,30178,1,2,1:2:0:0:
114,15,30264,1,2,1:2:0:0:
114,15,30350,6,0,L|252:25,1,120,14|0,0:0|0:0,0:0:0:0:
322,8,30864,2,0,L|330:47,3,30,10|10|10|10,0:0|0:0|0:0|0:0,0:0:0:0:
320,81,31207,2,0,P|373:63|455:62,1,120,2|10,1:2|0:0,0:0:0:0:
511,110,31721,1,10,0:0:0:0:
458,183,31892,6,0,L|465:253,1,60,2|10,1:2|0:0,0:0:0:0:
470,292,32150,1,10,0:0:0:0:
470,292,32235,2,0,B|436:316|436:316|340:302,1,120,10|2,0:0|1:2,0:0:0:0:
286,249,32750,1,10,0:0:0:0:
208,294,32921,2,0,L|123:306,1,60,10|10,0:0|0:0,0:0:0:0:
108,323,33178,1,10,0:0:0:0:
108,323,33264,6,0,P|74:296|71:206,1,120,10|2,0:0|1:2,0:0:0:0:
100,146,33778,1,10,0:0:0:0:
100,146,33864,1,10,0:0:0:0:
100,146,33950,2,0,L|86:78,1,60,2|2,1:2|0:1,0:0:0:0:
147,19,34292,1,2,1:0:0:0:
243,74,34464,6,0,L|327:78,1,60,14|0,0:0|0:0,0:0:0:0:
435,214,34978,1,2,0:1:0:0:
435,214,35064,1,2,0:1:0:0:
435,214,35150,6,0,L|519:218,1,60,14|2,0:0|1:2,0:0:0:0:
492,306,35492,2,0,L|408:302,1,60,14|2,0:0|1:2,0:0:0:0:
330,338,35835,6,0,P|270:323|280:205,1,180,14|2,0:0|0:0,0:0:0:0:
306,144,36521,1,10,0:0:0:0:
306,144,36607,1,10,0:0:0:0:
306,144,36692,2,0,L|232:134,1,60,2|10,1:2|0:0,0:0:0:0:
166,178,37035,2,0,L|64:192,1,90,10|0,0:0|0:0,0:0:0:0:
39,215,37378,5,10,0:0:0:0:
14,138,37550,1,10,0:0:0:0:
14,138,37635,1,10,0:0:0:0:
14,138,37721,2,0,L|27:63,1,60,2|10,1:2|0:0,0:0:0:0:
101,30,38064,1,2,1:2:0:0:
101,30,38235,2,0,P|148:45|194:123,1,120,10|10,0:0|0:0,0:0:0:0:
168,189,38750,6,0,P|205:154|293:117,1,120,10|2,0:0|0:0,0:0:0:0:
350,91,39264,2,0,L|343:35,2,30,10|10|2,0:0|0:0|1:2,0:0:0:0:
444,122,39607,1,10,0:0:0:0:
444,122,39692,1,10,0:0:0:0:
444,122,39778,2,0,P|458:153|460:166,1,30,2|2,0:1|0:1,0:0:0:0:
436,189,39950,2,0,P|422:220|420:233,1,30,2|2,0:1|0:1,0:0:0:0:
450,252,40121,6,0,L|470:381,1,120,10|10,0:0|0:0,0:0:0:0:
383,357,40635,1,10,0:0:0:0:
383,357,40807,2,0,L|373:281,1,60,2|10,1:2|0:0,0:0:0:0:
369,216,41150,1,2,1:2:0:0:
369,216,41235,1,2,1:2:0:0:
369,216,41322,6,0,L|233:233,1,120,14|0,0:0|0:0,0:0:0:0:
171,185,41836,2,0,L|163:224,3,30,10|10|10|10,0:0|0:0|0:0|0:0,0:0:0:0:
131,245,42179,2,0,P|78:227|-4:226,1,120,2|10,1:2|0:0,0:0:0:0:
56,143,42693,1,10,0:0:0:0:
23,59,42864,6,0,L|93:52,1,60,2|10,1:2|0:0,0:0:0:0:
126,35,43122,1,10,0:0:0:0:
126,35,43207,2,0,B|150:69|150:69|136:165,1,120,10|2,0:0|1:2,0:0:0:0:
191,220,43722,1,10,0:0:0:0:
127,283,43893,2,0,L|42:295,1,60,10|10,0:0|0:0,0:0:0:0:
37,325,44150,1,10,0:0:0:0:
37,325,44235,6,0,P|89:340|167:367,1,120,10|2,0:0|1:2,0:0:0:0:
228,310,44750,1,10,0:0:0:0:
228,310,44836,1,10,0:0:0:0:
228,310,44922,2,0,L|214:242,1,60,2|0,1:2|0:0,0:0:0:0:
250,168,45264,1,2,1:0:0:0:
331,227,45435,1,10,0:0:0:0:
331,227,45521,1,10,0:0:0:0:
331,227,45607,6,0,L|460:216,2,120,10|2|2,0:0|0:0|0:0,0:0:0:0:
279,303,46464,1,10,0:0:0:0:
279,303,46550,1,10,0:0:0:0:
279,303,46635,2,0,L|285:332,3,30,2|2|2|2,1:2|1:2|1:2|1:2,0:0:0:0:
270,374,46978,5,14,0:0:0:0:
270,374,48178,5,2,0:0:0:0:
270,374,49550,5,2,0:0:0:0:
270,374,50921,5,2,0:0:0:0:
270,374,52292,6,0,L|278:318,2,30,2|2|2,0:0|0:0|0:0,0:0:0:0:
270,374,53664,5,2,0:0:0:0:
270,374,55035,5,2,0:0:0:0:
270,374,56407,5,2,0:0:0:0:
270,374,57950,6,0,B|384:381|326:316|460:320,1,180,10|2,0:0|0:0,0:0:0:0:
503,262,58635,1,2,1:2:0:0:
503,262,58807,2,0,L|483:194,1,60,2|2,0:0|0:0,0:0:0:0:
499,115,59150,1,2,0:0:0:0:
499,115,59321,6,0,P|456:129|370:141,1,120,10|2,0:0|0:0,0:0:0:0:
299,103,59835,1,0,0:0:0:0:
242,173,60007,2,0,P|207:159|160:147,2,60,2|10|2,1:2|0:0|0:0,0:0:0:0:
299,249,60521,1,2,0:0:0:0:
299,249,60692,6,0,P|282:302|168:315,1,180,10|0,0:0|0:0,0:0:0:0:
108,252,61378,1,2,1:2:0:0:
108,252,61550,2,0,L|38:264,1,60,2|2,0:0|0:0,0:0:0:0:
9,181,61892,1,2,0:0:0:0:
9,181,62064,6,0,P|52:134|126:140,1,120,10|0,0:0|0:0,0:0:0:0:
184,174,62578,2,0,L|178:228,2,30,2|2|2,0:0|0:0|1:2,0:0:0:0:
262,129,62921,2,0,L|235:-5,1,120,10|2,0:0|0:0,0:0:0:0:
285,30,63350,1,2,0:0:0:0:
285,30,63435,6,0,L|370:20,1,60,10|0,0:0|0:0,0:0:0:0:
426,60,63778,2,0,L|511:50,1,60,10|0,0:0|0:0,0:0:0:0:
497,150,64121,2,0,L|412:160,1,60,10|0,0:0|0:0,0:0:0:0:
356,120,64464,2,0,L|271:130,1,60,10|2,0:0|0:0,0:0:0:0:
214,66,64807,5,10,0:0:0:0:
214,66,64978,1,8,0:0:0:0:
214,66,65150,2,0,P|190:32|157:7,1,60,10|8,0:0|0:0,0:0:0:0:
95,14,65492,1,10,0:0:0:0:
95,14,65663,1,8,0:0:0:0:
95,14,65835,2,0,P|61:38|36:71,1,60,10|8,0:0|0:0,0:0:0:0:
21,144,66178,6,0,L|29:185,3,30,10|8|8|8,0:0|0:0|0:0|0:0,0:0:0:0:
59,204,66521,2,0,L|51:245,3,30,10|8|8|8,0:0|0:0|0:0|0:0,0:0:0:0:
25,269,66864,2,0,L|33:310,3,30,10|8|8|8,0:0|0:0|0:0|0:0,0:0:0:0:
67,324,67207,2,0,P|99:306|142:304,1,60,2|2,1:2|1:2,0:0:0:0:
169,315,67464,1,2,1:2:0:0:
169,315,67550,6,0,L|156:397,1,60,6|10,1:2|0:0,0:0:0:0:
249,370,67892,1,6,1:2:0:0:
288,293,68064,1,10,0:0:0:0:
288,293,68150,1,10,0:0:0:0:
288,293,68235,2,0,L|277:219,1,60,6|10,1:2|0:0,0:0:0:0:
232,156,68578,2,0,L|188:165,3,30,2|2|2|2,1:2|0:0|0:0|0:0,0:0:0:0:
162,142,68921,6,0,B|107:122|107:122|124:47,2,120,14|2|2,0:0|1:2|0:0,0:0:0:0:
210,67,69778,1,10,0:0:0:0:
210,67,69950,2,0,L|281:59,1,60,2|2,1:2|0:0,0:0:0:0:
378,6,70292,5,10,0:0:0:0:
378,103,70464,1,2,0:0:0:0:
378,103,70550,1,2,0:0:0:0:
378,103,70635,2,0,L|384:149,3,30,2|2|2|2,1:2|0:0|0:0|0:0,0:0:0:0:
404,171,70978,2,0,L|398:217,3,30,2|2|10|2,0:0|0:0|0:0|0:0,0:0:0:0:
378,239,71321,1,2,1:2:0:0:
271,214,71492,1,2,0:0:0:0:
271,214,71664,6,0,L|199:223,1,60,10|2,0:0|0:0,0:0:0:0:
136,171,72007,1,2,1:2:0:0:
76,239,72178,1,2,0:0:0:0:
76,239,72264,1,2,0:0:0:0:
76,239,72350,2,0,L|88:313,1,60,2|10,0:0|0:0,0:0:0:0:
161,344,72692,1,2,1:2:0:0:
254,261,72864,6,0,L|313:250,1,60,2|10,0:0|0:0,0:0:0:0:
402,296,73207,1,2,0:0:0:0:
402,296,73292,1,2,0:0:0:0:
402,296,73378,2,0,L|411:352,3,30,2|2|2|2,1:2|0:0|0:0|0:0,0:0:0:0:
444,351,73721,2,0,L|500:342,3,30,2|2|10|2,0:0|0:0|0:0|0:0,0:0:0:0:
499,309,74064,2,0,L|490:253,3,30,2|2|2|2,1:2|0:0|0:0|0:0,0:0:0:0:
471,240,74407,6,0,L|488:94,2,120,14|2|2,0:0|1:2|0:0,0:0:0:0:
387,220,75264,1,10,0:0:0:0:
387,220,75435,2,0,L|304:228,1,60,2|2,1:2|0:0,0:0:0:0:
229,274,75778,6,0,P|187:255|182:172,1,120,10|2,0:0|1:2,0:0:0:0:
221,110,76292,2,0,P|158:100|144:100,1,60,2|0,0:0|0:0,0:0:0:0:
71,104,76635,2,0,P|56:72|54:38,1,60,10|2,0:0|1:2,0:0:0:0:
170,13,76978,1,2,0:0:0:0:
170,13,77150,6,0,L|303:29,1,120,10|2,0:0|1:2,0:0:0:0:
366,73,77664,2,0,L|444:63,1,60,2|0,0:0|0:0,0:0:0:0:
438,153,78007,2,0,L|360:163,1,60,10|2,0:0|1:2,0:0:0:0:
278,215,78350,6,0,L|155:198,1,120,2|2,0:0|0:0,0:0:0:0:
84,147,78864,2,0,L|2:158,1,60,2|2,1:2|0:0,0:0:0:0:
7,243,79206,1,2,0:0:0:0:
66,324,79378,1,10,0:0:0:0:
66,324,79464,1,10,0:0:0:0:
66,324,79550,6,0,L|112:317,1,30,6|2,1:2|1:2,0:0:0:0:
130,290,79721,2,0,L|176:297,1,30,2|2,1:2|1:2,0:0:0:0:
194,324,79892,6,0,L|263:313,1,60,14|2,0:0|0:0,0:0:0:0:
342,298,80235,1,2,1:2:0:0:
318,220,80407,1,2,0:0:0:0:
318,220,80492,1,2,0:0:0:0:
318,220,80578,2,0,L|326:144,1,60,2|10,0:0|0:0,0:0:0:0:
292,75,80921,1,2,1:2:0:0:
208,154,81092,6,0,P|152:136|74:122,1,120,2|2,0:0|0:0,0:0:0:0:
22,65,81607,1,2,1:2:0:0:
97,14,81778,1,2,0:0:0:0:
97,14,81864,1,2,0:0:0:0:
97,14,81950,2,0,L|149:22,3,30,2|2|10|2,0:0|0:0|0:0|0:0,0:0:0:0:
161,46,82292,2,0,L|213:38,1,30,2|2,1:2|0:0,0:0:0:0:
225,14,82464,1,2,0:0:0:0:
306,80,82635,6,0,L|300:160,1,60,10|0,0:0|0:0,0:0:0:0:
372,195,82978,2,0,P|420:179|511:168,1,120,2|2,1:2|0:0,0:0:0:0:
512,260,83492,1,10,0:0:0:0:
512,260,83664,1,2,1:2:0:0:
413,310,83835,6,0,L|335:298,1,60,2|10,0:0|0:0,0:0:0:0:
272,293,84178,1,2,0:0:0:0:
272,293,84264,1,2,0:0:0:0:
272,293,84350,2,0,L|266:340,3,30,2|2|2|2,1:2|0:0|0:0|0:0,0:0:0:0:
231,348,84692,2,0,L|184:342,3,30,2|2|10|2,0:0|0:0|0:0|0:0,0:0:0:0:
176,307,85035,2,0,L|182:260,3,30,2|2|2|2,1:2|0:0|0:0|0:0,0:0:0:0:
158,237,85378,6,0,L|27:255,2,120,14|2|2,0:0|1:2|0:0,0:0:0:0:
227,178,86235,1,10,0:0:0:0:
145,134,86407,2,0,L|130:54,1,60,2|2,1:2|0:0,0:0:0:0:
221,11,86750,6,0,P|288:18|333:66,1,120,10|2,0:0|1:2,0:0:0:0:
395,108,87264,2,0,L|469:116,1,60,2|0,0:0|0:0,0:0:0:0:
419,199,87607,1,10,0:0:0:0:
419,199,87778,2,0,L|359:205,1,60,2|2,1:2|0:0,0:0:0:0:
273,218,88121,5,10,0:0:0:0:
273,218,88292,1,10,0:0:0:0:
256,306,88464,1,2,1:2:0:0:
352,303,88635,1,10,0:0:0:0:
352,303,88721,1,2,0:0:0:0:
352,303,88807,2,0,L|345:358,3,30,2|2|10|10,0:0|0:0|0:0|0:0,0:0:0:0:
376,367,89150,2,0,L|440:374,1,60,2|2,1:2|1:2,0:0:0:0:
479,356,89407,1,2,1:2:0:0:
479,356,89492,6,0,L|464:283,1,60,6|10,1:2|0:0,0:0:0:0:
485,208,89835,1,6,1:2:0:0:
403,229,90007,1,10,0:0:0:0:
403,229,90092,1,10,0:0:0:0:
403,229,90178,2,0,L|337:221,1,60,6|10,1:2|0:0,0:0:0:0:
303,141,90521,2,0,L|296:97,3,30,2|2|2|2,1:2|0:0|0:0|0:0,0:0:0:0:
330,79,90864,5,14,0:0:0:0:
330,79,92064,5,2,0:0:0:0:
330,79,93435,5,2,0:0:0:0:
330,79,94807,5,2,0:0:0:0:
330,79,96178,6,0,L|372:74,2,30,2|2|2,0:0|0:0|0:0,0:0:0:0:
330,79,97550,5,2,0:0:0:0:
330,79,98921,5,2,0:0:0:0:
330,79,100292,5,2,0:0:0:0:
182,305,101835,5,6,0:0:0:0:
182,305,103035,5,2,0:0:0:0:
182,305,104406,5,2,0:0:0:0:
182,305,105778,5,2,0:0:0:0:
182,305,107149,6,0,L|140:310,2,30,2|2|2,0:0|0:0|0:0,0:0:0:0:
182,305,108521,5,2,0:0:0:0:
182,305,109892,5,2,0:0:0:0:
182,305,111263,5,2,0:0:0:0:
182,305,112464,2,0,L|140:310,3,30,2|2|2|2,0:0|0:0|0:0|0:0,0:0:0:0:
110,292,112807,6,0,L|128:171,1,120,14|0,0:0|0:0,0:0:0:0:
