osu file format v14

[General]
AudioFilename: audio.mp3
AudioLeadIn: 0
PreviewTime: 350
Countdown: 0
SampleSet: Soft
StackLeniency: 0.5
Mode: 0
LetterboxInBreaks: 0
WidescreenStoryboard: 0

[Editor]
Bookmarks: 11321,24864,35835,46978,57950,68921,79550,79892,90864,101835,112807,113150
DistanceSpacing: 1
BeatDivisor: 4
GridSize: 32
TimelineZoom: 2.4

[Metadata]
Title:Sakura Fubuki
TitleUnicode:Sakura Fubuki
Artist:Street
ArtistUnicode:Street
Creator:eiri-
Version:Easy
Source:Muse Dash
Tags:Ayyri Trynna Instrumental Electronic Video Game Drumstep Drum and Bass DnB 大血戦 THE BMS OF FIGHTERS ULTIMATE BOFU2015 maimai MURASAKi Dynamix Artcore CHUNITHM AIR
BeatmapID:2504504
BeatmapSetID:1202610

[Difficulty]
HPDrainRate:3
CircleSize:2
OverallDifficulty:4
ApproachRate:5
SliderMultiplier:1
SliderTickRate:0.5

[Events]
//Background and Video events
0,0,"Sakura Fubuki.jpg",0,0
//Break Periods
//Storyboard Layer 0 (Background)
//Storyboard Layer 1 (Fail)
//Storyboard Layer 2 (Pass)
//Storyboard Layer 3 (Foreground)
//Storyboard Layer 4 (Overlay)
//Storyboard Sound Samples

[TimingPoints]
350,342.857142857143,4,2,1,50,1,0
11321,-100,4,2,1,60,0,0
16807,-100,4,2,1,75,0,0
19550,-100,4,2,1,60,0,0
20578,-100,4,2,1,75,0,0
20921,-100,4,2,1,80,0,0
21950,-100,4,2,1,75,0,0
22292,-100,4,2,1,80,0,0
24350,-100,4,2,1,60,0,0
24864,-100,4,2,1,90,0,0
25378,-100,4,2,1,75,0,0
30350,-100,4,2,1,90,0,0
30864,-100,4,2,1,75,0,0
34464,-100,4,2,1,90,0,0
35835,-100,4,2,1,90,0,0
36350,-100,4,2,1,75,0,0
41321,-100,4,2,1,90,0,0
41835,-100,4,2,1,75,0,0
46978,-100,4,2,1,50,0,0
57950,-100,4,2,1,60,0,0
63435,-100,4,2,1,75,0,0
67550,-100,4,2,1,80,0,0
68407,-100,4,2,1,75,0,0
68921,-100,4,2,1,90,0,1
79550,-100,4,2,1,90,0,0
79892,-100,4,2,1,90,0,1
90864,-100,4,2,1,50,0,0
112807,-100,4,2,1,75,0,1
112828,-100,4,2,1,5,0,0

[Colours]
Combo1 : 101,181,239
Combo2 : 227,154,245
Combo3 : 247,149,166
Combo4 : 248,200,109
Combo5 : 109,235,113

[HitObjects]
448,320,350,5,6,0:0:0:0:
448,320,2407,5,2,0:0:0:0:
353,203,2921,1,2,0:0:0:0:
353,203,5835,5,2,0:0:0:0:
353,203,7892,5,2,0:0:0:0:
258,320,8406,1,2,0:0:0:0:
258,320,11321,6,0,P|207:308|145:298,1,100,10|2,3:2|3:2,0:0:0:0:
62,321,12007,2,0,P|26:290|20:233,1,100,2|2,3:2|3:2,0:0:0:0:
87,168,12692,2,0,P|136:159|184:147,1,100,2|2,3:2|3:2,0:0:0:0:
274,101,13378,2,0,B|323:118|323:118|311:220,1,150,2|2,3:2|3:2,0:0:0:0:
284,257,14064,6,0,L|171:250,2,100,2|2|2,3:2|3:2|3:2,0:0:0:0:
379,288,15092,2,0,L|388:354,2,50,2|2|2,3:2|3:2|3:2,0:0:0:0:
408,192,15778,2,0,P|422:155|401:81,1,100,2|2,3:2|3:2,0:0:0:0:
372,65,16292,2,0,L|254:76,1,100,2|2,3:2|3:2,0:0:0:0:
246,117,16807,5,10,0:0:0:0:
148,100,17150,1,10,0:0:0:0:
113,193,17492,1,10,0:0:0:0:
15,176,17835,1,10,0:0:0:0:
14,276,18178,6,0,P|26:310|92:329,1,100,10|10,0:0|0:0,0:0:0:0:
167,277,18864,2,0,P|216:260|278:253,1,100,10|10,0:0|0:0,0:0:0:0:
363,259,19550,2,0,B|417:250|461:286|461:286|426:205|523:171|463:85,1,300,10|2,0:0|1:2,0:0:0:0:
381,141,20921,5,6,1:2:0:0:
292,95,21264,1,6,1:2:0:0:
227,171,21607,2,0,L|105:160,1,100,6|10,1:2|0:0,0:0:0:0:
55,230,22292,6,0,L|65:283,1,50,6|6,1:2|1:2,0:0:0:0:
162,303,22807,2,0,L|152:250,1,50,6|6,1:2|1:2,0:0:0:0:
251,276,23321,2,0,L|260:326,1,50,6|6,1:2|1:2,0:0:0:0:
359,348,23835,2,0,L|349:299,1,50,6|6,1:2|1:2,0:0:0:0:
403,214,24350,1,2,1:2:0:0:
320,89,24864,6,0,P|268:103|252:207,1,150,14|2,0:0|0:0,0:0:0:0:
314,256,25721,1,2,1:2:0:0:
245,328,26064,2,0,L|145:319,1,100,10|10,0:0|0:0,0:0:0:0:
104,228,26750,2,0,L|121:115,1,100,2|2,1:2|1:2,0:0:0:0:
103,81,27264,6,0,P|145:55|256:44,1,150,10|10,0:0|0:0,0:0:0:0:
336,76,28121,1,2,0:0:0:0:
284,161,28464,2,0,L|163:173,1,100,2|2,1:2|0:1,0:0:0:0:
97,121,29150,1,10,0:0:0:0:
26,191,29492,1,10,0:0:0:0:
83,272,29835,2,0,L|204:284,1,100,2|2,1:2|1:2,0:0:0:0:
230,297,30350,6,0,P|304:293|333:213,1,150,14|10,0:0|0:0,0:0:0:0:
305,136,31207,1,2,1:2:0:0:
353,48,31550,1,10,0:0:0:0:
448,75,31892,2,0,L|437:185,1,100,2|10,1:2|0:0,0:0:0:0:
482,264,32578,1,2,1:2:0:0:
415,339,32921,6,0,L|304:325,1,100,10|10,0:0|0:0,0:0:0:0:
236,264,33607,1,2,1:2:0:0:
294,182,33950,2,0,L|278:66,1,100,2|2,1:2|1:0,0:0:0:0:
301,37,34464,6,0,P|273:15|206:16,1,100,14|0,0:0|0:0,0:0:0:0:
128,71,35150,1,14,0:0:0:0:
192,147,35492,1,14,0:0:0:0:
112,208,35835,6,0,P|136:286|211:288,1,150,14|2,0:0|0:0,0:0:0:0:
289,260,36692,1,2,1:2:0:0:
369,319,37035,2,0,L|477:313,1,100,10|10,0:0|0:0,0:0:0:0:
509,221,37721,2,0,P|498:179|449:124,1,100,2|2,1:2|1:2,0:0:0:0:
416,152,38235,6,0,L|251:137,1,150,10|10,0:0|0:0,0:0:0:0:
193,69,39092,1,2,0:0:0:0:
117,134,39435,2,0,L|132:240,1,100,2|2,1:2|0:1,0:0:0:0:
94,326,40121,1,10,0:0:0:0:
183,369,40463,1,10,0:0:0:0:
273,327,40807,2,0,L|394:315,1,100,2|2,1:2|1:2,0:0:0:0:
422,308,41321,6,0,B|458:265|440:235|440:235|356:202,1,150,14|10,0:0|0:0,0:0:0:0:
280,177,42178,1,2,1:2:0:0:
335,94,42521,1,10,0:0:0:0:
256,32,42864,2,0,L|134:47,1,100,2|10,1:2|0:0,0:0:0:0:
78,106,43549,1,2,1:2:0:0:
145,180,43892,6,0,L|129:292,1,100,10|10,0:0|0:0,0:0:0:0:
204,347,44578,1,2,1:2:0:0:
300,320,44921,2,0,L|284:208,1,100,2|2,1:2|1:0,0:0:0:0:
317,125,45607,5,10,0:0:0:0:
408,165,45950,2,0,L|510:153,2,100,2|2|2,0:0|0:0|1:2,0:0:0:0:
341,239,46978,5,14,0:0:0:0:
341,239,48178,5,2,0:0:0:0:
341,239,49550,5,2,0:0:0:0:
341,239,50921,5,2,0:0:0:0:
341,239,52464,5,2,0:0:0:0:
341,239,53664,5,2,0:0:0:0:
341,239,55035,5,2,0:0:0:0:
341,239,56407,5,2,0:0:0:0:
341,239,57950,6,0,P|301:205|149:174,1,200,10|2,0:0|1:2,0:0:0:0:
65,203,58978,1,2,0:0:0:0:
15,116,59321,2,0,P|47:79|196:56,1,200,10|2,0:0|1:2,0:0:0:0:
234,75,60178,1,10,0:0:0:0:
370,14,60692,6,0,B|418:30|470:22|470:22|438:66|448:128,1,200,10|2,0:0|1:2,0:0:0:0:
482,208,61721,1,2,0:0:0:0:
434,296,62064,2,0,P|382:307|332:183,1,200,10|2,0:0|1:2,0:0:0:0:
355,157,62921,1,10,0:0:0:0:
288,22,63435,6,0,L|169:39,1,100,10|10,0:0|0:0,0:0:0:0:
124,112,64121,2,0,L|5:129,1,100,10|10,0:0|0:0,0:0:0:0:
36,225,64807,2,0,L|26:294,2,50,10|8|10,0:0|0:0|0:0,0:0:0:0:
134,240,65492,2,0,L|124:309,2,50,10|8|10,0:0|0:0|0:0,0:0:0:0:
206,170,66178,5,10,0:0:0:0:
289,225,66521,1,10,0:0:0:0:
342,140,66864,1,10,0:0:0:0:
259,85,67207,2,0,L|249:14,1,50,2|2,1:2|1:2,0:0:0:0:
288,0,67550,6,0,P|338:11|404:40,1,100,6|6,1:2|1:2,0:0:0:0:
460,92,68235,1,6,1:2:0:0:
461,192,68578,1,2,1:2:0:0:
377,249,68921,6,0,P|289:204|180:195,1,200,14|2,0:0|0:0,0:0:0:0:
92,220,69950,1,2,1:2:0:0:
29,142,70292,2,0,L|40:31,1,100,10|2,0:0|1:2,0:0:0:0:
134,73,70978,2,0,L|242:40,1,100,2|2,0:0|1:2,0:0:0:0:
275,64,71492,5,2,0:0:0:0:
347,195,72007,2,0,L|336:313,2,100,2|2|2,1:2|0:0|1:2,0:0:0:0:
384,162,72864,1,2,0:0:0:0:
247,100,73378,2,0,L|236:-18,2,100,2|2|2,1:2|0:0|1:2,0:0:0:0:
194,185,74407,6,0,P|118:191|84:81,1,200,14|2,0:0|0:0,0:0:0:0:
162,33,75435,1,2,1:2:0:0:
255,68,75778,2,0,P|328:44|413:31,1,150,10|2,0:0|0:0,0:0:0:0:
489,76,76635,1,10,0:0:0:0:
441,163,76978,6,0,P|464:229|486:325,1,150,2|2,0:0|1:2,0:0:0:0:
465,354,77664,1,2,0:0:0:0:
376,306,78007,1,10,0:0:0:0:
297,368,78350,2,0,L|184:358,1,100,2|2,0:0|0:0,0:0:0:0:
160,325,78864,1,2,1:2:0:0:
70,369,79207,2,0,P|24:341|27:285,1,100,2|6,0:0|1:2,0:0:0:0:
74,214,79892,6,0,L|61:108,2,100,14|2|2,0:0|1:2|0:0,0:0:0:0:
168,247,80921,1,2,1:2:0:0:
250,189,81264,2,0,L|352:205,1,100,10|2,0:0|1:2,0:0:0:0:
447,222,81950,2,0,L|464:288,2,50,2|10|2,0:0|0:0|1:2,0:0:0:0:
479,127,82635,6,0,L|377:111,1,100,10|2,0:0|1:2,0:0:0:0:
243,48,83492,2,0,L|234:114,1,50,10|2,0:0|1:2,0:0:0:0:
218,196,84007,2,0,L|116:180,2,100,10|2|2,0:0|1:2|0:0,0:0:0:0:
280,273,85035,1,2,1:2:0:0:
214,352,85378,6,0,P|135:296|15:289,1,200,14|2,0:0|0:0,0:0:0:0:
73,192,86407,1,2,1:2:0:0:
1,121,86750,2,0,L|11:18,1,100,10|2,0:0|1:2,0:0:0:0:
56,0,87264,1,2,0:0:0:0:
148,36,87607,2,0,L|138:139,1,100,10|2,0:0|0:0,0:0:0:0:
93,157,88121,5,10,0:0:0:0:
69,254,88464,1,2,1:2:0:0:
144,318,88807,2,0,P|199:309|256:308,1,100,2|2,0:0|1:2,0:0:0:0:
338,338,89492,5,6,1:2:0:0:
398,258,89835,1,6,1:2:0:0:
356,167,90178,2,0,L|287:158,2,50,6|10|2,1:2|0:0|1:2,0:0:0:0:
434,104,90864,5,14,0:0:0:0:
434,104,92064,5,2,0:0:0:0:
434,104,93435,5,2,0:0:0:0:
434,104,94807,5,2,0:0:0:0:
434,104,96350,5,2,0:0:0:0:
434,104,97550,5,2,0:0:0:0:
434,104,98921,5,2,0:0:0:0:
434,104,100292,5,2,0:0:0:0:
78,280,101835,5,6,0:0:0:0:
78,280,103035,5,2,0:0:0:0:
78,280,104407,5,2,0:0:0:0:
78,280,105778,5,2,0:0:0:0:
78,280,107321,5,2,0:0:0:0:
78,280,108521,5,2,0:0:0:0:
78,280,109892,5,2,0:0:0:0:
78,280,111264,5,2,0:0:0:0:
78,280,112464,1,2,0:0:0:0:
115,187,112807,6,0,L|226:203,1,100,14|0,0:0|0:0,0:0:0:0:
