osu file format v14

[General]
AudioFilename: Sakura Fubuki.mp3
AudioLeadIn: 0
PreviewTime: 68545
Countdown: 0
SampleSet: Normal
StackLeniency: 0.7
Mode: 1
LetterboxInBreaks: 0
WidescreenStoryboard: 0

[Editor]
DistanceSpacing: 1
BeatDivisor: 4
GridSize: 32
TimelineZoom: 3.2

[Metadata]
Title:Sakura Fubuki
TitleUnicode:Sakura Fubuki
Artist:Street
ArtistUnicode:Street
Creator:Skull Kid
Version:Oni
Source:osu!
Tags:Instrumental Electronic Video Game Drumstep Drum and Bass DnB 大血戦 THE BMS OF FIGHTERS ULTIMATE BOFU2015 Muse Dash maimai MURASAKi Dynamix Artcore CHUNITHM AIR Featured Artist FA
BeatmapID:2490908
BeatmapSetID:532669

[Difficulty]
HPDrainRate:5.5
CircleSize:4
OverallDifficulty:6
ApproachRate:9
SliderMultiplier:1.4
SliderTickRate:1

[Events]
//Background and Video events
0,0,"BG.jpg",0,0
//Break Periods
//Storyboard Layer 0 (Background)
//Storyboard Layer 1 (Fail)
//Storyboard Layer 2 (Pass)
//Storyboard Layer 3 (Foreground)
//Storyboard Layer 4 (Overlay)
//Storyboard Sound Samples

[TimingPoints]
360,342.857142857143,4,1,0,40,1,0
360,-125,4,1,0,40,0,0
5674,-125,4,1,0,50,0,0
11160,-100,4,1,0,60,0,0
16645,-100,4,1,0,70,0,0
19474,-100,4,1,0,50,0,0
20502,-100,4,1,0,60,0,0
21874,-100,4,1,0,70,0,0
47160,-125,4,1,0,50,0,0
57788,-111.111111111111,4,1,0,60,0,0
63360,-109.89010989011,4,1,0,60,0,0
63402,-108.695652173913,4,1,0,65,0,0
63788,-106.382978723404,4,1,0,65,0,0
64131,-104.166666666667,4,1,0,65,0,0
64474,-102.040816326531,4,1,0,65,0,0
64645,-100,4,1,0,70,0,0
68502,-100,4,1,0,80,0,0
68931,-100,4,1,0,80,0,1
90874,-100,4,1,0,80,0,0
91045,-125,4,1,0,50,0,0
112474,-97.0873786407767,4,1,0,50,0,0
112560,-99.009900990099,4,1,0,50,0,0
112645,-101.010101010101,4,1,0,50,0,0
112731,-103.092783505155,4,1,0,50,0,0
112817,-86.9565217391304,4,1,0,50,0,0

[HitObjects]
256,192,360,5,12,0:0:0:0:
256,192,2417,1,8,0:0:0:0:
256,192,2931,1,0,0:0:0:0:
256,192,5845,1,8,0:0:0:0:
256,192,7902,1,8,0:0:0:0:
256,192,8417,1,0,0:0:0:0:
256,192,11331,1,12,0:0:0:0:
256,192,11674,1,0,0:0:0:0:
256,192,12017,1,0,0:0:0:0:
256,192,12360,1,0,0:0:0:0:
256,192,12702,1,0,0:0:0:0:
256,192,13045,1,0,0:0:0:0:
256,192,13388,1,8,0:0:0:0:
256,192,13731,1,0,0:0:0:0:
256,192,13902,1,8,0:0:0:0:
256,192,14245,1,0,0:0:0:0:
256,192,14417,1,0,0:0:0:0:
256,192,14760,1,0,0:0:0:0:
256,192,15102,1,0,0:0:0:0:
256,192,15274,1,8,0:0:0:0:
256,192,15617,1,0,0:0:0:0:
256,192,15788,1,0,0:0:0:0:
256,192,16131,1,0,0:0:0:0:
256,192,16302,1,8,0:0:0:0:
256,192,16474,1,8,0:0:0:0:
256,192,16645,1,8,0:0:0:0:
256,192,16817,1,0,0:0:0:0:
256,192,17160,1,8,0:0:0:0:
256,192,17502,1,0,0:0:0:0:
256,192,17845,1,8,0:0:0:0:
256,192,18188,1,0,0:0:0:0:
256,192,18360,1,8,0:0:0:0:
256,192,18531,1,8,0:0:0:0:
256,192,18702,1,8,0:0:0:0:
256,192,18874,1,0,0:0:0:0:
256,192,19045,1,8,0:0:0:0:
256,192,19217,1,8,0:0:0:0:
256,192,19388,1,8,0:0:0:0:
256,192,19560,1,0,0:0:0:0:
256,192,19731,1,0,0:0:0:0:
256,192,19817,1,0,0:0:0:0:
256,192,19902,1,0,0:0:0:0:
256,192,20074,1,0,0:0:0:0:
256,192,20160,1,0,0:0:0:0:
256,192,20245,1,0,0:0:0:0:
256,192,20417,1,0,0:0:0:0:
256,192,20588,1,8,0:0:0:0:
256,192,20674,1,8,0:0:0:0:
256,192,20760,1,8,0:0:0:0:
256,192,20845,1,8,0:0:0:0:
256,192,20931,1,0,0:0:0:0:
256,192,21102,1,0,0:0:0:0:
256,192,21188,1,0,0:0:0:0:
256,192,21274,1,8,0:0:0:0:
256,192,21445,1,0,0:0:0:0:
256,192,21531,1,0,0:0:0:0:
256,192,21617,1,8,0:0:0:0:
256,192,21788,1,0,0:0:0:0:
256,192,21960,1,8,0:0:0:0:
256,192,22045,1,8,0:0:0:0:
256,192,22131,1,0,0:0:0:0:
256,192,22217,1,0,0:0:0:0:
256,192,22302,1,12,0:0:0:0:
256,192,22474,1,12,0:0:0:0:
256,192,22817,1,12,0:0:0:0:
256,192,22988,1,12,0:0:0:0:
256,192,23331,1,12,0:0:0:0:
256,192,23502,1,12,0:0:0:0:
256,192,23845,1,12,0:0:0:0:
256,192,24017,1,12,0:0:0:0:
256,192,24360,1,0,0:0:0:0:
256,192,24531,1,8,0:0:0:0:
256,192,24617,1,8,0:0:0:0:
256,192,24702,1,8,0:0:0:0:
256,192,24788,1,8,0:0:0:0:
256,192,24874,1,4,0:0:0:0:
256,192,25217,1,0,0:0:0:0:
256,192,25388,1,8,0:0:0:0:
256,192,25560,1,0,0:0:0:0:
256,192,25645,1,8,0:0:0:0:
256,192,25731,1,0,0:0:0:0:
256,192,25902,1,0,0:0:0:0:
256,192,25988,1,0,0:0:0:0:
256,192,26074,1,8,0:0:0:0:
256,192,26417,1,0,0:0:0:0:
256,192,26502,1,0,0:0:0:0:
256,192,26588,1,8,0:0:0:0:
256,192,26674,1,8,0:0:0:0:
256,192,26760,1,0,0:0:0:0:
256,192,26931,1,0,0:0:0:0:
256,192,27102,1,8,0:0:0:0:
256,192,27274,1,0,0:0:0:0:
256,192,27360,1,8,0:0:0:0:
256,192,27531,1,0,0:0:0:0:
256,192,27617,1,8,0:0:0:0:
256,192,27702,1,8,0:0:0:0:
256,192,27788,1,0,0:0:0:0:
256,192,28131,1,0,0:0:0:0:
256,192,28302,1,0,0:0:0:0:
256,192,28388,1,0,0:0:0:0:
256,192,28474,1,8,0:0:0:0:
256,192,28645,1,0,0:0:0:0:
256,192,28817,1,8,0:0:0:0:
256,192,28902,1,8,0:0:0:0:
256,192,28988,1,8,0:0:0:0:
256,192,29074,1,8,0:0:0:0:
256,192,29160,1,0,0:0:0:0:
256,192,29502,1,8,0:0:0:0:
256,192,29588,1,8,0:0:0:0:
256,192,29674,1,0,0:0:0:0:
256,192,29760,1,0,0:0:0:0:
256,192,29845,1,8,0:0:0:0:
256,192,30017,1,0,0:0:0:0:
256,192,30188,1,8,0:0:0:0:
256,192,30360,1,4,0:0:0:0:
256,192,30702,1,0,0:0:0:0:
256,192,30874,1,8,0:0:0:0:
256,192,30960,1,0,0:0:0:0:
256,192,31045,1,8,0:0:0:0:
256,192,31131,1,8,0:0:0:0:
256,192,31217,1,0,0:0:0:0:
256,192,31388,1,8,0:0:0:0:
256,192,31560,1,0,0:0:0:0:
256,192,31731,1,0,0:0:0:0:
256,192,31817,1,8,0:0:0:0:
256,192,31902,1,0,0:0:0:0:
256,192,32074,1,0,0:0:0:0:
256,192,32160,1,0,0:0:0:0:
256,192,32245,1,8,0:0:0:0:
256,192,32588,1,0,0:0:0:0:
256,192,32760,1,8,0:0:0:0:
256,192,32845,1,0,0:0:0:0:
256,192,32931,1,8,0:0:0:0:
256,192,33102,1,8,0:0:0:0:
256,192,33188,1,8,0:0:0:0:
256,192,33274,1,0,0:0:0:0:
256,192,33617,1,8,0:0:0:0:
256,192,33788,1,0,0:0:0:0:
256,192,33874,1,0,0:0:0:0:
256,192,33960,1,8,0:0:0:0:
256,192,34045,1,8,0:0:0:0:
256,192,34131,1,0,0:0:0:0:
256,192,34217,1,0,0:0:0:0:
256,192,34302,1,8,0:0:0:0:
256,192,34474,1,4,0:0:0:0:
256,192,34817,1,0,0:0:0:0:
256,192,34902,1,0,0:0:0:0:
256,192,34988,1,0,0:0:0:0:
256,192,35160,1,12,0:0:0:0:
256,192,35331,1,0,0:0:0:0:
256,192,35502,1,12,0:0:0:0:
256,192,35674,1,8,0:0:0:0:
256,192,35845,1,4,0:0:0:0:
256,192,36188,1,0,0:0:0:0:
256,192,36360,1,8,0:0:0:0:
256,192,36531,1,0,0:0:0:0:
256,192,36617,1,8,0:0:0:0:
256,192,36702,1,0,0:0:0:0:
256,192,36874,1,0,0:0:0:0:
256,192,36960,1,0,0:0:0:0:
256,192,37045,1,8,0:0:0:0:
256,192,37388,1,0,0:0:0:0:
256,192,37474,1,0,0:0:0:0:
256,192,37560,1,8,0:0:0:0:
256,192,37645,1,8,0:0:0:0:
256,192,37731,1,0,0:0:0:0:
256,192,37902,1,0,0:0:0:0:
256,192,38074,1,8,0:0:0:0:
256,192,38245,1,0,0:0:0:0:
256,192,38331,1,8,0:0:0:0:
256,192,38502,1,0,0:0:0:0:
256,192,38588,1,8,0:0:0:0:
256,192,38674,1,8,0:0:0:0:
256,192,38760,1,0,0:0:0:0:
256,192,39102,1,0,0:0:0:0:
256,192,39274,1,0,0:0:0:0:
256,192,39360,1,0,0:0:0:0:
256,192,39445,1,8,0:0:0:0:
256,192,39617,1,0,0:0:0:0:
256,192,39788,1,8,0:0:0:0:
256,192,39874,1,8,0:0:0:0:
256,192,39960,1,8,0:0:0:0:
256,192,40045,1,8,0:0:0:0:
256,192,40131,1,0,0:0:0:0:
256,192,40474,1,8,0:0:0:0:
256,192,40560,1,8,0:0:0:0:
256,192,40645,1,0,0:0:0:0:
256,192,40731,1,0,0:0:0:0:
256,192,40817,1,8,0:0:0:0:
256,192,40988,1,0,0:0:0:0:
256,192,41160,1,8,0:0:0:0:
256,192,41331,1,4,0:0:0:0:
256,192,41674,1,0,0:0:0:0:
256,192,41845,1,8,0:0:0:0:
256,192,41931,1,0,0:0:0:0:
256,192,42017,1,8,0:0:0:0:
256,192,42102,1,8,0:0:0:0:
256,192,42188,1,0,0:0:0:0:
256,192,42360,1,8,0:0:0:0:
256,192,42531,1,0,0:0:0:0:
256,192,42702,1,0,0:0:0:0:
256,192,42788,1,8,0:0:0:0:
256,192,42874,1,0,0:0:0:0:
256,192,43045,1,0,0:0:0:0:
256,192,43131,1,0,0:0:0:0:
256,192,43217,1,8,0:0:0:0:
256,192,43560,1,0,0:0:0:0:
256,192,43731,1,8,0:0:0:0:
256,192,43817,1,0,0:0:0:0:
256,192,43902,1,8,0:0:0:0:
256,192,44074,1,8,0:0:0:0:
256,192,44160,1,8,0:0:0:0:
256,192,44245,1,0,0:0:0:0:
256,192,44588,1,8,0:0:0:0:
256,192,44760,1,0,0:0:0:0:
256,192,44845,1,0,0:0:0:0:
256,192,44931,1,8,0:0:0:0:
256,192,45102,1,0,0:0:0:0:
256,192,45188,1,0,0:0:0:0:
256,192,45274,1,8,0:0:0:0:
256,192,45445,1,0,0:0:0:0:
256,192,45502,1,0,0:0:0:0:
256,192,45560,1,0,0:0:0:0:
256,192,45617,1,0,0:0:0:0:
256,192,45788,1,8,0:0:0:0:
256,192,46131,1,0,0:0:0:0:
256,192,46302,1,8,0:0:0:0:
256,192,46474,1,0,0:0:0:0:
256,192,46645,1,8,0:0:0:0:
256,192,46731,1,8,0:0:0:0:
256,192,46817,1,8,0:0:0:0:
256,192,46902,1,8,0:0:0:0:
256,192,46988,1,4,0:0:0:0:
256,192,48188,1,0,0:0:0:0:
256,192,49560,1,8,0:0:0:0:
256,192,50931,1,8,0:0:0:0:
256,192,52302,1,8,0:0:0:0:
256,192,52388,1,8,0:0:0:0:
256,192,52474,1,0,0:0:0:0:
256,192,53674,1,0,0:0:0:0:
256,192,55045,1,8,0:0:0:0:
256,192,56417,1,8,0:0:0:0:
256,192,57960,1,4,0:0:0:0:
256,192,58474,1,8,0:0:0:0:
256,192,58817,1,8,0:0:0:0:
256,192,59160,1,8,0:0:0:0:
256,192,59331,1,0,0:0:0:0:
256,192,59674,1,8,0:0:0:0:
256,192,60017,1,0,0:0:0:0:
256,192,60188,1,0,0:0:0:0:
256,192,60360,1,8,0:0:0:0:
256,192,60531,1,8,0:0:0:0:
256,192,60702,1,0,0:0:0:0:
256,192,61560,1,8,0:0:0:0:
256,192,61731,1,0,0:0:0:0:
256,192,61902,1,8,0:0:0:0:
256,192,62074,1,8,0:0:0:0:
256,192,62417,1,0,0:0:0:0:
256,192,62760,1,8,0:0:0:0:
256,192,62931,1,8,0:0:0:0:
256,192,63102,1,0,0:0:0:0:
256,192,63274,1,8,0:0:0:0:
256,192,63360,1,8,0:0:0:0:
256,192,63445,1,0,0:0:0:0:
256,192,63788,1,8,0:0:0:0:
256,192,64131,1,0,0:0:0:0:
256,192,64474,1,8,0:0:0:0:
256,192,64817,1,0,0:0:0:0:
256,192,64988,1,8,0:0:0:0:
256,192,65160,1,8,0:0:0:0:
256,192,65331,1,8,0:0:0:0:
256,192,65502,1,0,0:0:0:0:
256,192,65674,1,8,0:0:0:0:
256,192,65845,1,8,0:0:0:0:
256,192,66017,1,8,0:0:0:0:
256,192,66188,1,0,0:0:0:0:
256,192,66360,1,0,0:0:0:0:
256,192,66445,1,0,0:0:0:0:
256,192,66531,1,0,0:0:0:0:
256,192,66702,1,0,0:0:0:0:
256,192,66788,1,0,0:0:0:0:
256,192,66874,1,0,0:0:0:0:
256,192,67045,1,0,0:0:0:0:
256,192,67217,1,8,0:0:0:0:
256,192,67302,1,8,0:0:0:0:
256,192,67388,1,8,0:0:0:0:
256,192,67474,1,8,0:0:0:0:
256,192,67560,1,0,0:0:0:0:
256,192,67731,1,0,0:0:0:0:
256,192,67817,1,0,0:0:0:0:
256,192,67902,1,8,0:0:0:0:
256,192,68074,1,0,0:0:0:0:
256,192,68160,1,0,0:0:0:0:
256,192,68245,1,8,0:0:0:0:
256,192,68417,1,0,0:0:0:0:
256,192,68588,1,8,0:0:0:0:
256,192,68674,1,8,0:0:0:0:
256,192,68760,1,8,0:0:0:0:
256,192,68845,1,8,0:0:0:0:
256,192,68931,1,4,0:0:0:0:
256,192,69274,1,8,0:0:0:0:
256,192,69445,1,0,0:0:0:0:
256,192,69531,1,0,0:0:0:0:
256,192,69617,1,0,0:0:0:0:
256,192,69788,1,8,0:0:0:0:
256,192,69960,1,8,0:0:0:0:
256,192,70131,1,0,0:0:0:0:
256,192,70474,1,8,0:0:0:0:
256,192,70560,1,8,0:0:0:0:
256,192,70645,1,0,0:0:0:0:
256,192,70731,1,0,0:0:0:0:
256,192,70817,1,0,0:0:0:0:
256,192,70902,1,0,0:0:0:0:
256,192,70988,1,8,0:0:0:0:
256,192,71160,1,0,0:0:0:0:
256,192,71245,1,0,0:0:0:0:
256,192,71331,1,8,0:0:0:0:
256,192,71417,1,8,0:0:0:0:
256,192,71502,1,0,0:0:0:0:
256,192,71845,1,8,0:0:0:0:
256,192,72017,1,0,0:0:0:0:
256,192,72188,1,8,0:0:0:0:
256,192,72274,1,8,0:0:0:0:
256,192,72360,1,0,0:0:0:0:
256,192,72531,1,0,0:0:0:0:
256,192,72702,1,8,0:0:0:0:
256,192,72874,1,0,0:0:0:0:
256,192,73217,1,8,0:0:0:0:
256,192,73302,1,8,0:0:0:0:
256,192,73388,1,0,0:0:0:0:
256,192,73560,1,8,0:0:0:0:
256,192,73731,1,0,0:0:0:0:
256,192,73817,1,0,0:0:0:0:
256,192,73902,1,0,0:0:0:0:
256,192,73988,1,0,0:0:0:0:
256,192,74074,1,8,0:0:0:0:
256,192,74160,1,8,0:0:0:0:
256,192,74245,1,8,0:0:0:0:
256,192,74331,1,8,0:0:0:0:
256,192,74417,1,0,0:0:0:0:
256,192,74760,1,8,0:0:0:0:
256,192,75017,1,0,0:0:0:0:
256,192,75102,1,0,0:0:0:0:
256,192,75274,1,0,0:0:0:0:
256,192,75445,1,8,0:0:0:0:
256,192,75617,1,8,0:0:0:0:
256,192,75702,1,8,0:0:0:0:
256,192,75788,1,0,0:0:0:0:
256,192,75960,1,0,0:0:0:0:
256,192,76131,1,8,0:0:0:0:
256,192,76302,1,0,0:0:0:0:
256,192,76645,1,8,0:0:0:0:
256,192,76817,1,0,0:0:0:0:
256,192,76988,1,8,0:0:0:0:
256,192,77074,1,8,0:0:0:0:
256,192,77160,1,0,0:0:0:0:
256,192,77331,1,0,0:0:0:0:
256,192,77502,1,8,0:0:0:0:
256,192,77674,1,0,0:0:0:0:
256,192,78017,1,0,0:0:0:0:
256,192,78188,1,8,0:0:0:0:
256,192,78360,1,8,0:0:0:0:
256,192,78445,1,8,0:0:0:0:
256,192,78531,1,0,0:0:0:0:
256,192,78702,1,8,0:0:0:0:
256,192,78874,1,0,0:0:0:0:
256,192,79045,1,0,0:0:0:0:
256,192,79217,1,8,0:0:0:0:
256,192,79388,1,0,0:0:0:0:
256,192,79474,1,0,0:0:0:0:
256,192,79560,1,8,0:0:0:0:
256,192,79645,1,8,0:0:0:0:
256,192,79731,1,8,0:0:0:0:
256,192,79817,1,8,0:0:0:0:
256,192,79902,1,4,0:0:0:0:
256,192,80245,1,8,0:0:0:0:
256,192,80417,1,0,0:0:0:0:
256,192,80502,1,8,0:0:0:0:
256,192,80674,1,0,0:0:0:0:
256,192,80760,1,0,0:0:0:0:
256,192,80931,1,8,0:0:0:0:
256,192,81017,1,0,0:0:0:0:
256,192,81102,1,8,0:0:0:0:
256,192,81188,1,8,0:0:0:0:
256,192,81274,1,0,0:0:0:0:
256,192,81445,1,0,0:0:0:0:
256,192,81617,1,8,0:0:0:0:
256,192,81788,1,0,0:0:0:0:
256,192,81874,1,8,0:0:0:0:
256,192,81960,1,0,0:0:0:0:
256,192,82131,1,8,0:0:0:0:
256,192,82217,1,8,0:0:0:0:
256,192,82302,1,0,0:0:0:0:
256,192,82388,1,0,0:0:0:0:
256,192,82474,1,8,0:0:0:0:
256,192,82560,1,8,0:0:0:0:
256,192,82645,1,0,0:0:0:0:
256,192,82988,1,8,0:0:0:0:
256,192,83160,1,0,0:0:0:0:
256,192,83245,1,0,0:0:0:0:
256,192,83331,1,0,0:0:0:0:
256,192,83502,1,8,0:0:0:0:
256,192,83674,1,8,0:0:0:0:
256,192,83845,1,0,0:0:0:0:
256,192,84188,1,8,0:0:0:0:
256,192,84274,1,8,0:0:0:0:
256,192,84360,1,0,0:0:0:0:
256,192,84531,1,8,0:0:0:0:
256,192,84702,1,0,0:0:0:0:
256,192,84788,1,0,0:0:0:0:
256,192,84874,1,0,0:0:0:0:
256,192,84960,1,0,0:0:0:0:
256,192,85045,1,8,0:0:0:0:
256,192,85131,1,8,0:0:0:0:
256,192,85217,1,8,0:0:0:0:
256,192,85302,1,8,0:0:0:0:
256,192,85388,1,0,0:0:0:0:
256,192,85731,1,8,0:0:0:0:
256,192,85988,1,0,0:0:0:0:
256,192,86074,1,0,0:0:0:0:
256,192,86245,1,0,0:0:0:0:
256,192,86417,1,8,0:0:0:0:
256,192,86588,1,8,0:0:0:0:
256,192,86674,1,8,0:0:0:0:
256,192,86760,1,0,0:0:0:0:
256,192,86931,1,0,0:0:0:0:
256,192,87102,1,8,0:0:0:0:
256,192,87274,1,0,0:0:0:0:
256,192,87617,1,8,0:0:0:0:
256,192,87788,1,0,0:0:0:0:
256,192,87960,1,8,0:0:0:0:
256,192,88045,1,8,0:0:0:0:
256,192,88131,1,0,0:0:0:0:
256,192,88302,1,0,0:0:0:0:
256,192,88474,1,8,0:0:0:0:
256,192,88645,1,0,0:0:0:0:
256,192,88817,1,8,0:0:0:0:
256,192,88902,1,8,0:0:0:0:
256,192,88988,1,0,0:0:0:0:
256,192,89074,1,0,0:0:0:0:
256,192,89160,1,8,0:0:0:0:
256,192,89331,1,0,0:0:0:0:
256,192,89417,1,8,0:0:0:0:
256,192,89502,1,0,0:0:0:0:
256,192,89674,1,8,0:0:0:0:
256,192,89760,1,8,0:0:0:0:
256,192,89845,1,0,0:0:0:0:
256,192,89931,1,0,0:0:0:0:
256,192,90017,1,0,0:0:0:0:
256,192,90102,1,0,0:0:0:0:
256,192,90188,1,8,0:0:0:0:
256,192,90360,1,0,0:0:0:0:
256,192,90531,1,8,0:0:0:0:
256,192,90617,1,8,0:0:0:0:
256,192,90702,1,8,0:0:0:0:
256,192,90788,1,8,0:0:0:0:
256,192,90874,1,4,0:0:0:0:
256,192,92074,1,0,0:0:0:0:
256,192,93445,1,8,0:0:0:0:
256,192,94817,1,8,0:0:0:0:
256,192,96188,1,8,0:0:0:0:
256,192,96274,1,8,0:0:0:0:
256,192,96360,1,0,0:0:0:0:
256,192,97560,1,0,0:0:0:0:
256,192,98931,1,8,0:0:0:0:
256,192,100302,1,8,0:0:0:0:
256,192,101845,1,0,0:0:0:0:
256,192,103045,1,0,0:0:0:0:
256,192,104417,1,8,0:0:0:0:
256,192,105788,1,8,0:0:0:0:
256,192,107160,1,8,0:0:0:0:
256,192,107245,1,8,0:0:0:0:
256,192,107331,1,0,0:0:0:0:
256,192,108531,1,0,0:0:0:0:
256,192,109902,1,8,0:0:0:0:
256,192,111274,1,8,0:0:0:0:
256,192,112474,1,0,0:0:0:0:
256,192,112560,1,0,0:0:0:0:
256,192,112645,1,8,0:0:0:0:
256,192,112731,1,8,0:0:0:0:
256,192,112817,1,4,0:0:0:0:
