osu file format v14

[General]
AudioFilename: meniscus pi.mp3
AudioLeadIn: 0
PreviewTime: 68273
Countdown: 0
SampleSet: Soft
StackLeniency: 0.7
Mode: 2
LetterboxInBreaks: 0
WidescreenStoryboard: 0

[Editor]
Bookmarks: 11016,24730,46587,57645,68530,90473,112502
DistanceSpacing: 1.2
BeatDivisor: 4
GridSize: 32
TimelineZoom: 2.4

[Metadata]
Title:Sakura Fubuki
TitleUnicode:Sakura Fubuki
Artist:Street
ArtistUnicode:Street
Creator:Sinnoh
Version:Salad
Source:CHUNITHM AIR
Tags:electronic instrumental video game yumeno himiko examination 桜吹雪 BMS bofu2015 of fighter ultimate maimai mai dynamix drumstep artcore
BeatmapID:2438767
BeatmapSetID:1143608

[Difficulty]
HPDrainRate:4
CircleSize:3
OverallDifficulty:7
ApproachRate:7
SliderMultiplier:1.2
SliderTickRate:1

[Events]
//Background and Video events
0,0,"68012889_p0.jpg",0,0
//Break Periods
2,46858,51244
//Storyboard Layer 0 (Background)
//Storyboard Layer 1 (Fail)
//Storyboard Layer 2 (Pass)
//Storyboard Layer 3 (Foreground)
//Storyboard Layer 4 (Overlay)
//Storyboard Sound Samples

[TimingPoints]
30,342.857142857143,4,2,1,100,1,0
10658,-83.3333333333333,4,2,1,100,0,0
16487,-83.3333333333333,4,2,2,60,0,0
19230,-83.3333333333333,4,2,97,60,0,0
20258,-83.3333333333333,4,2,2,60,0,0
24544,-66.6666666666667,4,2,2,100,0,1
25230,-83.3333333333333,4,2,2,100,0,1
26087,-83.3333333333333,4,2,2,100,0,1
26944,-83.3333333333333,4,2,2,100,0,1
27458,-66.6666666666667,4,2,2,100,0,1
27630,-83.3333333333333,4,2,2,100,0,1
28487,-83.3333333333333,4,2,1,100,0,1
28830,-83.3333333333333,4,2,2,100,0,1
30887,-66.6666666666667,4,2,2,100,0,1
31915,-83.3333333333333,4,2,2,100,0,1
32258,-66.6666666666667,4,2,2,100,0,1
32601,-83.3333333333333,4,2,2,100,0,1
35515,-83.3333333333333,4,2,2,100,0,1
37230,-83.3333333333333,4,2,2,100,0,1
39458,-83.3333333333333,4,2,0,100,0,1
39801,-83.3333333333333,4,2,2,100,0,1
46144,-83.3333333333333,4,2,2,100,0,1
46658,-83.3333333333333,4,2,2,100,0,0
52144,-83.3333333333333,4,2,0,100,0,0
57630,-83.3333333333333,4,2,2,50,0,0
63115,-83.3333333333333,4,2,2,60,0,0
64487,-83.3333333333333,4,2,2,80,0,0
65858,-83.3333333333333,4,2,2,90,0,0
68601,-83.3333333333333,4,2,3,100,0,1
90544,-83.3333333333333,4,2,1,100,0,0
91744,-100,4,2,0,100,0,0
110944,-200,4,2,1,100,0,0
112487,-100,4,2,2,100,0,0

[Colours]
Combo1 : 128,128,192
Combo2 : 255,128,192

[HitObjects]
256,192,8258,12,0,10658,0:0:0:0:
387,232,11001,6,0,B|412:227|412:227|371:222|371:222|414:209|414:209|382:197,1,143.999995605469,2|2,0:0|0:0,0:0:0:0:
263,150,11687,2,0,L|95:124,1,143.999995605469,2|2,0:0|0:0,0:0:0:0:
270,234,12372,2,0,L|438:208,1,143.999995605469,2|2,0:0|0:0,0:0:0:0:
115,280,13058,2,0,P|106:196|178:72,1,215.999993408203,2|2,0:0|0:0,0:0:0:0:
222,135,13744,6,0,L|380:96,1,143.999995605469,2|2,0:0|0:0,0:0:0:0:
223,339,14430,2,0,L|218:189,1,143.999995605469,2|2,0:0|0:0,0:0:0:0:
283,180,14944,2,0,L|374:154,1,71.9999978027344,2|2,0:0|0:0,0:0:0:0:
198,220,15458,2,0,L|188:71,1,143.999995605469,2|2,0:0|0:0,0:0:0:0:
253,51,15972,1,2,0:0:0:0:
324,44,16143,1,2,0:0:0:0:
396,38,16314,1,2,0:0:0:0:
231,297,16487,6,0,L|194:124,1,143.999995605469,2|2,0:0|0:0,0:0:0:0:
356,213,17172,2,0,L|339:61,1,143.999995605469,2|2,0:0|0:0,0:0:0:0:
238,63,17687,1,0,0:0:0:0:
306,321,17858,5,2,0:0:0:0:
322,253,18029,1,2,0:0:0:0:
283,195,18200,1,2,0:0:0:0:
214,187,18372,1,2,0:0:0:0:
136,202,18545,1,2,0:0:0:0:
120,134,18716,1,2,0:0:0:0:
159,76,18887,1,2,0:0:0:0:
228,68,19059,1,2,0:0:0:0:
377,139,19230,6,0,L|395:88,10,35.9999989013672,8|8|8|8|8|8|8|8|8|8|8,0:0|0:0|0:0|0:0|0:0|0:0|0:0|0:0|0:0|0:0|0:0,0:0:0:0:
277,169,20258,5,0,1:0:0:0:
241,163,20343,1,0,1:0:0:0:
205,157,20429,1,0,1:0:0:0:
170,151,20515,1,0,1:0:0:0:
131,144,20601,2,0,L|127:49,1,71.9999978027344,4|0,0:0|0:0,0:0:0:0:
234,142,20944,2,0,L|314:119,1,71.9999978027344,0|8,1:0|0:0,0:0:0:0:
217,182,21287,2,0,L|133:169,1,71.9999978027344,0|0,1:0|0:0,0:0:0:0:
70,159,21630,1,2,0:0:0:0:
326,260,21972,6,0,L|324:162,1,71.9999978027344,6|6,0:0|0:0,0:0:0:0:
69,239,22486,2,0,L|75:146,1,71.9999978027344,6|6,0:0|0:0,0:0:0:0:
326,260,23001,2,0,L|324:162,1,71.9999978027344,6|6,0:0|0:0,0:0:0:0:
69,239,23515,2,0,L|75:146,1,71.9999978027344,6|6,0:0|0:0,0:0:0:0:
304,213,24030,1,2,0:0:0:0:
398,210,24201,2,0,L|404:167,2,35.9999989013672,2|2|0,0:0|0:0|1:0,1:1:0:0:
220,307,24544,6,0,P|133:263|116:85,1,270.000010299683,6|0,0:0|0:0,0:0:0:0:
188,126,25230,2,0,L|270:117,1,71.9999978027344,0|8,0:0|0:0,0:0:0:0:
151,308,25572,2,0,L|151:215,1,71.9999978027344,0|2,0:0|0:3,0:0:0:0:
432,203,26086,5,2,0:0:0:0:
432,115,26257,1,0,0:0:0:0:
396,112,26343,1,0,0:0:0:0:
360,109,26429,1,0,0:0:0:0:
270,106,26601,1,0,0:0:0:0:
366,247,26772,1,8,0:0:0:0:
422,200,26944,2,0,P|416:143|324:118,1,143.999995605469,2|0,0:0|0:0,0:0:0:0:
165,238,27458,6,0,P|108:215|208:97,1,270.000010299683,2|0,0:0|0:0,0:0:0:0:
285,117,28144,1,8,0:0:0:0:
37,224,28487,1,2,0:0:0:0:
42,188,28572,1,0,0:0:0:0:
61,158,28658,1,2,0:0:0:0:
91,139,28744,1,0,0:0:0:0:
142,137,28830,6,0,L|288:116,1,143.999995605469,2|2,0:0|0:3,0:0:0:0:
137,191,29515,2,0,L|34:213,2,71.9999978027344,8|2|8,0:0|0:0|0:0,0:0:0:0:
322,278,30030,6,0,P|385:244|309:140,1,215.999993408203,6|0,0:0|0:0,0:0:0:0:
253,116,30716,1,0,0:0:0:0:
184,186,30887,2,0,L|385:158,1,180.000006866455,8|0,0:0|0:0,0:0:0:0:
214,249,31572,6,0,L|117:301,2,90.0000034332277,2|0|0,0:0|0:0|0:0,0:0:0:0:
362,270,32259,2,0,L|355:168,1,90.0000034332277,8|2,0:0|0:0,0:0:0:0:
262,145,32601,1,0,0:0:0:0:
125,227,32944,2,0,L|269:204,1,143.999995605469,6|0,0:0|0:0,0:0:0:0:
422,171,33630,2,0,L|408:73,1,71.9999978027344,8|2,0:0|0:0,0:0:0:0:
90,229,34144,6,0,P|83:147|160:119,1,143.999995605469,6|0,0:0|0:0,0:0:0:0:
214,120,34658,1,2,0:3:0:0:
284,172,34830,1,6,0:0:0:0:
152,143,35172,1,6,0:0:0:0:
467,285,35515,6,0,P|470:200|354:140,1,215.999993408203,6|0,0:0|0:0,0:0:0:0:
290,228,36201,1,0,0:0:0:0:
208,160,36372,2,0,L|310:147,1,71.9999978027344,8|0,0:0|0:0,0:0:0:0:
361,143,36715,1,0,0:0:0:0:
182,243,37058,2,0,L|96:254,2,71.9999978027344,2|0|0,0:0|0:0|0:0,0:0:0:0:
451,164,37744,1,8,0:0:0:0:
475,103,37915,2,0,L|314:83,1,143.999995605469,2|0,0:0|0:0,0:0:0:0:
246,226,38430,6,0,L|475:177,1,215.999993408203,2|0,0:0|0:0,0:0:0:0:
382,148,39115,1,8,0:0:0:0:
99,248,39458,1,2,0:0:0:0:
73,223,39543,1,0,0:0:0:0:
69,188,39629,1,2,0:0:0:0:
88,158,39715,1,0,0:0:0:0:
121,147,39801,2,0,L|280:143,1,143.999995605469,2|0,0:0|0:0,0:0:0:0:
295,140,40230,1,0,0:0:0:0:
332,140,40315,1,0,0:0:0:0:
232,245,40487,2,0,L|126:245,2,71.9999978027344,8|2|8,0:0|0:0|0:0,0:0:0:0:
414,255,41001,6,0,P|452:206|343:124,1,215.999993408203,6|0,0:0|0:0,0:0:0:0:
295,194,41687,1,0,0:0:0:0:
218,186,41858,2,0,P|213:136|304:88,1,143.999995605469,8|0,0:0|0:0,0:0:0:0:
451,179,42544,5,2,0:0:0:0:
387,185,42715,1,0,0:0:0:0:
330,187,42887,2,0,L|166:193,1,143.999995605469,0|8,0:0|0:0,0:0:0:0:
333,295,43572,1,0,0:0:0:0:
58,250,43915,6,0,P|49:192|123:108,1,143.999995605469,2|0,0:0|0:0,0:0:0:0:
227,181,44601,1,8,0:0:0:0:
157,159,44772,1,0,0:0:0:0:
90,139,44944,1,8,0:0:0:0:
365,259,45287,2,0,L|508:226,2,143.999995605469,2|0|0,0:0|0:0|0:0,0:0:0:0:
211,275,46315,1,8,0:0:0:0:
494,145,46658,1,6,0:0:0:0:
407,346,52144,6,0,P|413:252|85:96,1,503.999984619141,2|2,0:0|0:0,0:0:0:0:
105,374,54715,6,0,P|99:280|463:39,1,575.999982421876,2|0,0:0|0:0,0:0:0:0:
423,258,57630,6,0,L|206:192,1,215.999993408203,4|0,0:0|0:0,0:0:0:0:
357,304,58487,2,0,L|360:211,1,71.9999978027344,0|0,0:0|0:0,0:0:0:0:
257,228,58830,2,0,P|223:191|287:132,1,143.999995605469,2|0,0:0|0:0,0:0:0:0:
349,288,59344,1,0,0:0:0:0:
411,254,59515,1,0,0:0:0:0:
444,191,59686,1,8,0:0:0:0:
435,121,59858,1,2,0:0:0:0:
388,68,60029,1,0,0:0:0:0:
319,51,60201,1,2,0:0:0:0:
244,271,60372,6,0,P|186:251|268:93,1,287.999991210938,0|8,0:0|0:0,0:0:0:0:
324,164,61230,2,0,L|426:146,1,71.9999978027344,0|0,0:0|0:0,0:0:0:0:
300,227,61572,2,0,L|3:181,1,287.999991210938,2|0,0:0|0:0,0:0:0:0:
83,155,62430,2,0,L|160:142,1,71.9999978027344,8|2,0:0|0:0,0:0:0:0:
333,198,62944,6,0,L|339:163,2,35.9999989013672,2|0|2,0:0|0:0|0:0,0:0:0:0:
177,178,63459,1,2,0:0:0:0:
327,274,63801,1,2,0:0:0:0:
178,222,64144,1,2,0:0:0:0:
344,321,64487,5,2,0:0:0:0:
384,265,64658,1,2,0:0:0:0:
357,202,64829,1,2,0:0:0:0:
288,195,65001,1,2,0:0:0:0:
168,321,65172,1,2,0:0:0:0:
128,265,65343,1,2,0:0:0:0:
155,202,65514,1,2,0:0:0:0:
453,285,65858,5,8,0:0:0:0:
469,253,65943,1,8,0:0:0:0:
475,218,66029,1,8,0:0:0:0:
470,182,66115,1,8,0:0:0:0:
453,150,66200,1,8,0:0:0:0:
427,125,66286,1,8,0:0:0:0:
395,110,66372,1,10,0:0:0:0:
360,106,66458,1,8,0:0:0:0:
312,244,66544,1,2,0:0:0:0:
277,233,66629,1,8,0:0:0:0:
250,210,66715,1,10,0:0:0:0:
233,178,66801,1,8,0:0:0:0:
229,143,66887,2,0,L|228:90,2,35.9999989013672,8|8|8,0:0|0:0|0:0,0:0:0:0:
337,211,67230,6,0,L|346:113,1,71.9999978027344,6|0,0:0|0:0,0:0:0:0:
243,140,67572,2,0,L|145:129,1,71.9999978027344,8|0,1:2|0:0,0:0:0:0:
254,235,67915,2,0,L|350:239,1,71.9999978027344,8|2,1:2|0:0,0:0:0:0:
415,242,68258,1,2,0:0:0:0:
120,244,68601,6,0,P|108:202|198:150,1,143.999995605469,6|8,0:0|0:0,0:0:0:0:
247,141,69115,2,0,L|418:107,1,143.999995605469,0|2,0:0|0:0,0:0:0:0:
443,95,69630,1,8,0:0:0:0:
256,294,69801,6,0,P|188:254|268:155,1,215.999993408203,2|10,0:0|0:0,0:0:0:0:
304,142,70487,1,2,0:0:0:0:
377,142,70658,2,0,L|379:54,1,71.9999978027344,2|6,0:0|0:0,0:0:0:0:
309,60,71001,1,10,0:0:0:0:
229,83,71172,6,0,L|56:71,1,143.999995605469,2|0,0:0|0:0,0:0:0:0:
12,70,71687,1,8,0:0:0:0:
158,223,72030,2,0,L|154:134,1,71.9999978027344,2|6,0:0|0:0,0:0:0:0:
76,102,72372,1,10,0:0:0:0:
241,227,72544,6,0,L|416:218,1,143.999995605469,2|2,0:0|0:0,0:0:0:0:
452,216,73057,1,10,0:0:0:0:
314,176,73401,2,0,L|325:79,1,71.9999978027344,2|6,0:0|0:0,0:0:0:0:
400,81,73744,1,10,0:0:0:0:
94,244,74087,6,0,P|48:207|109:169,1,143.999995605469,4|8,0:0|0:0,0:0:0:0:
244,170,74772,1,0,0:0:0:0:
174,147,74944,2,0,L|83:120,1,71.9999978027344,6|10,0:0|0:0,0:0:0:0:
183,231,75286,1,2,0:0:0:0:
358,240,75458,6,0,P|430:183|410:117,1,143.999995605469,4|8,0:0|0:0,0:0:0:0:
346,125,75972,2,0,L|191:70,2,143.999995605469,2|6|2,0:0|0:0|0:0,0:0:0:0:
436,147,76830,6,0,L|276:174,1,143.999995605469,4|8,0:0|0:0,0:0:0:0:
229,186,77344,1,2,0:0:0:0:
400,266,77686,2,0,L|408:171,1,71.9999978027344,6|8,0:0|0:0,0:0:0:0:
222,240,78030,6,0,P|151:209|160:126,1,143.999995605469,2|2,0:0|0:0,0:0:0:0:
209,94,78543,1,10,0:0:0:0:
354,130,78887,1,2,0:0:0:0:
272,118,79058,1,6,0:0:0:0:
201,104,79229,1,8,0:0:0:0:
130,91,79400,1,8,0:0:0:0:
299,231,79572,6,0,L|395:222,2,71.9999978027344,6|2|10,0:0|0:0|0:0,0:0:0:0:
155,217,80258,2,0,L|159:136,1,71.9999978027344,2|6,0:0|0:0,0:0:0:0:
252,119,80601,1,10,0:0:0:0:
93,307,80772,6,0,P|66:258|169:142,1,215.999993408203,2|8,0:0|0:0,0:0:0:0:
294,133,81630,1,2,0:0:0:0:
156,197,81972,2,0,L|246:184,1,71.9999978027344,10|2,0:0|0:0,0:0:0:0:
309,150,82315,6,0,L|164:128,2,143.999995605469,4|8|0,0:0|0:0|0:0,0:0:0:0:
372,163,83172,1,6,0:0:0:0:
451,174,83344,1,10,0:0:0:0:
298,259,83515,6,0,P|218:223|250:93,1,215.999993408203,2|10,0:0|0:0,0:0:0:0:
418,209,84372,2,0,L|402:116,1,71.9999978027344,2|6,0:0|0:0,0:0:0:0:
319,110,84715,1,10,0:0:0:0:
47,246,85058,6,0,P|51:177|126:153,1,143.999995605469,4|8,0:0|0:0,0:0:0:0:
271,178,85744,1,0,0:0:0:0:
269,102,85915,2,0,L|190:89,1,71.9999978027344,6|10,0:0|0:0,0:0:0:0:
127,206,86259,6,0,L|351:189,1,215.999993408203,2|8,0:0|0:0,0:0:0:0:
265,104,86944,2,0,L|108:118,2,143.999995605469,2|6|2,0:0|0:0|0:0,0:0:0:0:
361,183,87801,6,0,L|347:91,1,71.9999978027344,4|4,0:0|0:0,0:0:0:0:
249,75,88144,1,8,0:0:0:0:
429,148,88487,1,6,0:0:0:0:
121,272,88830,1,8,0:0:0:0:
120,236,88915,1,8,0:0:0:0:
133,202,89001,1,8,0:0:0:0:
157,176,89087,1,8,0:0:0:0:
190,161,89172,5,6,0:0:0:0:
363,122,89515,1,8,1:2:0:0:
190,86,89858,1,0,0:0:0:0:
364,219,90201,1,10,1:2:0:0:
22,163,90544,1,6,0:0:0:0:
256,192,90887,12,2,94487,0:0:0:0:
451,206,96030,6,0,L|52:72,1,420,2|2,0:0|0:0,0:0:0:0:
356,350,98601,2,0,P|477:290|323:55,1,480,2|2,0:0|0:0,0:0:0:0:
96,333,101515,6,0,P|237:284|332:23,1,420,2|2,0:0|0:0,0:0:0:0:
83,350,104087,6,0,P|116:149|355:44,1,480,2|2,0:0|0:0,0:0:0:0:
61,206,107001,6,0,L|460:72,1,420,2|2,0:0|0:0,0:0:0:0:
202,300,109058,1,0,0:0:0:0:
363,338,109572,2,0,P|413:247|157:90,1,480,2|2,0:0|0:0,0:0:0:0:
256,192,111286,12,2,112487,0:0:0:0:
